osu file format v14

[General]
AudioFilename: Shimo jasumin (2014ver.).mp3
AudioLeadIn: 1600
PreviewTime: 82282
Countdown: 0
SampleSet: Soft
StackLeniency: 0.4
Mode: 0
LetterboxInBreaks: 0
WidescreenStoryboard: 0

[Editor]
DistanceSpacing: 1
BeatDivisor: 4
GridSize: 4
TimelineZoom: 0.8

[Metadata]
Title:Gekka Jasmine (2014ver.)
TitleUnicode:月下ジャスミン (2014ver.)
Artist:Hana
ArtistUnicode:はな
Creator:PinkHeart
Version:Normal
Source:
Tags:松本文紀 Metrowing FrostxE Frostmourne Gyro Zeppeli LunaSaika imoutosan Alice
BeatmapID:988509
BeatmapSetID:408745

[Difficulty]
HPDrainRate:3
CircleSize:3.5
OverallDifficulty:4
ApproachRate:5
SliderMultiplier:0.8
SliderTickRate:1

[Events]
//Background and Video events
0,0,"bg.jpg",0,0
//Break Periods
//Storyboard Layer 0 (Background)
//Storyboard Layer 1 (Fail)
//Storyboard Layer 2 (Pass)
//Storyboard Layer 3 (Foreground)
//Storyboard Sound Samples

[TimingPoints]
400,352.941176470588,4,2,0,40,1,0
82282,-100,4,2,0,70,0,1
104870,-100,4,2,0,20,0,0
107694,-100,4,2,0,40,0,0
152870,-100,4,2,0,70,0,1
175282,-100,4,2,0,60,0,0
175458,-100,4,2,0,80,0,1
198047,-100,4,2,0,60,0,0
199635,-100,4,2,0,5,0,0

[Colours]
Combo1 : 255,255,128
Combo2 : 255,255,255
Combo3 : 255,219,144

[HitObjects]
117,304,400,6,0,P|212:297|256:212,1,200
256,131,1635,1,2,0:0:0:0:
394,304,3223,6,0,P|299:297|256:212,1,200
256,131,4458,2,0,P|298:140|339:218,1,120,2|0,0:0|0:0,0:0:0:0:
136,62,6047,6,0,B|115:158|115:158|80:184|80:224|86:249,1,200
164,225,7282,2,0,P|222:235|256:282,1,120,2|0,0:0|0:0,0:0:0:0:
376,62,8870,6,0,B|397:158|397:158|432:184|432:224|425:254,1,200
347,224,10105,2,0,P|290:234|255:282,1,120,2|0,0:0|0:0,0:0:0:0:
332,304,10988,2,0,P|389:294|423:250,1,80
428,204,11694,5,4,0:0:0:0:
428,204,12047,2,0,B|452:100|452:100,1,80,0|0,1:0|0:0,0:0:0:0:
452,88,12576,2,0,B|428:-16|428:-16,1,80,0|4,1:0|0:0,0:0:0:0:
316,40,13458,2,0,L|220:68,1,80,0|0,1:0|0:0,0:0:0:0:
164,88,14164,1,0,1:0:0:0:
96,44,14517,5,4,0:0:0:0:
96,45,14870,2,0,B|67:133|67:133,1,80,0|0,1:0|0:0,0:0:0:0:
60,160,15399,2,0,B|89:248|89:248,1,80,0|4,1:0|0:0,0:0:0:0:
200,203,16282,2,0,L|296:175,1,80,0|0,1:0|0:0,0:0:0:0:
352,156,16988,1,0,1:0:0:0:
340,236,17341,5,4,0:0:0:0:
340,236,17694,2,0,P|400:280|428:276,1,80,0|0,1:0|0:0,0:0:0:0:
440,280,18223,2,0,P|501:238|507:210,1,80,0|4,1:0|0:0,0:0:0:0:
424,144,19105,2,0,L|344:132,1,80,0|0,1:0|0:0,0:0:0:0:
264,120,19811,1,0,1:0:0:0:
192,160,20164,5,4,0:0:0:0:
176,240,20517,2,0,P|116:284|88:280,1,80,0|0,1:0|0:0,0:0:0:0:
76,284,21046,2,0,P|14:242|8:214,1,80,0|4,1:0|0:0,0:0:0:0:
88,148,21929,2,0,L|168:136,1,80,0|0,1:0|1:0,0:0:0:0:
248,124,22634,1,0,1:0:0:0:
312,180,22988,5,4,0:0:0:0:
312,180,23341,2,0,B|336:228|336:228|312:320,1,120,0|2,1:0|0:0,0:0:0:0:
279,371,24223,2,0,P|191:332|144:348,1,120,4|0,0:0|1:0,0:0:0:0:
100,372,25105,1,0,0:0:0:0:
40,316,25458,1,0,1:0:0:0:
84,248,25811,5,4,0:0:0:0:
84,248,26164,2,0,B|60:200|60:200|84:108,1,120,0|2,1:0|0:0,0:0:0:0:
44,64,27047,2,0,P|160:100|184:88,1,120,4|0,0:0|1:0,0:0:0:0:
220,68,27929,1,0,0:0:0:0:
260,0,28282,1,0,1:0:0:0:
304,72,28635,5,4,0:0:0:0:
304,72,28988,2,0,B|336:92|336:92|444:84,1,120,0|2,1:0|0:0,0:0:0:0:
476,144,29870,2,0,P|500:204|456:268,1,120,4|0,0:0|1:0,0:0:0:0:
404,280,30752,1,0,0:0:0:0:
324,272,31105,1,0,1:0:0:0:
256,316,31458,5,4,0:0:0:0:
188,272,31811,2,0,B|156:252|156:252|48:260,1,120,0|0,1:0|0:0,0:0:0:0:
44,184,32694,2,0,L|188:172,1,120,4|0,0:0|1:0,0:0:0:0:
244,164,33576,1,0,1:0:0:0:
324,156,33929,1,0,1:0:0:0:
256,192,34282,12,2,35694,0:0:0:0:
448,56,37105,6,0,P|424:116|300:120,1,200,4|0,0:0|1:0,0:0:0:0:
252,60,38341,2,0,P|200:52|164:68,2,80,2|2|0,0:0|0:0|0:0,0:0:0:0:
248,180,39576,1,0,1:0:0:0:
212,252,39929,6,0,P|236:312|360:316,1,200,0|0,0:0|1:0,0:0:0:0:
408,256,41165,2,0,P|460:248|496:264,2,80,2|2|0,0:0|0:0|0:0,0:0:0:0:
328,244,42223,1,0,1:0:0:0:
420,168,42752,6,0,P|436:132|340:32,1,200,0|0,0:0|1:0,0:0:0:0:
284,84,43988,2,0,L|196:112,1,80,2|2,0:0|0:0,0:0:0:0:
148,160,44694,2,0,L|25:198,1,120,0|0,0:0|1:0,0:0:0:0:
80,264,45576,6,0,P|114:283|222:196,1,200,0|0,0:0|1:0,0:0:0:0:
148,160,46812,2,0,L|120:71,1,80,2|2,0:0|0:0,0:0:0:0:
204,72,47517,2,0,L|300:160,1,120,0|0,0:0|1:0,0:0:0:0:
356,200,48399,6,0,P|352:272|464:280,1,200,4|0,0:0|1:0,0:0:0:0:
444,208,49635,2,0,P|436:168|448:132,2,80,2|2|0,0:0|0:0|0:0,0:0:0:0:
364,120,50870,1,0,1:0:0:0:
356,200,51223,6,0,P|307:253|223:180,1,200,0|0,0:0|1:0,0:0:0:0:
232,108,52458,2,0,P|232:56|212:28,2,80,2|2|0,0:0|0:0|0:0,0:0:0:0:
156,140,53517,1,0,1:0:0:0:
60,68,54047,6,0,P|40:108|97:244,1,200,0|0,0:0|1:0,0:0:0:0:
164,204,55282,2,0,L|248:192,2,80,2|2|0,0:0|0:0|0:0,0:0:0:0:
196,280,56341,1,0,1:0:0:0:
312,256,56870,6,0,P|300:344|392:372,1,200,0|0,0:0|1:0,0:0:0:0:
472,372,58105,2,0,L|472:292,1,80,2|2,0:0|0:0,0:0:0:0:
472,212,58811,1,0,1:0:0:0:
404,252,59164,2,0,P|348:260|320:252,1,80
291,235,59694,6,0,P|264:184|264:156,1,80,4|0,0:0|0:0,0:0:0:0:
268,84,60399,1,0,1:0:0:0:
336,128,60752,1,0,0:0:0:0:
340,48,61105,2,0,L|416:12,2,80,0|0|0,0:0|0:0|1:0,0:0:0:0:
268,84,62164,1,0,0:0:0:0:
216,24,62517,6,0,P|176:16|136:24,1,80,4|0,0:0|0:0,0:0:0:0:
80,80,63223,1,0,1:0:0:0:
100,156,63576,1,0,0:0:0:0:
156,100,63929,1,0,0:0:0:0:
80,80,64282,2,0,L|-20:56,2,80,0|2|0,0:0|0:0|1:0,0:0:0:0:
156,100,65341,6,0,P|208:92|272:12,1,160,4|0,0:0|1:0,0:0:0:0:
340,56,66399,1,0,0:0:0:0:
416,80,66752,2,0,P|428:120|424:160,1,80
380,224,67458,1,0,1:0:0:0:
440,276,67811,1,0,0:0:0:0:
364,304,68164,6,0,L|288:332,1,80,4|0,0:0|0:0,0:0:0:0:
276,252,68870,2,0,L|200:280,2,80,0|0|0,1:0|0:0|0:0,0:0:0:0:
351,222,69929,1,0,0:0:0:0:
432,212,70282,1,0,1:0:0:0:
488,152,70635,1,0,1:0:0:0:
492,72,70988,5,4,0:0:0:0:
492,72,71341,2,0,L|347:3,1,160,0|0,1:0|1:0,0:0:0:0:
316,76,72399,2,0,L|240:100,1,80,0|0,0:0|1:0,0:0:0:0:
208,28,73105,2,0,L|132:4,1,80,0|0,0:0|1:0,0:0:0:0:
88,72,73811,6,0,P|75:129|112:184,2,120,4|2|2,0:0|0:0|0:0,0:0:0:0:
157,117,75223,2,0,B|188:144|185:191|185:191|180:224|184:256|200:268,1,160
268,304,76282,1,0,1:0:0:0:
268,224,76635,5,4,0:0:0:0:
268,224,76988,2,0,L|432:192,1,160,0|0,1:0|1:0,0:0:0:0:
440,272,78047,2,0,L|456:354,1,80,0|0,0:0|1:0,0:0:0:0:
380,384,78752,2,0,L|364:305,1,80,0|0,0:0|1:0,0:0:0:0:
292,340,79458,6,0,P|248:336|304:256,1,200,4|0,0:0|1:0,0:0:0:0:
364,305,80694,1,4,0:0:0:0:
84,80,82282,5,4,0:0:0:0:
84,80,82635,2,0,P|120:128|112:204,1,120,0|0,1:0|0:0,0:0:0:0:
72,252,83517,2,0,L|224:224,1,120,4|0,0:0|1:0,0:0:0:0:
268,248,84399,2,0,L|365:230,1,80,0|0,0:0|1:0,0:0:0:0:
412,188,85105,5,4,0:0:0:0:
412,188,85458,2,0,P|400:128|427:79,1,120,0|0,1:0|0:0,0:0:0:0:
364,28,86341,2,0,P|318:68|262:68,1,120,4|0,0:0|1:0,0:0:0:0:
252,148,87223,2,0,P|287:165|312:196,1,80,0|0,0:0|1:0,0:0:0:0:
332,276,87929,5,4,0:0:0:0:
332,276,88282,2,0,B|319:299|293:317|293:317|262:316|234:299,1,120,0|0,1:0|0:0,0:0:0:0:
156,320,89164,2,0,P|112:332|36:316,1,120,4|0,0:0|1:0,0:0:0:0:
0,248,90047,1,0,0:0:0:0:
40,180,90399,1,0,1:0:0:0:
80,248,90752,6,0,B|104:256|132:240|132:240|168:220|196:224,1,120,4|0,0:0|0:0,0:0:0:0:
272,248,91635,1,0,1:0:0:0:
316,312,91988,2,0,P|348:268|324:188,1,120,4|0,0:0|1:0,0:0:0:0:
268,168,92870,2,0,P|252:136|252:92,1,80,0|0,1:0|1:0,0:0:0:0:
280,16,93576,5,4,0:0:0:0:
280,16,93929,2,0,L|432:52,1,120,0|0,1:0|0:0,0:0:0:0:
360,116,94811,2,0,L|512:152,1,120,4|0,0:0|1:0,0:0:0:0:
448,220,95694,2,0,L|340:245,1,80,0|0,0:0|1:0,0:0:0:0:
292,240,96399,5,4,0:0:0:0:
292,240,96752,2,0,P|264:300|200:312,1,120,0|0,1:0|0:0,0:0:0:0:
136,312,97635,2,0,P|164:252|228:240,1,120,4|0,0:0|1:0,0:0:0:0:
256,168,98517,2,0,L|256:84,1,80,0|0,0:0|1:0,0:0:0:0:
216,20,99223,5,4,0:0:0:0:
296,20,99576,1,0,1:0:0:0:
336,132,100105,1,0,0:0:0:0:
256,148,100458,2,0,P|200:140|152:100,1,120,4|0,0:0|1:0,0:0:0:0:
88,147,101341,2,0,P|107:197|97:255,1,80,0|0,0:0|1:0,0:0:0:0:
164,280,102047,6,4,P|186:247|219:225,1,80,4|0,1:0|1:1,0:1:0:0:
260,216,102576,2,0,P|299:218|335:236,1,80,4|0,0:0|0:0,0:0:0:0:
352,316,103282,2,0,P|404:280|404:192,1,120,4|0,0:1|1:0,0:0:0:0:
384,152,104164,2,0,P|380:104|392:72,1,80,0|0,0:0|1:0,0:0:0:0:
256,192,104870,12,2,106282,0:0:0:0:
64,320,107694,6,0,P|64:240|168:212,1,200,4|0,0:0|1:0,0:0:0:0:
232,252,108929,2,0,P|276:268|308:264,2,80,2|2|2,0:3|0:0|0:0,0:0:0:0:
196,136,110164,1,0,1:0:0:0:
216,60,110517,6,0,P|300:44|336:152,1,200,0|0,0:0|1:0,0:0:0:0:
324,212,111752,2,0,P|332:268|352:296,2,80,2|2|2,0:3|0:0|0:0,0:0:0:0:
400,192,112811,1,0,1:0:0:0:
452,300,113341,6,0,B|380:368|380:368|278:371,1,200,0|0,0:0|1:0,0:0:0:0:
240,304,114576,2,0,P|212:327|200:371,1,80,2|2,0:3|0:0,0:0:0:0:
120,352,115282,2,0,P|112:296|56:264,1,120,2|0,0:0|1:0,0:0:0:0:
0,212,116164,6,0,B|24:180|24:180|200:152,1,200,0|0,0:0|1:0,0:0:0:0:
248,108,117399,2,0,L|336:92,1,80,0|2,0:0|0:0,0:0:0:0:
392,44,118105,2,0,L|510:22,1,120,2|0,0:0|1:0,0:0:0:0:
508,104,118988,6,0,P|508:172|384:192,1,200,4|0,0:0|1:0,0:0:0:0:
319,179,120223,2,0,P|280:174|244:192,2,80,2|2|2,0:3|0:0|0:0,0:0:0:0:
380,284,121458,1,0,1:0:0:0:
344,356,121811,6,0,P|243:366|223:260,1,200,0|0,0:0|1:0,0:0:0:0:
240,212,123047,2,0,P|236:160|216:132,2,80,2|2|2,0:3|0:0|0:0,0:0:0:0:
160,224,124105,1,0,1:0:0:0:
140,104,124635,6,0,B|164:64|164:64|340:24,1,200,0|0,0:0|1:0,0:0:0:0:
324,108,125870,2,0,L|436:132,1,80,2|2,0:3|0:0,0:0:0:0:
448,192,126576,2,0,P|452:252|428:292,1,80,2|0,0:0|1:0,0:0:0:0:
344,324,127458,6,0,P|280:284|184:344,1,200,0|0,0:0|1:0,0:0:0:0:
116,300,128694,2,0,L|24:280,2,80,2|2|0,0:3|0:0|0:0,0:0:0:0:
168,240,129752,2,0,L|224:184,1,80,0|0,1:0|0:0,0:0:0:0:
252,151,130282,6,0,P|268:112|262:74,2,80,4|0|0,0:0|0:0|1:0,0:0:0:0:
212,12,131694,2,0,P|169:3|133:15,2,80,0|0|0,0:0|0:0|1:0,0:0:0:0:
124,92,133105,6,0,L|180:164,2,80,4|0|0,0:0|0:0|1:0,0:0:0:0:
224,216,134517,2,0,L|273:152,2,80,0|0|0,0:0|0:0|1:0,0:0:0:0:
320,88,135929,6,0,P|368:72|408:80,1,80,4|0,0:0|0:0,0:0:0:0:
468,116,136635,2,0,P|484:164|476:204,1,80,0|0,1:0|0:0,0:0:0:0:
432,256,137341,2,0,P|384:272|344:264,1,80
284,228,138047,2,0,P|268:179|276:140,1,80,0|0,1:0|0:0,0:0:0:0:
332,100,138752,6,0,P|298:77|259:72,1,80,4|0,0:0|0:0,0:0:0:0:
188,112,139458,2,0,P|165:145|160:184,1,80,0|0,1:0|0:0,0:0:0:0:
200,256,140164,2,0,P|233:278|272:283,1,80
344,243,140870,2,0,P|366:209|371:170,1,80,0|0,1:0|1:0,0:0:0:0:
400,96,141576,5,4,0:0:0:0:
400,96,141929,2,0,P|468:108|432:184,1,160,0|0,1:0|1:0,0:0:0:0:
371,170,142988,2,0,P|320:176|296:192,1,80,0|0,0:0|1:0,0:0:0:0:
244,252,143694,2,0,P|209:271|169:272,1,80,0|0,0:0|1:0,0:0:0:0:
96,240,144399,6,0,P|64:192|72:132,2,120,4|2|2,0:0|0:0|0:0,0:0:0:0:
140,172,145811,1,0,0:0:0:0:
144,92,146164,2,0,P|168:54|205:38,2,80,0|0|0,1:0|0:0|1:0,0:0:0:0:
224,120,147223,5,4,0:0:0:0:
224,120,147576,2,0,P|264:172|240:272,1,160,0|0,1:0|1:0,0:0:0:0:
320,300,148635,2,0,L|428:280,1,80,0|0,0:0|1:0,0:0:0:0:
432,356,149341,2,0,L|540:336,1,80,0|0,1:0|1:0,0:0:0:0:
476,268,150047,6,0,P|464:188|370:211,1,200,4|0,0:0|1:0,0:0:0:0:
398,285,151282,1,4,0:0:0:0:
96,88,152870,5,4,0:0:0:0:
96,88,153223,2,0,P|72:160|80:204,1,120,0|0,1:0|0:0,0:0:0:0:
124,268,154105,2,0,P|76:240|12:256,1,120,4|0,0:0|1:0,0:0:0:0:
61,318,154988,2,0,P|97:342|133:346,1,80,0|0,0:0|1:0,0:0:0:0:
200,304,155694,5,4,0:0:0:0:
200,304,156047,2,0,B|233:276|233:276|236:164,1,120,0|0,1:0|0:0,0:0:0:0:
309,169,156929,2,0,P|367:179|425:126,1,120,4|0,0:0|1:0,0:0:0:0:
348,97,157811,2,0,L|257:59,1,80,0|0,0:0|1:0,0:0:0:0:
197,41,158517,5,4,0:0:0:0:
197,41,158870,2,0,P|167:118|114:145,1,120,0|0,1:0|0:0,0:0:0:0:
65,104,159752,2,0,P|63:165|103:209,1,120,4|0,0:0|1:0,0:0:0:0:
180,209,160635,2,0,L|263:209,1,80,0|0,0:0|1:0,0:0:0:0:
328,251,161341,6,0,P|332:329|258:279,1,200,4|0,0:0|1:0,0:0:0:0:
260,209,162576,2,0,P|259:142|236:96,1,120,4|0,0:0|1:0,0:0:0:0:
169,50,163458,2,0,P|156:104|176:149,1,80,0|0,0:0|1:0,0:0:0:0:
165,205,164164,5,4,0:0:0:0:
165,205,164517,2,0,P|190:246|163:318,1,120,0|0,1:0|0:0,0:0:0:0:
92,329,165399,2,0,P|52:301|49:224,1,120,4|0,0:0|1:0,0:0:0:0:
94,167,166282,2,0,L|165:205,1,80,0|0,0:0|1:0,0:0:0:0:
240,243,166988,5,4,0:0:0:0:
240,243,167341,2,0,P|299:233|322:156,1,120,0|0,1:0|0:0,0:0:0:0:
279,118,168223,2,0,P|220:128|197:205,1,120,4|0,0:0|1:0,0:0:0:0:
113,189,169105,2,0,L|18:200,1,80,0|0,0:0|1:0,0:0:0:0:
66,277,169811,5,4,0:0:0:0:
66,277,170164,2,0,L|184:263,1,120,0|0,1:0|0:0,0:0:0:0:
262,284,171047,2,0,P|319:226|371:238,1,120,4|0,0:0|1:0,0:0:0:0:
401,291,171929,2,0,P|390:330|349:357,1,80,0|0,0:0|1:0,0:0:0:0:
282,372,172635,6,0,P|223:362|176:376,1,80,4|0,0:0|1:0,0:0:0:0:
168,383,173164,1,4,0:0:0:0:
142,307,173517,1,0,1:0:0:0:
179,233,173870,2,0,P|179:149|136:106,1,120,4|0,0:1|1:0,0:0:0:0:
87,88,174752,2,0,P|77:65|84:4,1,80,0|0,0:0|1:0,0:0:0:0:
155,46,175458,5,4,0:0:0:0:
236,56,175811,1,4,1:0:0:0:
276,64,175988,2,0,P|307:88|327:122,1,80,0|2,0:0|0:0,0:0:0:0:
320,204,176694,2,0,P|320:250|362:309,1,120,4|0,0:0|0:0,3:0:0:0:
440,316,177576,2,0,P|471:291|487:256,1,80,0|0,0:0|1:0,0:0:0:0:
480,176,178282,5,4,0:0:0:0:
408,140,178635,1,4,1:0:0:0:
378,113,178811,2,0,P|367:75|376:37,1,80,0|2,0:0|0:0,0:0:0:0:
299,17,179517,2,0,P|277:69|199:91,1,120,4|0,2:0|1:0,2:0:0:0:
264,163,180399,2,0,P|307:166|342:190,1,80,0|0,0:0|1:0,0:0:0:0:
377,254,181105,5,4,0:0:0:0:
396,332,181458,1,4,1:0:0:0:
369,359,181635,2,0,P|336:360|296:312,1,80
224,312,182341,2,0,L|102:326,1,120,4|0,0:0|1:0,0:0:0:0:
96,248,183223,2,0,L|196:236,1,80,0|0,0:0|1:0,0:0:0:0:
248,207,183929,6,0,P|259:150|232:100,1,80,4|0,1:0|1:0,0:0:0:0:
228,100,184458,1,4,0:0:0:0:
148,92,184811,1,2,0:0:0:0:
180,164,185164,6,0,P|125:170|74:121,1,120,4|0,1:0|1:0,0:0:0:0:
8,88,186047,1,0,1:0:0:0:
80,52,186399,1,0,1:0:0:0:
148,92,186752,5,4,0:0:0:0:
224,68,187105,1,4,1:0:0:0:
264,56,187282,2,0,B|280:12|280:12|340:-4,1,80,0|2,0:0|0:0,0:0:0:0:
376,52,187988,2,0,L|504:16,1,120,4|0,0:0|1:0,0:0:0:0:
512,96,188870,2,0,P|500:160|472:188,1,80,0|0,0:0|1:0,0:0:0:0:
432,224,189576,5,4,0:0:0:0:
352,200,189929,1,4,1:0:0:0:
330,166,190105,2,0,B|308:144|308:144|261:152,1,80,0|0,0:0|0:1,0:0:0:0:
200,204,190811,2,0,P|180:152|204:96,1,120,4|0,0:0|1:0,0:0:0:0:
284,76,191694,1,0,0:0:0:0:
332,139,192047,1,0,1:0:0:0:
313,216,192399,5,4,0:0:0:0:
276,232,192576,2,0,L|194:269,1,80,0|4,0:0|1:0,0:0:0:0:
129,296,193282,1,0,0:0:0:0:
191,346,193635,2,0,B|221:348|221:348|314:306,1,120,4|0,0:0|1:0,0:0:0:0:
374,272,194517,1,0,0:0:0:0:
446,236,194870,1,0,1:0:0:0:
512,201,195223,6,0,L|489:126,1,80,4|0,1:0|1:0,0:0:0:0:
475,89,195752,2,0,P|439:45|419:37,1,80,4|2,0:0|0:0,0:0:0:0:
339,53,196458,2,0,P|301:109|332:183,1,120,4|0,1:0|1:0,0:0:0:0:
378,200,197341,1,0,1:0:0:0:
442,152,197694,1,0,1:0:0:0:
446,72,198047,6,0,P|396:41|339:53,2,120,4|2|2,0:0|0:0|0:0,0:0:0:0:
256,192,199458,12,0,202282,0:0:0:0:
