osu file format v9

[General]
AudioFilename: Aerodynamics Girls and Boys Poem(ED.ver).mp3
AudioLeadIn: 1500
PreviewTime: 203444
Countdown: 0
SampleSet: Soft
StackLeniency: 0.5
Mode: 0
LetterboxInBreaks: 1

[Editor]
DistanceSpacing: 0.9
BeatDivisor: 4
GridSize: 8

[Metadata]
Title:Aerodynamics Girls and Boys Song
Artist:Hana
Creator:Patchouli
Version:Insane
Source:Subarashiki Hibi
Tags:KEROQ Kukirikigaku Shoujo to Shounen no Uta Suzully Kitsuneko TTTL

[Difficulty]
HPDrainRate:6
CircleSize:4
OverallDifficulty:7
ApproachRate:9
SliderMultiplier:2
SliderTickRate:2

[Events]
//Background and Video events
0,0,"BG.jpg"
//Break Periods
2,58319,73538
2,133484,148703
2,185108,200462
//Storyboard Layer 0 (Background)
//Storyboard Layer 1 (Fail)
//Storyboard Layer 2 (Pass)
//Storyboard Layer 3 (Foreground)
//Storyboard Sound Samples
//Background Colour Transformations
3,100,163,162,255

[TimingPoints]
-1009,329.67032967033,4,2,1,50,1,0
2195,-100,4,2,1,40,0,0
2525,-100,4,2,1,50,0,0
2854,-100,4,2,1,60,0,0
3349,-100,4,2,1,50,0,0
3843,-100,4,2,1,40,0,0
4338,-100,4,2,1,30,0,0
4832,-100,4,2,1,20,0,0
5162,-100,4,2,1,30,0,0
5327,-100,4,2,1,40,0,0
5492,-100,4,2,1,50,0,0
7470,-100,4,2,1,40,0,0
7800,-100,4,2,1,50,0,0
8129,-100,4,2,1,60,0,0
8624,-100,4,2,1,50,0,0
9118,-100,4,2,1,40,0,0
9613,-100,4,2,1,30,0,0
10107,-100,4,2,1,20,0,0
10437,-100,4,2,1,30,0,0
10602,-100,4,2,1,40,0,0
10808,-100,4,2,1,60,0,0
11081,-100,4,2,1,50,0,0
12745,-100,4,2,1,40,0,0
12992,-100,4,2,1,50,0,0
13321,-100,4,2,1,60,0,0
13898,-100,4,2,1,55,0,0
14393,-100,4,2,1,50,0,0
14887,-100,4,2,1,45,0,0
15382,-100,4,2,1,40,0,0
16041,-100,4,2,1,45,0,0
16117,329.67032967033,4,2,1,45,1,0
16198,-100,4,2,1,50,0,0
16398,-100,4,2,1,30,0,0
16481,-100,4,2,1,50,0,0
16687,-100,4,2,1,40,0,0
16851,-100,4,2,1,50,0,0
17016,-100,4,2,1,35,0,0
17181,-100,4,2,1,35,0,0
17346,-100,4,2,1,50,0,0
17676,-100,4,2,1,40,0,0
17840,-100,4,2,1,50,0,0
18005,-100,4,2,1,30,0,0
18170,-100,4,2,1,50,0,0
18335,-100,4,2,1,45,0,0
18500,-100,4,2,1,50,0,0
18665,-100,4,2,1,25,0,0
18829,-100,4,2,1,55,0,0
20766,-100,4,2,1,35,0,0
21343,-100,4,2,0,30,0,0
21474,-100,4,2,1,70,0,0
31192,-100,4,2,1,60,0,0
31851,-100,4,2,1,70,0,0
42401,-100,4,2,0,60,0,0
42731,-100,4,2,1,70,0,0
52950,-100,4,2,1,10,0,0
74049,-100,4,2,1,70,0,0
75368,-100,4,1,2,70,0,0
75533,-100,4,2,1,70,0,0
80643,-100,4,1,2,70,0,0
80809,-100,4,2,1,70,0,0
82621,-100,4,1,2,70,0,0
82786,-100,4,2,1,70,0,0
84599,-100,4,2,0,60,0,0
84928,-100,4,2,1,70,0,0
85917,-100,4,1,2,70,0,0
86082,-100,4,2,1,70,0,0
87895,-100,4,1,2,70,0,0
88060,-100,4,2,1,70,0,0
88225,-100,4,2,2,70,0,0
88390,-100,4,2,1,70,0,0
95148,-200,4,2,1,30,0,0
96467,-200,4,2,0,40,0,0
96632,-200,4,2,1,40,0,0
98939,-200,4,2,1,50,0,0
101000,-100,4,2,1,60,0,0
101577,-100,4,2,1,70,0,0
104379,-100,4,1,2,70,0,0
104544,-100,4,2,1,70,0,0
105203,-100,4,1,2,70,0,0
105368,-100,4,2,1,70,0,0
105698,-100,4,2,0,70,0,0
105821,-100,4,2,1,70,0,0
106027,-100,4,2,0,70,0,0
106151,-100,4,2,1,70,0,0
106357,-100,4,2,1,55,0,0
107057,-100,4,2,0,70,0,0
107106,-100,4,2,0,70,0,1
107181,-100,4,2,1,70,0,1
109654,-100,4,1,2,70,0,1
109818,-100,4,2,1,70,0,1
112950,-100,4,1,2,70,0,1
113115,-100,4,2,1,70,0,1
116247,-100,4,2,1,70,0,1
116577,-100,4,2,1,60,0,1
116906,-100,4,2,1,50,0,1
117236,-100,4,2,1,60,0,1
117566,-100,4,2,0,70,0,1
117731,-100,4,2,1,70,0,1
118884,-100,4,1,2,70,0,1
119049,-100,4,2,1,70,0,1
121522,-100,4,1,2,70,0,1
121687,-100,4,2,1,70,0,1
122840,-100,4,1,2,60,0,1
123005,-100,4,2,1,60,0,1
124159,-100,4,1,2,60,0,1
124324,-100,4,2,1,60,0,1
126796,-100,4,2,0,60,0,1
126961,-100,4,2,1,60,0,1
127126,-100,4,2,0,60,0,1
127291,-100,4,2,1,60,0,1
128115,-100,4,2,1,10,0,1
128204,-100,4,2,1,10,0,0
149214,-100,4,2,1,70,0,0
150533,-100,4,1,2,70,0,0
150698,-100,4,2,1,70,0,0
154489,-100,4,1,2,70,0,0
154654,-100,4,2,1,70,0,0
155807,-100,4,1,2,70,0,0
155972,-100,4,2,1,70,0,0
156796,-100,4,2,2,60,0,0
156961,-100,4,2,1,70,0,0
159771,-100,4,2,0,70,0,0
160093,-100,4,2,1,70,0,0
161082,-100,4,1,2,70,0,0
161247,-100,4,2,1,70,0,0
166357,-100,4,1,2,70,0,0
166522,-100,4,2,1,70,0,0
166687,-100,4,2,2,70,0,0
166851,-100,4,2,1,70,0,0
168994,-100,4,1,2,70,0,0
169159,-100,4,2,1,70,0,0
170313,-133.333333333333,4,2,0,60,0,0
170478,-133.333333333333,4,2,1,60,0,0
170972,-133.333333333333,4,2,1,50,0,0
171467,-133.333333333333,4,2,1,40,0,0
174228,-100,4,2,1,45,0,0
174310,-100,4,2,0,45,0,0
174599,-100,4,2,1,50,0,0
174928,-100,4,2,1,55,0,0
175258,-100,4,2,1,60,0,0
175588,-100,4,2,1,65,0,0
175917,-100,4,2,1,70,0,0
176906,-100,4,1,2,70,0,0
177071,-100,4,2,1,70,0,0
179049,-100,4,1,2,70,0,0
179214,-100,4,2,1,70,0,0
179544,-100,4,2,0,60,0,0
180038,-100,4,2,1,60,0,0
180904,-100,4,2,0,60,0,0
180986,-100,4,2,1,10,0,0
200972,-100,4,2,1,40,0,0
201302,-100,4,2,1,50,0,0
201632,-100,4,2,1,55,0,0
202003,-100,4,2,0,70,0,0
202051,-100,4,2,0,70,0,1
202126,-100,4,2,1,70,0,1
205917,-100,4,1,2,70,0,1
206082,-100,4,2,1,70,0,1
209873,-100,4,2,0,60,0,1
211110,-100,4,2,1,60,0,1
211522,-100,4,2,1,50,0,1
212016,-100,4,2,1,40,0,1
212511,-100,4,2,0,70,0,1
212676,-100,4,2,1,70,0,1
216467,-100,4,1,2,70,0,1
216632,-100,4,2,1,70,0,1
219269,-100,4,1,2,70,0,1
219434,-100,4,2,1,70,0,1
220588,-100,4,1,2,70,0,1
220753,-100,4,2,1,70,0,1
220917,-100,4,1,2,70,0,1
221082,-100,4,2,1,70,0,1
221742,-100,4,2,1,50,0,1
223060,-100,4,2,1,70,0,1
225739,-100,4,2,1,80,0,1
227002,-100,4,2,1,50,0,1
227387,-100,4,2,1,60,0,1
227799,-100,4,2,1,70,0,1
228129,-100,4,2,1,60,0,1
228294,-100,4,2,1,50,0,1
228424,-100,4,2,1,50,0,0
228506,-100,4,2,0,50,0,0

[Colours]
Combo1 : 255,255,255
Combo2 : 0,255,255
Combo3 : 0,128,255

[HitObjects]
72,240,309,2,0,B|96:288|160:280,1,100,2|0
144,192,639,2,0,B|200:176|192:104,1,100
104,120,969,2,0,B|80:72|16:80,1,100,2|0
32,168,1298,5,0
192,40,1463,1,2
232,216,1628,2,0,B|208:272|152:280,1,100
72,264,1958,1,0
40,184,2122,1,0
104,120,2287,2,0,B|152:96|208:128,1,100,2|0
288,152,2617,2,0,B|352:176|392:136,1,100,2|0
496,80,2947,6,0,B|432:72|408:136|424:200|504:200,1,200,2|0
376,48,3441,2,0,B|344:96|328:144|352:200|392:240,1,200,2|0
256,40,3936,2,0,B|256:264,1,200,2|0
136,48,4430,2,0,B|168:96|184:144|160:200|120:240,1,200,2|0
48,96,4925,2,0,B|112:136|40:192,3,100,2|0|2|0
32,264,5584,5,2
88,336,5749,1,0
112,248,5914,2,0,B|128:184|192:160,1,100
256,152,6243,1,2
344,176,6408,1,0
392,256,6573,1,0
376,344,6738,1,2
288,376,6903,6,0,B|232:376|192:328,1,100
280,288,7232,1,0
280,288,7397,1,0
360,336,7562,2,0,B|416:360|472:328|496:272|464:208,2,200,2|2|2
336,224,8386,6,0,B|280:128,1,100
160,80,8716,2,0,B|224:184,1,100,2|0
212,165,9045,1,0
176,248,9210,2,0,B|160:312|96:320,2,100,2|0|0
88,232,9705,2,0,B|32:224|-8:264,2,100,2|0|0
208,304,10199,5,2
344,304,10364,1,0
448,208,10529,1,0
456,64,10694,1,2
456,64,10776,1,2
456,64,10859,1,2
240,120,11188,6,0,B|368:96,1,100
338,101,11518,1,2
272,40,11683,1,0
184,56,11848,1,0
160,144,12012,2,0,B|200:216|264:208|280:152|344:192|352:248,1,200,2|0
408,256,12507,2,0,B|376:304|312:288,1,100
232,296,12837,5,2
456,144,13166,1,2
232,296,13496,6,0,B|264:336|328:328,1,100,2|0
304,240,13826,1,0
224,208,13990,2,0,B|168:216|144:272,1,100,2|0
168,352,14320,1,0
120,176,14485,2,0,B|96:80,1,100,2|0
95,78,14815,1,0
272,64,14980,2,0,B|304:168,1,100,2|0
301,159,15309,1,0
224,200,15474,5,2
176,24,15639,1,0
224,200,15804,1,0
176,24,15969,1,0
192,112,16117,6,0,B|168:184|96:208|24:168,1,200,2|8
29,170,16611,1,0
96,112,16776,1,2
136,192,16941,1,0
224,200,17106,1,8
288,136,17270,6,0,B|320:96|408:104|432:160|424:208,1,200,2|0
400,288,17765,2,0,B|456:304|496:256,1,100,8|0
336,224,18095,1,2
312,312,18259,2,0,B|336:376|392:376,2,100,0|10|0
232,264,18754,6,0,B|128:264,1,100,2|0
132,264,19084,1,8
200,200,19248,2,0,B|104:168,1,100,0|0
105,168,19578,1,0
200,328,19743,2,0,B|104:360,1,100,8|0
105,359,20073,1,0
32,304,20237,1,0
32,216,20402,1,8
105,168,20567,1,0
192,200,20732,5,8
214,211,20814,1,8
238,214,20897,1,8
262,211,20979,1,8
285,202,21062,1,8
306,189,21144,1,8
331,186,21226,1,8
355,190,21309,1,8
375,203,21391,6,0,B|407:245|383:303,1,100,4|0
456,184,21721,2,0,B|432:128|368:112,1,100,8|0
296,104,22051,1,0
128,160,22215,1,0
248,24,22380,1,8
248,24,22545,6,0,B|208:88|120:96|56:56,1,200,0|0
216,152,23040,2,0,B|216:216|160:240,1,100,8|0
40,152,23369,2,0,B|40:216|96:240,1,100,0|0
200,272,23699,1,8
320,248,23864,1,0
392,152,24029,6,0,B|408:40,2,100,0|0|8
408,240,24523,2,0,B|472:336,2,100,0|0|0
336,192,25018,1,8
248,184,25182,2,0,B|200:184|160:224,1,100
96,288,25512,2,0,B|88:336|32:368,2,100,0|8|0
56,208,26007,1,0
56,120,26171,1,0
56,120,26336,1,8
56,208,26501,1,0
96,288,26666,6,0,B|136:352|248:352|288:288,1,200,0|8
312,176,27160,1,0
344,304,27325,2,0,B|392:336|440:304,2,100,0|0|8
312,176,27820,6,0,B|216:112|120:168,1,200,0|0
192,224,28314,1,8
192,224,28479,1,0
179,313,28644,1,0
179,313,28809,1,0
95,346,28974,1,8
19,297,29138,1,0
32,208,29303,6,0,B|64:160|136:168,1,100,0|0
152,88,29633,1,8
242,60,29798,2,0,B|256:120|216:152,1,100,0|0
152,88,30127,1,0
64,120,30292,2,0,B|8:104|0:40,2,100,8|0|0
152,88,30787,1,0
182,241,30952,2,0,B|224:208|216:152,1,100,8|0
312,152,31281,1,8
352,144,31364,1,8
400,152,31446,1,8
432,184,31529,1,8
448,224,31611,1,8
288,312,31941,5,4
288,312,32106,1,4
464,304,32270,2,0,B|408:312|368:256,1,100,8|0
300,218,32600,2,0,B|240:208|200:264,1,100,0|0
200,340,32930,1,8
128,288,33095,6,0,B|72:200|128:96,1,200,4|4
0,96,33589,2,0,B|24:32|104:24,1,100,8|0
160,16,33919,1,0
240,56,34084,1,4
288,128,34248,1,8
272,216,34413,1,0
312,304,34578,6,0,B|352:344|416:328,2,100,4|4|8
368,232,35073,1,0
368,232,35155,1,0
368,232,35237,2,0,B|480:232,2,100,0|0|8
312,304,35732,2,0,B|264:344|192:320,1,100,4|0
40,280,36062,2,0,B|96:256|144:280,1,100,4|8
137,276,36391,1,4
137,276,36721,5,4
312,224,36886,1,8
136,192,37051,1,0
136,192,37133,1,0
136,192,37215,2,4,B|88:168|80:104,1,100
134,40,37545,1,8
136,192,37710,1,0
184,112,37875,2,0,B|232:144|224:208,2,100,0|0|8
96,120,38369,6,0,B|40:160|48:224|72:264|136:272,1,200,4|4
416,120,38864,1,8
416,120,39029,2,0,B|472:152|464:224|440:264|376:272,1,200,4|4
208,224,39523,5,8
312,168,39688,1,0
288,248,39853,2,0,B|296:304|352:344,2,100,4|4|8
232,144,40347,2,0,B|160:128|88:200|152:296,1,200
256,344,40842,1,8
374,270,41007,2,0,B|424:200|352:128|280:144,1,200,4|4
208,192,41501,1,8
120,192,41666,1,4
48,240,41831,2,0,B|-16:264,2,50,0|0|4
48,144,42160,2,0,B|-16:120,2,50,8|0|4
144,104,42490,5,4
368,104,42655,1,0
256,192,42820,5,8
176,224,42985,2,0,B|208:296|304:296|336:224,1,200
256,192,43479,1,8
176,144,43644,2,0,B|136:48,1,100,4|0
104,184,43974,2,0,B|64:88,2,100,4|8|0
116,273,44468,1,0
178,338,44633,1,4
268,337,44798,1,8
339,282,44963,1,0
344,192,45127,6,0,B|320:144|352:80,2,100,4|4|8
416,248,45622,2,0,B|432:304|394:344,1,100
416,248,45952,1,0
264,152,46117,1,8
88,192,46281,6,0,B|120:88|256:72,1,200,4|4
236,74,46776,1,8
200,200,46941,2,0,B|240:240|304:224,1,100,4|0
360,168,47270,1,4
400,152,47353,1,0
440,160,47435,1,8
336,72,47600,5,0
288,200,47765,2,0,B|320:248|376:248,2,100,4|4|8
256,112,48259,2,0,B|208:56|112:56|56:120,1,200
256,112,48754,1,8
200,184,48919,6,0,B|192:240|240:272,1,100,4|0
408,328,49248,2,0,B|360:296|304:320,1,100,4|8
136,352,49578,2,0,B|192:376|240:352,1,100,4|0
320,232,49908,2,0,B|368:192|360:136,2,100,4|8|4
272,152,50402,5,4
184,144,50567,2,0,B|128:136|64:152,1,100,4|8
56,232,50897,2,0,B|112:224|168:232,1,100
226,287,51226,1,0
301,238,51391,1,8
272,152,51556,6,0,B|272:88|336:64,1,100,4|0
360,152,51886,2,0,B|400:112|464:136,1,100,4|8
424,216,52215,2,0,B|472:240|472:304,1,100,4|0
384,296,52545,2,0,B|368:352|304:352,1,100,4|8
256,192,53040,12,0,57655
80,304,74138,5,4
160,264,74303,1,0
232,320,74468,2,0,B|288:344|328:320,1,100,8|0
328,319,74798,5,4
208,192,74963,1,4
384,240,75127,1,8
288,232,75292,6,0,B|200:312|72:256,1,200
120,176,75787,2,0,B|120:64,2,100,8|4|0
40,128,76281,1,4
101,267,76446,1,8
192,144,76611,1,0
264,96,76776,6,0,B|312:72|312:16,2,100,4|0|8
264,184,77270,2,0,B|200:216,2,50,0|0|4
432,240,77600,2,0,B|488:264,2,50,4|0|8
344,232,77930,6,0,B|312:280|240:272,1,100,0|4
184,224,78259,1,0
56,168,78424,1,8
80,304,78589,1,4
184,224,78754,1,0
160,88,78919,1,4
56,168,79084,6,0,B|112:192|160:152,1,100,8|0
224,48,79413,1,4
247,39,79496,1,0
271,39,79578,1,0
295,46,79660,1,0
314,60,79743,1,8
360,136,79908,2,0,B|304:160|264:128,1,100,0|4
400,56,80237,1,4
448,136,80402,1,8
416,216,80567,6,0,B|400:296|288:312|240:240,1,200
176,216,81062,2,0,B|152:264|184:312,1,100,8|4
96,176,81556,1,4
96,176,81721,2,0,B|40:200,2,50,8|0|0
96,176,82051,6,0,B|72:96|144:32|216:48,1,200,4|8
306,46,82545,2,0,B|368:32|440:96|416:176,1,200,0|4
256,120,83040,1,8
200,192,83204,6,0,B|200:248|256:272,1,100,0|4
344,272,83534,1,0
392,200,83699,2,0,B|440:176|488:192,1,100,8|4
448,112,84029,5,0
448,112,84111,1,0
448,112,84193,1,4
440,288,84358,1,8
440,288,84441,1,0
440,288,84523,1,0
360,128,84688,5,4
152,128,84853,1,0
256,192,85018,5,8
320,256,85182,2,0,B|336:312|296:352,2,100,0|4|4
400,208,85677,1,8
400,296,85842,6,0,B|368:368|256:360|224:280,1,200
234,300,86336,1,8
152,264,86501,2,0,B|104:248|56:280,1,100,4|0
144,176,86831,2,0,B|200:208|256:184,2,100,4|8|0
48,144,87325,6,0,B|96:48|160:144|216:40,1,200,4|8
301,49,87820,2,0,B|352:144|416:48|464:144,2,200,0|4|0
216,32,88644,5,4
248,112,88809,2,0,B|264:168|224:208,1,100,0|8
144,248,89138,1,4
152,160,89303,5,0
336,288,89468,1,4
152,160,89633,2,0,B|104:120|128:56,1,100,8|0
208,96,89963,6,0,B|256:136|224:216,2,100,4|0|8
224,272,90457,2,0,B|279:274|316:218,1,100,0|4
421,152,90787,2,0,B|364:164|325:115,1,100,4|8
177,23,91116,5,2
96,63,91446,1,2
111,151,91776,1,2
38,204,92106,1,2
226,198,92600,6,0,B|242:142|202:102,2,100,4|0|8
243,286,93095,2,0,B|297:268|313:206,1,100,0|4
310,81,93424,2,0,B|363:96|387:148,1,100,4|8
451,310,93754,5,2
388,245,94084,1,2
405,157,94413,1,2
333,102,94743,1,2
255,193,95237,6,0,B|255:124,1,50,8|0
170,213,95567,2,0,B|170:277,1,50
92,171,95897,2,0,B|92:115,2,50,4|4|0
85,321,96556,6,0,B|165:358|237:304,1,150,4|8
272,288,97215,2,0,B|352:272|416:312,1,150,4|8
480,248,98040,1,8
480,248,98204,1,8
400,208,98534,2,0,B|336:192,1,50,12|0
320,168,98864,5,12
272,168,99029,2,0,B|192:192|160:264,1,150,4|8
88,208,99853,2,0,B|112:160|160:128,1,100,4|8
184,96,100347,2,0,B|240:112|304:88,1,100,12|0
328,88,100842,5,8
496,48,101171,1,4
472,216,101501,1,8
432,296,101666,1,0
432,296,101748,1,0
432,296,101831,2,0,B|312:344,1,100,4|0
296,256,102160,2,0,B|176:208,1,100,8|0
184,304,102490,2,0,B|64:352,1,100,4|4
64,256,102820,1,8
24,176,102985,1,0
56,88,103149,6,0,B|72:32,2,50,4|0|0
136,200,103479,2,0,B|104:152|136:96,1,100,8|4
200,48,103809,1,0
288,48,103974,1,4
360,104,104138,1,8
368,192,104303,6,0,B|368:264|280:272|248:208|296:152,1,200
360,104,104798,2,0,B|424:104|456:168,1,100,8|0
440,240,105127,2,0,B|408:328|320:344|240:304,1,200,4|8
216,256,105622,1,0
216,168,105787,5,4
232,136,105869,1,0
248,104,105952,1,0
136,216,106116,1,4
120,248,106199,1,0
104,280,106281,1,4
40,216,106446,5,8
44,191,106529,1,8
54,168,106611,1,12
70,149,106693,1,8
93,140,106776,1,8
116,132,106858,1,8
135,116,106941,1,8
151,96,107023,1,0
165,75,107106,5,4
248,32,107270,1,0
328,72,107435,2,0,B|376:96|440:80,1,100,8|0
312,160,107765,2,4,B|256:176|200:160,1,100
96,232,108095,2,0,B|152:256|208:240,1,100,8|0
360,312,108424,5,4
272,344,108589,2,0,B|256:288|304:240,1,100,0|8
384,224,108919,2,0,B|440:240|456:304,2,100,4|0|4
304,184,109413,6,0,B|64:144|216:-32|376:96|176:216,1,400,8|8
104,256,110237,2,0,B|48:272|0:240,2,100,0|4|4
184,288,110732,2,0,B|160:336|96:344,1,100,8|0
24,296,111062,5,4
16,256,111144,1,0
32,216,111226,1,0
88,80,111391,2,0,B|128:120|104:176,1,100,8|4
104,256,111721,1,0
184,288,111886,1,4
256,232,112051,1,8
224,152,112215,1,0
136,144,112380,6,0,B|88:176|32:144,2,100,4|0|8
200,80,112875,2,0,B|256:40|352:48|392:104,1,200,0|4
320,160,113369,1,8
360,184,113452,1,0
408,176,113534,1,0
392,264,113699,6,0,B|336:272|296:240,1,100,4|0
144,144,114029,1,8
144,144,114193,2,0,B|208:152|248:224,1,100,4|0
240,280,114523,2,8,B|256:344|320:352,1,100,4|8
304,349,114853,1,0
168,328,115018,6,0,B|136:288|64:296,1,100,4|0
136,224,115347,2,0,B|72:200|16:240,1,100,8|0
136,224,115677,2,0,B|208:232|240:192,1,100,4|4
288,128,116007,2,0,B|328:88|384:96,1,100,8|0
448,152,116336,5,12
432,352,116501,1,0
368,176,116666,1,8
352,320,116831,1,4
288,200,116996,1,8
288,248,117078,1,8
272,288,117160,1,12
200,232,117325,2,0,B|210:172|161:141,1,100,8|8
160,320,117655,6,0,B|88:312|40:232|72:160,1,200,4|8
128,104,118149,1,0
216,120,118314,2,0,B|200:176|136:192,1,100,4|4
40,72,118644,1,8
120,16,118809,2,0,B|240:8|320:96,1,200
488,144,119303,6,0,B|384:144,1,100,8|4
224,216,119633,2,0,B|344:216,1,100,0|4
488,288,119963,2,0,B|384:288,1,100,8|0
312,336,120292,1,4
232,304,120457,1,0
224,216,120622,6,0,B|312:160,1,100,8|0
176,144,120952,2,0,B|80:208,1,100,4|4
64,288,121281,1,8
128,352,121446,2,0,B|192:304|160:192|80:200,1,200
92,199,121941,1,8
88,112,122106,1,4
160,64,122270,6,0,B|272:96,1,100,0|4
256,91,122600,1,8
256,184,122765,2,0,B|456:104,1,200
376,232,123259,2,0,B|264:280,1,100,8|0
194,269,123589,5,4
120,217,123754,1,4
98,129,123919,1,8
160,64,124084,2,0,B|192:144|288:144|328:56,1,200
344,168,124578,2,0,B|304:208|240:208,1,100,8|0
176,168,124908,1,4
134,184,124990,1,0
112,224,125073,1,4
72,304,125237,2,0,B|128:328|176:296,1,100,8|0
240,248,125567,6,0,B|336:216|328:304|432:248,2,200,4|8|4
288,328,126391,1,4
376,344,126556,2,0,B|432:352|480:312,1,100,8|0
376,200,126886,6,0,B|328:160|344:96,1,100,4|0
136,200,127215,2,0,B|184:160|168:96,1,100,4|0
256,160,127545,5,12
256,176,127627,1,8
256,192,127710,1,8
256,208,127792,1,8
256,224,127875,1,8
256,192,128204,12,0,132820
152,72,149303,5,4
192,152,149468,1,0
152,232,149633,2,0,B|104:216|96:144,2,100,8|0|4
240,208,150127,1,4
328,208,150292,1,8
408,256,150457,6,0,B|328:328|200:288,1,200
408,256,150952,1,8
328,208,151116,2,0,B|304:160|320:112,1,100,4|0
456,80,151446,2,0,B|480:128|456:184,2,100,4|8|0
384,136,151941,6,0,B|272:176|200:88,1,200,4|8
120,64,152435,2,0,B|72:88,2,50,0|0|4
200,24,152765,1,4
272,80,152930,1,8
144,152,153095,2,0,B|72:232,1,100,0|4
232,160,153424,2,0,B|288:256,1,100,0|8
282,246,153919,5,4
336,128,154084,1,4
368,256,154248,1,8
312,320,154413,2,0,B|256:344|216:312|176:264|216:192,1,200
128,224,154908,1,8
168,144,155073,2,0,B|112:136|96:80,1,100,0|4
184,56,155402,5,4
56,176,155567,1,8
184,56,155732,2,0,B|280:0|384:64,1,200
374,58,156226,1,8
264,200,156391,2,0,B|360:256|464:192,2,200,4|4|0
328,136,157215,6,0,B|280:96|216:128,1,100,4|0
184,192,157545,1,8
136,272,157710,2,0,B|96:304|40:288,1,100,0|4
223,311,158040,2,0,B|256:272|312:272,1,100,4|8
392,312,158369,6,0,B|440:336|504:304,2,100,0|4|0
312,272,158864,1,8
280,184,159029,2,0,B|264:72|384:16,1,200,4|4
371,22,159523,5,8
224,120,159688,1,0
56,32,159853,6,0,B|128:128,1,100,4|0
64,184,160182,1,8
112,256,160347,2,0,B|96:312|48:336,2,100,0|4|4
200,144,160842,1,8
192,232,161007,6,0,B|280:304|392:248,1,200
408,168,161501,2,0,B|352:152|312:192,1,100,8|4
352,320,161831,1,0
480,264,161996,1,4
480,128,162160,1,8
352,72,162325,1,0
272,112,162490,6,0,B|168:112,1,100,4|0
172,112,162820,1,8
96,64,162985,2,0,B|128:16|200:24,1,100,0|4
96,160,163314,2,0,B|128:208|200:200,1,100,4|8
272,192,163644,1,4
272,192,163974,5,0
224,368,164138,1,8
352,240,164303,1,4
272,280,164468,2,0,B|144:280,1,100,0|4
344,328,164798,2,0,B|408:336|432:272,1,100,8|0
426,198,165127,6,0,B|488:104|432:8,1,200,4|8
288,96,165622,2,0,B|256:144|296:200,1,100,0|4
360,144,165952,2,0,B|392:88|352:40,1,100,4|8
216,232,166281,6,0,B|160:136|232:24,2,200,0|0|4
288,288,167106,1,0
360,232,167270,2,0,B|464:232,2,100,4|8|0
288,176,167765,6,0,B|224:120|128:152|128:240,1,200,4|8
176,296,168259,2,0,B|216:328,2,50,0|0|4
88,304,168589,1,4
88,304,168754,1,8
48,224,168919,6,0,B|40:112|136:48,1,200
464,224,169578,2,0,B|472:112|376:48,1,200,4|4
312,240,170402,6,0,B|307:164|211:116|133:170,1,224.999993294478,4|8
102,225,171062,2,0,B|109:201|69:273|125:321|186:307,1,149.999995529652,4|8
245,283,171556,2,0,B|266:227|218:195|170:203|162:251,1,149.999995529652,8|4
245,283,172051,6,0,B|304:336|400:304,1,149.999995529652,0|4
464,192,172710,1,8
400,192,172875,2,0,B|328:160,1,74.9999977648259,0|12
264,152,173204,1,0
200,184,173369,2,0,B|144:208|136:272|168:328,1,149.999995529652,0|4
48,40,174029,5,8
112,96,174193,1,0
112,96,174276,1,0
112,96,174358,2,0,B|80:208,1,100,4|0
48,320,174688,2,0,B|80:272|136:264,1,100,8|0
216,296,175018,2,0,B|272:280|288:224,1,100,4|4
272,144,175347,2,0,B|280:88|336:64,1,100,8|0
360,152,175677,2,0,B|392:208|360:264,1,100,4|0
192,176,176007,2,0,B|176:112|216:72,1,100,8|0
295,32,176336,5,4
403,51,176501,1,4
461,155,176666,1,8
424,280,176831,2,0,B|384:344|288:352|224:288,1,200
168,264,177325,2,0,B|120:256|72:288,1,100,8|4
73,287,177655,1,0
248,224,177820,6,0,B|280:184|272:128,1,100,4|8
224,56,178149,1,0
160,112,178314,2,0,B|96:144,2,50,4|0|0
352,112,178644,2,0,B|416:144,2,50,8|0|0
272,120,178974,2,0,B|216:176|264:248|344:248|376:168,1,200,4|8
272,120,179468,1,0
176,216,179633,5,4
432,304,179963,1,0
176,216,180292,6,0,B|152:166,2,50,4|0|4
210,299,180622,1,8
264,224,180787,2,0,B|304:184|360:200,2,100,0|4|0
256,192,181281,12,0,184908
104,144,201062,6,0,B|144:96|216:120,1,100,8|0
240,256,201391,2,0,B|200:304|128:280,1,100,8|0
168,200,201721,5,8
208,176,201803,1,8
248,160,201886,1,8
296,160,201968,1,8
344,168,202051,6,0,B|400:192|464:176,2,100,4|0|8
304,88,202545,1,0
216,56,202710,2,0,B|168:48|112:64,1,100,4|4
40,168,203040,2,0,B|88:136|152:136,1,100,8|0
248,168,203369,1,4
216,200,203452,1,0
176,216,203534,1,0
56,288,203699,6,0,B|112:272|160:304,1,100,8|4
248,280,204029,1,0
320,224,204193,1,4
328,136,204358,2,0,B|296:80|232:80,1,100,8|0
168,128,204688,6,0,B|288:144|344:32,1,200,4|8
416,96,205182,1,0
384,184,205347,2,0,B|352:248,2,50,4|0|4
472,160,205677,1,8
448,248,205842,2,0,B|424:328|328:336|272:272,1,200
128,200,206336,6,0,B|192:192|232:240,1,100,8|4
200,320,206666,1,0
112,336,206831,1,4
64,264,206996,1,8
128,200,207160,1,0
64,72,207325,6,0,B|8:32,2,50,4|0|0
216,176,207655,1,8
392,128,207820,2,0,B|304:64|184:104,1,200,4|4
32,152,208314,2,0,B|88:160|136:120,1,100,8|0
376,40,208644,6,0,B|320:64|312:120,1,100,4|0
280,288,208974,1,8
280,288,209138,2,0,B|312:240|288:176,1,100,4|0
240,72,209468,2,0,B|200:32|128:40,2,100,4|8|0
472,144,209963,5,4
40,200,210292,1,0
472,256,210622,1,4
40,312,210952,1,4
472,368,211281,6,0,B|424:352|408:296,1,100,8|0
408,208,211611,1,8
392,168,211693,1,0
344,160,211776,1,0
320,200,211858,1,0
344,240,211941,2,0,B|352:296|304:328,1,100,0|8
256,248,212270,2,0,B|224:200|168:192,1,100,8|0
40,184,212600,6,0,B|96:96|232:120,1,200,4|8
296,152,213095,1,0
376,112,213259,2,0,B|416:72|400:8,2,100,4|4|8
352,200,213754,1,0
384,280,213919,1,4
424,256,214001,1,0
440,216,214084,1,0
296,272,214248,6,0,B|296:328|352:360,1,100,8|4
240,208,214578,2,0,B|240:144|184:112,1,100,0|4
40,32,214908,2,0,B|40:144|160:192,1,200,8|4
184,280,215402,2,0,B|128:288|80:248,1,100,0|8
216,128,215732,5,0
304,144,215897,2,0,B|336:192|312:248,1,100,4|4
264,312,216226,1,8
240,224,216391,2,0,B|184:176|88:208|104:320,1,200
102,295,216886,1,8
448,256,217215,5,4
368,224,217380,1,4
384,312,217545,1,8
448,256,217710,1,0
456,208,217792,1,0
440,168,217875,2,0,B|408:120|336:136,2,100,4|4|8
368,56,218369,1,4
368,56,218534,2,0,B|304:56|272:104,1,100,0|0
144,128,218864,6,0,B|184:168|240:160,1,100,8|0
304,224,219193,2,0,B|336:272|304:328|256:328|200:296|224:240,1,200,4|8
304,224,219688,1,4
336,144,219853,2,0,B|224:128|144:216,1,200,0|8
264,344,220512,6,0,B|152:344|88:256,2,200,4|8|0
336,296,221336,1,0
408,344,221501,2,0,B|448:312|504:320,1,100,8|0
392,240,221831,5,12
352,216,221913,1,8
312,192,221996,1,12
448,176,222160,2,0,B|384:80,1,100,8|12
392,92,222408,1,8
392,92,222490,1,8
304,112,222655,2,0,B|248:120|232:176,1,100,8|8
264,256,222985,1,0
232,344,223149,5,4
184,344,223232,1,0
136,328,223314,2,0,B|120:264|152:208,1,100,4|8
96,152,223644,1,4
8,184,223809,2,0,B|8:240|63:267,1,100
141,229,224138,1,8
193,156,224303,1,0
136,32,224468,6,0,B|168:80|232:72,1,100,4|0
280,144,224798,2,0,B|296:200|248:232,1,100,8|0
264,320,225127,2,0,B|312:360|368:320,1,100,4|4
432,272,225457,1,8
432,184,225622,1,0
416,144,225704,1,0
384,112,225787,6,0,B|280:88,1,100,12|0
296,176,226116,2,0,B|192:232,1,100,8|0
208,88,226446,2,0,B|96:64,1,100,12|4
128,248,226776,2,0,B|24:304,1,100,8|0
160,165,227106,5,12
174,178,227188,1,8
191,187,227270,1,8
209,193,227353,1,8
228,196,227435,1,8
248,195,227518,1,8
267,191,227600,1,12
286,184,227682,1,8
302,172,227765,2,8,B|361:128,8,50
256,192,228507,12,4,233699
