osu file format v9

[General]
AudioFilename: Kuuki.mp3
AudioLeadIn: 2003
PreviewTime: 53515
Countdown: 0
SampleSet: Soft
StackLeniency: 0.7
Mode: 0
LetterboxInBreaks: 0

[Editor]
DistanceSpacing: 0.8
BeatDivisor: 4
GridSize: 8

[Metadata]
Title:Aerodynamics Girls and Boys Poem
Artist:Hana
Creator:Aenna
Version:Easy
Source:Subarashiki Hibi
Tags:KEROQ Kukirikigaku Shoujo to Shounen no Uta Cyborg Pookz

[Difficulty]
HPDrainRate:2
CircleSize:3
OverallDifficulty:2
ApproachRate:2
SliderMultiplier:0.600000005960464
SliderTickRate:0.5

[Events]
//Background and Video events
0,0,"hibi.jpg"
Video,-220,"OP.avi"
//Break Periods
2,10870,19659
//Storyboard Layer 0 (Background)
//Storyboard Layer 1 (Fail)
//Storyboard Layer 2 (Pass)
//Storyboard Layer 3 (Foreground)
//Storyboard Sound Samples
//Background Colour Transformations
3,100,163,162,255

[TimingPoints]
121,329.67032967033,4,2,1,50,1,0
20890,-100,4,2,1,70,0,0
43625,329.67032967033,4,2,1,70,1,0
54009,-100,4,2,1,90,0,0
54174,-100,4,1,1,90,0,1
75273,-100,4,2,1,70,0,0

[Colours]
Combo1 : 255,172,89
Combo2 : 70,255,255
Combo3 : 153,153,253

[HitObjects]
440,320,121,2,0,B|440:80,2,240.000002384186,2|2|2
344,344,3417,1,0
248,328,4077,2,0,B|120:328,2,120.000001192093,2|0|2
248,232,6055,1,0
152,232,6714,1,2
248,64,8033,6,0,B|488:64,2,240.000002384186,2|2|4
256,192,21219,5,4
304,208,21549,6,0,B|432:208,1,120.000001192093
472,208,22538,1,2
448,304,23197,1,2
360,344,23857,2,0,B|120:344,1,240.000002384186,2|2
48,280,25835,1,2
80,192,26494,6,0,B|80:72,2,120.000001192093,2|2|2
176,192,28472,2,0,B|248:192,2,60.0000005960464,2|0|2
176,288,29791,1,2
80,288,30450,2,0,B|16:288,2,60.0000005960464,2|0|2
80,240,31439,1,0
80,192,31769,5,4
112,160,32099,6,0,B|232:160,1,120.000001192093
280,160,33088,1,2
352,96,33747,1,2
424,160,34406,2,0,B|456:216|424:280,2,120.000001192093,2|2|2
352,96,36384,1,2
304,80,36714,1,0
256,96,37044,6,0,B|128:96,2,120.000001192093,2|2|2
320,168,39022,1,2
296,264,39681,2,0,B|184:328|56:256,1,240.000002384186,2|2
48,216,41329,2,0,B|48:152,2,60.0000005960464,0|2|0
96,216,42318,2,0,B|200:216|248:136,1,180.000001788139,2|2
256,88,43625,5,4
256,184,44284,1,2
256,280,44943,1,2
352,280,45603,1,2
424,216,46262,2,0,B|464:128|424:40,1,180.000001788139,2|2
376,40,47581,5,4
336,72,47910,2,0,B|208:72,1,120.000001192093
176,104,48899,2,0,B|80:208|176:328,1,240.000002384186,2|0
256,192,51042,12,0,53515
448,304,54174,6,0,B|264:304|264:304|216:264,1,240.000002384186,4|0
216,176,56152,1,0
168,88,56811,2,0,B|120:136|120:136|120:312,1,240.000002384186
208,344,58789,1,0
304,328,59449,6,0,B|424:328,2,120.000001192093,4|0|0
272,240,61427,1,0
264,192,61756,1,0
256,144,62086,2,0,B|376:144,2,120.000001192093,4|0|4
160,144,64064,1,0
64,144,64723,6,0,B|32:200|64:272,2,120.000001192093,4|0|0
104,56,66701,2,0,B|224:56,1,120.000001192093
296,120,68020,1,0
368,184,68679,2,0,B|392:240|368:304,2,120.000001192093,0|0|4
184,240,71317,6,0,B|56:240,2,120.000001192093,0|0|4
256,304,73295,1,0
328,240,73954,1,4
256,176,74614,2,0,B|256:104,1,60.0000005960464
256,64,75273,5,4
352,64,75932,1,0
416,136,76592,2,0,B|448:184|448:184|448:248,1,120.000001192093,2|0
392,328,77910,1,2
296,328,78570,2,0,B|176:328,1,120.000001192093,0|2
80,328,79888,1,0
56,288,80218,1,0
72,240,80548,6,0,B|72:144,2,90.0000008940696,4|4|4
136,280,82031,2,0,B|232:280,1,90.0000008940696,4|4
272,280,82855,1,4
320,280,83185,6,0,B|352:240|352:184,2,90.0000008940696,4|4|4
264,232,84668,2,0,B|232:192|232:136,1,90.0000008940696,4|4
232,104,85493,1,4
232,56,85822,6,0,B|472:56,2,240.000002384186,2|2|2
136,80,89119,1,2
96,168,89778,1,2
120,264,90438,1,2
200,320,91097,6,0,B|320:320,2,120.000001192093,2|2|2
216,224,93075,1,2
128,256,93734,2,0,B|96:208|104:128,1,120.000001192093,2|2
120,120,94559,2,0,B|120:80,2,30.0000002980232,0|0|4
