osu file format v5

[General]
AudioFilename: NPC_Ferghus.mp3
AudioLeadIn: 1015
PreviewTime: -1
Countdown: 0
SampleSet: Normal
StackLeniency: 0.7
Mode: 0
LetterboxInBreaks: 1

[Metadata]
Title:Mabinogi - Moonshine Resting on the Hammer - Ferghus
Artist:HanStone
Creator:DuskTape
Version:Normal
Source:
Tags:

[Difficulty]
HPDrainRate:5
CircleSize:5
OverallDifficulty:5
SliderMultiplier:1.4
SliderTickRate:2

[Events]
//Background and Video events
0,0,"illust_003_1024x768.jpg"
//Break Periods
2,47280,48880
2,56280,56880
//Storyboard Layer 0 (Background)
//Storyboard Layer 1 (Failing)
//Storyboard Layer 2 (Passing)
//Storyboard Layer 3 (Foreground)
//Storyboard Sound Samples
//Background Colour Transformations
3,100,136,196,255

[TimingPoints]
80,500,4,1,0,100,1,0

[Colours]
Combo1 : 255,150,0
Combo2 : 5,240,5
Combo3 : 5,5,240
Combo4 : 240,5,5

[HitObjects]
256,192,16330,1,0
256,160,16580,1,2
256,128,16830,1,0
256,96,17080,1,2
256,64,18080,5,0
256,128,18580,2,8,C|256:288,1,140
256,256,20080,5,2
224,224,20330,1,0
256,192,20580,1,0
288,160,20830,1,0
256,128,21080,1,2
256,128,22080,5,0
256,128,22580,2,8,C|256:288,1,140
256,192,24080,12,8,27580
256,192,28080,5,8
256,192,28580,1,12
256,96,30080,5,8
256,160,30580,1,8
256,224,31080,1,8
256,288,31580,1,8
131,159,32080,6,0,B|259:31|392:178|387:165,1,280,8|8
256,288,34080,5,0
256,192,34830,1,8
256,160,35080,1,8
256,128,35580,1,0
96,96,36080,6,0,C|96:256,1,140
160,128,37080,5,4
160,192,37580,1,0
192,192,37830,1,0
224,192,38080,5,0
288,256,38580,1,4
224,256,39080,1,0
288,192,39580,1,4
416,192,40080,6,0,C|416:32,1,140
288,64,41580,5,4
192,64,42080,1,0
64,64,43080,5,8
256,224,44080,5,4
256,192,44330,1,4
256,160,44580,1,0
192,128,45080,5,8
320,128,45580,1,8
256,192,46080,12,4,47080
224,128,50080,6,4,B|160:192|224:256,1,140
288,128,51080,6,4,B|352:192|288:256,1,140
320,160,52330,5,0
256,192,52580,1,0
192,160,52830,1,0
256,128,53080,1,0
256,32,53580,1,8
256,128,54080,5,2
192,192,54580,2,0,B|352:192,1,140
256,256,55580,1,2
256,192,56080,5,8
256,192,58080,5,2
192,192,58580,2,0,B|256:256|320:192,1,140
480,32,60080,5,0
480,64,60330,1,0
480,96,60580,1,4
480,320,61580,5,0
448,320,61830,1,0
416,320,62080,1,4
32,32,63080,5,0
32,64,63339,1,0
32,96,63580,1,4
32,192,64080,5,8
32,320,64830,5,8
64,320,65080,1,12
192,128,66080,5,2
256,128,66330,1,0
320,128,66580,5,2
320,192,66830,1,0
320,256,67080,5,2
256,256,67330,1,0
192,256,67580,5,2
192,192,67830,1,0
256,192,68080,5,4
