osu file format v5

[General]
AudioFilename: NPC_Ferghus.mp3
AudioLeadIn: 1015
PreviewTime: -1
Countdown: 0
SampleSet: Normal
StackLeniency: 0.7
Mode: 0
LetterboxInBreaks: 1

[Metadata]
Title:Mabinogi - Moonshine Resting on the Hammer - Ferghus
Artist:HanStone
Creator:DuskTape
Version:Hard
Source:
Tags:

[Difficulty]
HPDrainRate:5
CircleSize:6
OverallDifficulty:7
SliderMultiplier:1.4
SliderTickRate:2

[Events]
//Background and Video events
0,0,"illust_003_1024x768.jpg"
//Break Periods
//Storyboard Layer 0 (Background)
//Storyboard Layer 1 (Failing)
//Storyboard Layer 2 (Passing)
//Storyboard Layer 3 (Foreground)
//Storyboard Sound Samples
//Background Colour Transformations
3,100,136,196,255

[TimingPoints]
80,500,4,1,0,100,1,0

[Colours]
Combo1 : 255,150,0
Combo2 : 5,240,5
Combo3 : 5,5,240
Combo4 : 240,5,5

[HitObjects]
96,192,16330,1,0
128,160,16580,1,0
160,128,16830,1,0
192,96,17080,1,4
256,64,17580,5,2
320,96,18080,5,8
352,160,18580,1,0
384,192,18830,1,0
416,224,19080,1,4
96,64,20080,5,0
128,96,20330,1,8
160,128,20580,1,0
192,160,20830,1,8
224,192,21080,1,4
256,128,21580,1,2
288,64,22080,5,2
320,128,22580,1,0
352,160,22830,1,0
384,192,23080,1,4
96,128,23580,5,8
160,128,23830,1,8
224,128,24080,2,8,B|288:192|224:256,1,140
256,64,25080,5,2
320,96,25580,2,8,B|384:160|320:224,1,140
384,96,26580,5,2
448,96,27080,2,8,B|512:160|448:224,1,140
192,96,28080,5,4
224,192,28580,1,4
32,352,29580,5,0
256,352,30580,5,0
448,352,31580,5,0
384,288,32080,5,8
352,256,32330,1,8
320,224,32580,1,8
256,192,33080,5,0
224,256,33580,5,8
209,287,33830,1,8
192,320,34080,1,2
128,256,34830,5,0
96,224,35080,1,2
64,64,36080,5,0
128,96,36330,1,0
160,160,36580,1,4
224,96,37080,5,8
288,160,37580,5,0
320,224,37830,1,0
288,288,38080,1,4
384,192,38830,5,8
384,192,39080,1,8
64,128,40080,5,0
128,96,40330,1,0
192,128,40580,1,8
256,64,41080,5,4
320,128,41580,5,0
384,96,41830,1,0
448,128,42080,1,4
256,256,42830,5,0
224,224,43080,1,8
160,192,43580,5,0
192,160,43830,1,0
256,96,44080,5,8
320,128,44330,1,8
384,96,44580,1,8
448,32,45080,5,12
448,192,45580,5,0
384,224,45830,1,0
320,192,46080,1,8
256,192,46830,5,4
256,192,47080,1,4
192,160,47580,5,0
128,256,47830,1,0
64,160,48080,1,2
128,128,49080,5,2
192,96,49580,5,0
256,128,49830,1,0
320,160,50080,1,2
384,224,50580,5,0
448,288,51080,1,2
384,352,51580,1,0
96,288,52330,5,8
128,256,52580,2,0,B|256:128,1,140,0|8
288,96,53580,1,2
352,160,54080,5,8
416,224,54580,2,0,B|288:352,1,140,0|8
64,160,56330,5,0
128,128,56580,1,8
192,96,56830,1,0
256,64,57080,1,8
352,64,57580,5,0
416,64,58080,1,2
480,64,58580,2,0,B|480:224,1,140,0|2
96,224,59580,5,0
160,160,59830,1,0
224,224,60080,2,0,B|288:288|352:224,1,140,0|4
256,192,61080,5,0
320,256,61580,2,0,B|384:320|448:256,1,140
480,192,62580,5,0
416,128,63080,2,0,B|352:64|288:128,1,140
192,128,64080,6,0,B|256:192,1,140,0|4
256,192,65080,12,4,67080
