osu file format v5

[General]
AudioFilename: AN OLD STORY FROM GRANDMA.mp3
AudioLeadIn: 0
PreviewTime: -1
Countdown: 1
SampleSet: None
StackLeniency: 0.7
Mode: 0

[Metadata]
Title:AN OLD STORY FROM GRANDMA
Artist:HanStone
Creator:Tata1223
Version:Easy
Source:
Tags:

[Difficulty]
HPDrainRate:5
CircleSize:5
OverallDifficulty:5
SliderMultiplier:1.7
SliderTickRate:2

[Events]
//Background and Video events
0,0,"screens_lg_02_01.jpg"
//Break Periods
//Storyboard Layer 0 (Background)
//Storyboard Layer 1 (Failing)
//Storyboard Layer 2 (Passing)
//Storyboard Layer 3 (Foreground)
//Storyboard Sound Samples
//Background Colour Transformations
3,100,163,162,255

[TimingPoints]
44639,675.346622337984,4,0,0,100

[HitObjects]
160,128,43963,1,0
288,192,44638,1,0
128,160,45989,1,0
288,160,46665,1,0
192,128,48015,1,0
256,160,48691,1,0
320,160,50041,5,0
256,128,50717,1,0
192,160,51392,1,0
128,128,52067,1,0
256,64,52743,1,0
224,160,53418,1,0
352,160,54093,5,0
160,160,55444,1,0
256,160,56119,1,0
128,128,57470,1,0
192,160,58145,1,0
320,128,59496,5,0
192,96,60171,1,0
160,160,60847,1,0
256,160,61522,1,0
320,96,62198,1,0
96,160,62873,1,0
288,192,63548,1,0
224,128,64899,1,0
224,224,65574,1,0
0,256,66250,1,0
256,192,66925,12,0,68951
32,192,69626,2,0,B|160:128|160:128,1,170
192,128,72328,1,0
128,192,74354,1,0
128,160,75029,1,0
32,192,77055,2,0,B|192:224|-32:160,3,170
160,160,79757,1,0
256,96,80432,1,0
160,96,81107,1,0
192,160,81783,1,0
160,160,83133,5,0
352,192,83809,1,0
64,96,84484,1,0
256,128,85159,1,0
320,224,86510,1,0
384,32,87861,5,0
224,96,88536,1,0
320,160,89211,1,0
224,192,89887,1,0
256,160,91237,1,0
224,160,91913,1,0
256,160,93263,5,0
384,128,93939,1,0
160,96,94614,1,0
160,160,95289,1,0
224,128,95965,1,0
320,128,96640,5,0
288,128,97316,1,0
160,128,97991,1,0
320,224,98666,1,0
320,128,99342,5,0
224,128,100017,1,0
192,160,100692,1,0
224,160,101368,1,0
224,160,102043,1,0
224,160,102718,1,0
64,192,104069,6,0,B|256:224|-32:256,2,170
256,192,106770,12,0,108121
96,128,111498,1,0
288,192,112173,1,0
320,128,113524,1,0
160,192,114199,1,0
256,160,115550,1,0
192,160,116225,1,0
128,224,116901,1,0
256,256,117576,1,0
160,224,118251,1,0
96,224,118927,1,0
128,160,119602,1,0
32,192,120277,1,0
128,160,120953,5,0
288,192,121628,1,0
352,128,122979,1,0
448,160,123654,1,0
256,64,125005,1,0
160,96,125680,1,0
192,192,126355,1,0
256,192,127031,1,0
288,160,127706,1,0
192,128,128381,5,0
320,160,129057,1,0
64,160,131083,2,2,B|288:96|0:160,20,170
224,96,145265,5,2
224,160,145940,1,2
160,96,147291,1,2
384,160,147967,1,2
128,160,149317,1,2
352,192,149993,1,2
320,128,150668,1,2
192,160,151343,1,2
160,96,152019,1,2
320,96,152694,1,2
288,96,153369,1,2
288,96,154045,1,2
160,96,154720,1,2
352,192,155395,1,2
64,96,156746,1,2
192,96,157421,5,2
352,224,158097,1,2
224,160,158772,1,2
288,128,159447,1,2
128,64,160123,1,2
96,128,160798,1,2
224,128,161473,1,2
224,96,162149,1,2
128,96,162824,5,2
320,96,164175,1,2
416,192,164850,1,2
128,96,166201,1,2
64,128,166876,1,2
256,128,168227,5,2
320,32,168902,1,2
320,128,169578,1,2
192,192,170253,1,2
256,192,172279,12,2,174305
96,96,176331,1,2
192,128,177006,1,2
256,96,178357,1,0
192,128,179032,1,0
