osu file format v9

[General]
AudioFilename: 02_Mannequin_FeatMaboos___Han_.mp3
AudioLeadIn: 500
PreviewTime: 61559
Countdown: 0
SampleSet: Soft
StackLeniency: 0.6
Mode: 0
LetterboxInBreaks: 0

[Editor]
Bookmarks: 32990,79065,94425,125145,140505,171225
DistanceSpacing: 0.8
BeatDivisor: 4
GridSize: 8

[Metadata]
Title:Mannequin
Artist:Han Una ft. Maboos
Creator:Kiiwa
Version:Hard
Source:
Tags:

[Difficulty]
HPDrainRate:6
CircleSize:4
OverallDifficulty:6
ApproachRate:7
SliderMultiplier:1.5
SliderTickRate:1

[Events]
//Background and Video events
0,0,"OSU!map1.2BG.jpg"
//Break Periods
2,94630,106730
//Storyboard Layer 0 (Background)
//Storyboard Layer 1 (Fail)
//Storyboard Layer 2 (Pass)
//Storyboard Layer 3 (Foreground)
//Storyboard Sound Samples
//Background Colour Transformations
3,100,163,162,255

[TimingPoints]
2270,480,4,2,0,60,1,0
17629,-100,4,2,0,70,0,1
23390,-100,4,2,0,60,0,0
25309,-100,4,2,0,70,0,1
29150,-100,4,2,0,60,0,0
32990,-100,4,2,0,70,0,1
33229,-100,4,2,0,60,0,0
48349,-200,4,2,0,70,0,1
48590,-200,4,2,0,60,0,0
61550,-100,4,2,0,60,0,0
63709,-100,4,2,0,70,0,1
69469,-100,4,2,0,60,0,0
71389,-100,4,2,0,70,0,1
77150,-100,4,2,0,60,0,0
79069,-100,4,2,0,70,0,1
79309,-100,4,2,0,60,0,0
94430,-100,4,2,0,70,0,1
94670,-100,4,2,0,60,0,0
109789,-100,4,2,0,70,0,1
115550,-100,4,2,0,60,0,0
117469,-100,4,2,0,70,0,1
121310,-100,4,2,0,60,0,0
125149,-100,4,2,0,70,0,1
125389,-100,4,2,0,60,0,0
155869,-100,4,2,0,70,0,1
161630,-100,4,2,0,60,0,0
163549,-100,4,2,0,70,0,1
167390,-100,4,2,0,60,0,0
171229,-100,4,2,0,70,0,1
171469,-100,4,2,0,60,0,0

[Colours]
Combo1 : 250,80,139
Combo2 : 254,141,211
Combo3 : 253,252,223

[HitObjects]
256,64,2270,5,2
168,104,2510,1,0
144,192,2750,1,0
168,280,2990,1,0
256,320,3230,1,2
256,192,3590,5,0
256,64,3950,5,0
344,104,4190,1,2
368,192,4430,1,0
344,280,4670,1,0
256,320,4910,1,0
88,72,6110,5,2
176,72,6350,2,0,B|184:136|136:176|80:160,1,150
88,72,7070,1,2
192,192,7430,1,0
256,320,7790,1,0
176,272,8030,2,0,B|128:248|112:216,2,75,2|0|0
256,320,8750,5,0
344,280,8990,1,2
416,224,9230,2,0,B|456:204|480:160,1,75
472,176,9710,1,0
432,80,9950,1,2
472,176,10190,1,0
376,96,10430,1,0
472,176,10670,1,0
320,120,10910,1,2
256,16,11270,5,0
256,144,11630,1,0
256,248,11870,1,2
256,248,12110,1,0
320,320,12350,2,0,B|307:332|275:364|227:364|187:324,1,150,0|2
64,192,13310,5,0
256,192,13790,1,2
256,104,14030,1,0
168,136,14270,1,0
144,224,14510,1,0
176,312,14750,1,2
280,224,15110,5,0
256,352,15470,5,0
312,280,15710,1,2
392,224,15950,1,0
480,192,16190,1,0
480,192,16430,1,0
352,64,16910,5,0
256,88,17150,1,2
160,64,17390,1,0
256,224,17630,5,4
320,312,17870,1,2
200,312,18110,1,2
256,224,18350,1,2
320,312,18590,1,2
320,312,18830,2,2,B|376:312|416:288,1,75
488,256,19310,1,2
496,248,19430,1,2
504,240,19550,1,2
440,144,19790,5,2
376,56,20030,1,2
368,192,20270,1,2
304,104,20510,1,2
296,240,20750,1,2
232,152,20990,1,2
176,64,21230,1,2
168,56,21350,1,2
160,48,21470,2,2,B|112:32|56:64,1,75
88,48,21950,5,2
88,48,22190,2,2,B|90:103|74:143,1,75
120,232,22670,1,2
208,168,22910,1,2
240,80,23150,5,0
208,168,23390,1,0
288,224,23630,1,0
368,168,23870,1,0
336,80,24110,1,0
280,168,24350,5,2
272,168,24470,1,2
264,168,24590,1,2
256,168,24710,1,2
248,168,24830,1,2
240,168,24950,1,2
232,168,25070,1,2
256,320,25310,5,6
176,272,25550,1,2
96,232,25790,2,2,B|72:264|64:304,2,75
152,160,26510,1,2
224,104,26750,1,2
312,80,26990,1,2
320,88,27110,1,2
328,96,27230,6,2,B|392:96|432:120|480:160,1,150
464,248,27950,1,2
384,304,28190,1,2
376,200,28430,1,2
288,288,28670,1,0
216,224,28910,1,2
208,216,29030,1,2
200,208,29150,6,2,B|168:184|144:136,1,75
96,72,29630,1,0
72,168,29870,1,0
104,264,30110,1,0
16,312,30350,1,0
104,264,30590,1,0
208,240,30830,1,0
256,144,31070,5,4
256,144,31310,1,2
304,240,31550,1,4
304,240,31790,1,2
208,240,32030,1,4
256,144,32270,5,2
304,240,32510,1,4
208,240,32750,1,2
256,200,32990,1,6
256,64,33230,5,0
344,104,33470,1,8
368,192,33710,1,0
344,280,33950,1,0
256,320,34190,1,0
168,280,34430,1,8
144,192,34670,1,0
208,104,34910,5,0
304,104,35150,1,0
200,112,35390,1,8
320,112,35630,1,0
256,208,35870,1,0
256,72,36110,1,0
328,192,36350,6,0,B|168:192,1,150,8|0
80,184,37070,5,0
144,288,37310,1,8
48,280,37550,1,0
176,192,37790,1,0
256,128,38030,1,0
320,48,38270,2,0,B|352:72|360:112,1,75,8|0
368,200,38750,5,0
336,288,38990,1,0
328,384,39230,1,8
448,312,39470,1,0
328,384,39710,1,0
256,272,39950,1,0
136,328,40190,1,8
136,328,40430,1,0
128,320,40550,1,0
120,312,40670,2,0,B|64:272|56:256,1,75
168,160,41150,5,8
256,120,41390,1,0
344,160,41630,1,0
352,256,41870,1,0
256,296,42110,1,8
160,256,42350,1,0
168,160,42590,5,0
224,80,42830,2,0,B|264:95|295:80,1,75,0|8
256,184,43310,1,0
352,128,43550,1,0
432,192,43790,1,0
312,216,44030,1,8
392,280,44270,1,0
392,288,44390,1,0
392,296,44510,1,0
392,280,44750,5,0
464,168,44990,1,8
352,88,45230,1,0
256,192,45470,1,0
176,280,45710,1,0
64,224,45950,1,8
112,120,46190,6,2,B|144:104|184:112,1,75,2|6
160,192,46670,1,2
256,128,46910,1,6
400,120,47150,6,2,B|368:104|328:112,1,75,2|6
352,192,47630,1,2
256,128,47870,1,6
256,192,48350,5,4
312,120,48590,2,0,B|320:128|336:152,1,37.5,0|2
328,232,49070,2,0,B|320:248|296:256,1,37.5,0|0
224,288,49550,1,0
144,304,49790,1,2
56,304,50030,1,0
56,304,50270,2,0,B|56:224,1,75,0|0
136,232,50990,2,0,B|192:168,1,75
248,120,51710,5,2
336,112,51950,1,0
424,104,52190,2,0,B|440:104|464:96,2,37.5,0|0|2
352,152,52910,1,0
280,200,53150,1,0
224,264,53390,1,0
184,344,53630,1,2
184,344,53870,6,0,B|176:304,1,37.5
96,320,54350,2,0,B|64:296,1,37.5,0|2
136,240,54830,2,0,B|136:160,1,75
208,144,55550,1,2
240,64,55790,1,0
328,64,56030,1,0
416,64,56270,5,0
464,144,56510,2,0,B|488:176,1,37.5,2|0
416,152,56990,2,0,B|416:192,1,37.5
368,136,57470,2,0,B|344:168,1,37.5,2|0
328,240,57950,2,0,B|248:240,1,75,0|2
288,312,58670,2,0,B|368:312,1,75
440,312,59390,1,2
400,232,59630,5,0
328,184,59870,1,0
248,152,60110,1,0
160,144,60350,1,2
72,144,60590,1,0
72,144,60830,2,0,B|72:184,2,37.5,0|0|2
72,40,61550,5,2
80,40,61670,1,2
88,40,61790,2,2,B|176:40,1,75,4|2
112,136,62270,2,2,B|176:184,1,75,4|2
248,104,62750,2,2,B|328:80,1,75,6|2
272,208,63230,2,2,B|288:280,1,75,6|2
416,344,63710,5,6
440,240,63950,1,2
456,144,64190,2,2,B|440:96|416:80,1,75,10|2
288,16,64670,1,2
368,136,64910,1,2
384,32,65150,1,10
256,112,65390,1,2
256,120,65510,1,2
256,128,65630,2,2,B|256:208,1,75
352,216,66110,5,10
312,312,66350,1,2
200,312,66590,1,2
160,216,66830,1,2
256,208,67070,1,8
256,112,67310,1,2
216,8,67550,2,2,B|257:-3|304:9,1,75
384,32,68030,5,10
464,112,68270,1,2
384,32,68510,1,2
424,152,68750,1,2
384,32,68990,1,10
384,184,69230,5,2
384,320,69470,1,0
384,328,69710,1,0
288,216,69950,1,0
288,224,70190,1,0
208,288,70430,5,2
208,296,70550,1,2
208,304,70670,1,2
208,312,70790,1,2
208,320,70910,1,2
208,328,71030,1,2
208,336,71150,1,2
48,336,71390,5,6
144,240,71630,1,2
160,344,71870,1,2
48,232,72110,2,2,B|40:152|128:96,1,150
200,48,72830,1,8
264,120,73070,1,2
272,128,73190,1,2
280,136,73310,6,2,B|328:152|352:144,1,75
456,136,73790,1,10
416,224,74030,1,2
328,272,74270,1,2
224,280,74510,1,2
104,280,74750,1,2
96,160,74990,1,2
88,160,75110,1,2
80,160,75230,6,2,B|72:120|88:88,1,75,4|2
184,40,75710,1,2
176,136,75950,1,2
256,192,76190,1,2
336,136,76430,1,2
328,40,76670,1,2
448,64,76910,5,0
432,184,77150,1,4
432,184,77390,1,2
328,264,77630,1,4
328,264,77870,1,2
184,264,78110,1,4
80,184,78350,1,0
64,64,78590,1,4
184,96,78830,5,0
328,96,79070,1,4
256,192,79310,5,0
320,272,79550,2,0,B|248:288,1,75,8|0
168,312,80030,1,0
168,312,80270,2,0,B|144:264|104:256,1,75,0|8
40,216,80750,1,0
128,168,80990,1,0
208,112,81230,1,0
256,32,81470,1,8
352,72,81710,5,0
208,112,81950,2,0,B|296:136|344:160,1,125
336,152,82430,2,0,B|280:200|248:272,1,150,8|0
224,352,83150,1,0
320,264,83390,1,8
416,224,83630,1,0
512,216,83870,1,0
512,216,84110,5,0
416,208,84350,1,8
320,168,84590,1,0
248,96,84830,1,0
240,0,85070,1,0
336,32,85310,2,0,B|376:64|368:184,1,150,8|0
280,152,86030,5,0
208,80,86270,1,8
136,152,86510,1,0
128,152,86630,1,0
120,152,86750,2,0,B|56:160|32:176,1,75
88,248,87230,5,8
192,352,87470,1,0
72,352,87710,1,0
208,248,87950,1,0
320,136,88190,1,8
208,248,88430,1,0
208,144,88670,5,0
320,136,88910,1,0
304,240,89150,1,8
208,248,89390,1,0
320,136,89630,2,0,B|289:160|250:152,1,75
208,248,90110,2,0,B|240:225|278:232,1,75,8|0
280,232,90470,1,0
280,232,90590,1,0
416,328,90830,5,0
472,240,91070,1,8
384,176,91310,1,0
456,96,91550,2,0,B|384:48,1,75
392,56,92030,2,0,B|302:53,1,75,8|0
176,80,92510,6,2,B|266:76,1,75,4|2
376,176,92990,2,2,B|285:172,1,75,4|2
120,216,93470,2,2,B|210:212,1,75,4|0
368,288,93950,2,2,B|277:284,1,75,4|2
96,312,94430,1,4
256,104,107630,5,2
256,112,107750,1,2
256,120,107870,2,2,B|256:200,1,75,4|2
328,232,108350,2,2,B|384:280,1,75,4|2
256,272,108830,2,2,B|256:352,1,75,4|2
184,232,109310,2,2,B|128:280,1,75,4|2
256,120,109790,5,6
176,64,110030,1,2
80,72,110270,1,10
24,152,110510,2,2,B|56:200|64:232,1,75
48,312,110990,1,2
128,240,111230,1,10
192,320,111470,5,2
200,312,111590,1,2
208,304,111710,2,2,B|240:248|264:240,1,75
320,168,112190,1,10
408,288,112430,1,2
424,176,112670,5,2
312,272,112910,1,2
224,160,113150,1,10
200,272,113390,1,2
200,272,113510,1,2
200,272,113630,6,2,B|136:256|40:256,1,150,2|10
120,192,114350,1,2
176,104,114590,1,2
256,56,114830,1,2
336,104,115070,1,10
392,192,115310,1,2
296,200,115550,5,0
296,200,115790,1,0
256,304,116030,1,0
256,304,116270,1,0
224,200,116510,5,2
224,192,116630,1,2
224,184,116750,1,2
224,176,116870,1,2
224,168,116990,1,2
224,160,117110,1,2
224,152,117230,1,2
256,8,117470,5,4
320,80,117710,1,2
192,80,117950,1,10
104,112,118190,2,2,B|72:136|32:144,1,75
64,232,118670,1,2
160,256,118910,1,10
96,328,119150,1,2
96,336,119270,1,2
96,344,119390,6,2,B|192:360,1,75
256,240,119870,1,10
336,280,120110,1,2
312,368,120350,1,2
200,368,120590,1,2
176,280,120830,1,10
256,240,121070,5,2
264,232,121190,1,2
272,224,121310,2,2,B|312:176|336:168,1,75,4|2
424,80,121790,1,10
512,168,122030,1,2
400,216,122270,5,2
312,112,122510,1,2
256,232,122750,1,2
200,104,122990,1,0
120,224,123230,5,4
120,224,123470,1,2
200,104,123710,1,4
200,104,123950,1,2
312,104,124190,1,4
392,224,124430,1,2
256,304,124670,1,4
184,192,124910,5,2
328,192,125150,1,4
256,304,125390,5,0
152,264,125630,2,0,B|152:216|192:200,1,75,8|0
264,160,126110,1,0
352,120,126350,1,0
448,104,126590,1,8
448,104,126830,2,0,B|448:264,1,150
448,352,127550,5,8
360,304,127790,1,0
256,280,128030,1,0
152,304,128270,1,0
64,352,128510,1,8
64,352,128750,6,0,B|32:280,1,75,0|4
152,304,129230,2,0,B|184:224,1,75,0|8
96,208,129710,2,0,B|64:136,1,75,0|0
144,88,130190,1,0
208,0,130430,2,0,B|344:96,1,150,8|0
408,136,131150,5,0
480,192,131390,1,8
464,280,131630,1,0
368,280,131870,1,0
336,192,132110,1,0
328,96,132350,6,0,B|272:112|264:152,1,75,8|0
268,136,132710,1,0
268,136,132830,1,4
256,264,133070,2,0,B|312:272|336:304,1,75,0|8
400,344,133550,1,0
464,256,133790,1,0
480,144,134030,5,0
471,55,134270,2,0,B|448:32|408:16,1,75,8|0
392,104,134750,1,0
296,160,134990,1,0
208,224,135230,2,0,B|160:248|120:280,1,75,8|0
208,336,135710,5,0
80,312,135950,1,0
112,192,136190,2,0,B|200:136,1,75,8|0
176,152,136550,1,0
176,152,136670,1,4
272,96,136910,1,0
384,40,137150,5,8
400,152,137390,1,0
376,264,137630,1,0
336,368,137870,1,0
336,368,138110,2,0,C|304:344|256:320,1,75,8|0
312,264,138590,2,0,C|272:256|216:256,1,75,4|0
248,176,139070,2,0,C|200:192|152:216,1,75,4|0
152,128,139550,6,0,C|108:156,2,37.5,4|0|0
143,22,140030,1,4
224,88,140270,2,0,C|268:60,2,37.5,4|0|4
256,192,140750,21,0
256,272,140990,1,8
184,312,141230,1,0
256,352,141470,1,0
328,312,141710,1,0
256,192,141950,5,12
328,312,142670,21,0
400,280,142910,1,8
448,216,143150,1,0
464,136,143390,1,0
456,56,143630,1,0
352,160,143870,5,12
256,40,144590,21,0
224,112,144830,1,8
168,168,145070,2,2,C|192:200,2,37.5
96,208,145550,1,0
16,216,145790,1,8
16,304,146030,5,0
112,296,146270,1,2
216,248,146510,1,2
304,168,146750,1,2
344,48,146990,5,2
472,112,147230,1,2
304,168,147470,1,2
432,224,147710,2,2,C|448:232|464:240,4,37.5
392,296,148430,5,0
328,240,148670,1,8
256,192,148910,1,0
256,192,149150,1,0
328,240,149390,1,0
392,296,149630,1,12
120,88,150350,5,0
184,144,150590,1,8
256,192,150830,1,0
256,192,151070,1,0
184,144,151310,1,0
120,88,151550,1,12
152,328,152270,5,2
152,328,152390,1,2
152,328,152510,2,0,C|192:336|232:320,1,75,2|0
184,216,152990,2,0,C|171:184|179:144,1,75
288,176,153470,2,0,C|319:163|359:171,1,75,8|0
296,312,153950,5,4
184,216,154190,1,0
368,152,154430,1,12
208,304,154670,1,0
384,272,154910,1,4
248,128,155150,5,0
320,352,155390,1,12
160,200,155630,1,0
400,128,155870,1,4
400,128,156110,6,2,C|400:216,1,75,2|10
400,312,156590,1,2
312,272,156830,1,2
256,192,157070,1,2
232,104,157310,1,10
224,16,157550,1,2
216,16,157670,5,2
208,16,157790,2,2,C|168:16|128:24,1,75
8,48,158270,1,10
160,96,158510,1,2
32,136,158750,1,2
136,176,158990,1,2
8,216,159230,1,10
8,216,159470,6,0,C|48:296,1,75,0|4
104,360,159950,1,0
184,272,160190,1,8
224,152,160430,1,0
224,32,160670,1,0
224,32,160910,1,0
384,24,161150,1,8
312,136,161390,5,0
408,120,161630,1,0
496,80,161870,1,0
496,80,162110,1,8
456,176,162350,1,0
448,272,162590,5,2
440,280,162710,1,2
432,288,162830,1,2
424,296,162950,1,2
416,304,163070,1,2
408,312,163190,1,2
400,320,163310,1,2
256,256,163550,5,6
256,104,163790,1,2
160,176,164030,1,10
352,176,164270,1,2
192,232,164510,1,2
320,120,164750,1,2
320,232,164990,1,10
192,120,165230,1,2
256,272,165470,5,2
208,368,165710,2,2,C|120:320,1,75,2|8
56,376,166190,2,2,C|0:288,1,75
96,256,166670,2,2,C|96:168,1,75,2|10
96,80,167150,1,2
176,16,167390,1,4
192,144,167630,5,0
272,80,167870,1,8
272,224,168110,1,0
352,160,168350,1,0
432,88,168590,1,0
464,192,168830,1,8
448,312,169070,5,0
432,192,169310,1,4
432,192,169550,1,2
328,112,169790,1,4
328,112,170030,1,2
184,112,170270,1,4
80,192,170510,1,0
64,312,170750,1,4
200,336,170990,5,0
312,336,171230,1,4
