osu file format v4

[General]
AudioFilename: 02 - Hamutaro Ratotsutokorata.mp3
AudioLeadIn: 0
AudioHash: 5fd01fce5b5aa25a3867514b6e90582a
PreviewTime: -1
Countdown: 1
SampleSet: Normal

[Metadata]
Title:Hamutaro Ratotsutokorata
Artist:Hamutaro 4th Movie
Creator:Dark Deception
Version:Semi-Hard

[Difficulty]
HPDrainRate:6
CircleSize:7
OverallDifficulty:3
SliderMultiplier: 1.4
SliderTickRate: 2

[Events]
//Background and Video events
0,-100000,"hamumovie4_800-600.jpg"
//Break Periods
//Storyboard Layer 0 (Background)
//Storyboard Layer 1 (Failing)
//Storyboard Layer 2 (Passing)
//Storyboard Layer 3 (Foreground)
//Storyboard Sound Samples
//Background Colour Transformations

[TimingPoints]
3600,428.571428571429,4,1,0,100

[Colours]
Combo1 : 255,255,0
Combo2 : 0,255,255
Combo3 : 255,0,255
Combo4 : 0,255,0

[HitObjects]
352,96,3600,1,0
160,192,5314,1,0
288,32,7028,1,0
224,224,8742,1,0
256,192,10457,12,0,16457
224,192,16885,6,0,B|224:192|320:192|288:192,2,70
256,128,18171,1,0
224,128,18600,1,0
192,128,19028,1,0
224,160,19457,1,0
224,192,19885,1,0
224,224,20314,6,0,B|224:224|256:160,2,70
320,96,21600,1,0
288,128,22028,1,0
256,160,22457,1,0
224,160,22885,1,0
192,192,23314,1,0
128,224,24171,6,0,B|128:224|352:224,1,210
352,192,25457,1,0
352,160,25885,2,0,B|352:160|128:160,1,210
128,128,27171,1,0
160,288,27600,6,0,B|160:288|288:224|224:96|128:64|32:128|64:192|96:256|160:256,1,420
160,256,29314,1,0
160,192,30385,6,0,B|160:192|384:192,1,210
160,128,31885,1,0
256,128,32742,1,0
256,128,32957,1,0
256,128,33171,1,0
256,128,33385,1,0
256,192,34457,12,0,37028
256,224,37457,6,0,B|256:224|256:128|256:160,2,70
384,64,38742,1,0
352,96,39171,1,0
320,128,39600,1,0
288,160,40028,1,0
256,160,40457,1,0
224,224,40885,6,0,B|224:224|288:192,2,70
352,128,42278,1,0
320,160,42707,1,0
288,192,43135,1,0
288,224,43564,1,0
288,256,43992,1,0
224,320,44742,6,0,B|224:320|224:96,1,210
256,96,46028,1,0
288,96,46457,2,0,B|288:96|288:320,1,210
320,320,47742,1,0
160,288,48171,6,0,B|160:288|224:160|352:224|384:320|320:416|256:384|192:352|192:288,1,420
192,288,49885,1,0
256,288,50957,6,0,B|256:288|256:64,1,210
320,288,52457,1,0
320,192,53314,1,0
320,192,53528,1,0
320,192,53742,1,0
320,192,53957,1,0
256,192,55028,12,0,57599
256,224,58028,6,0,B|256:224|256:128|256:160,2,70
160,64,59314,1,0
192,96,59742,1,0
224,128,60171,1,0
256,160,60599,1,0
288,192,61028,1,0
288,224,61457,6,0,B|288:224|224:192,2,70
160,128,62742,1,0
192,128,63171,1,0
224,160,63599,1,0
192,192,64028,1,0
224,224,64457,1,0
288,320,65314,6,0,B|288:320|288:96,1,210
256,96,66599,1,0
224,96,67028,2,0,B|224:96|224:320,1,210
192,320,68314,1,0
352,288,68742,6,0,B|352:288|288:160|160:224|128:320|192:416|256:384|320:352|320:288,1,420
320,288,70457,1,0
256,288,71528,6,0,B|256:288|256:64,1,210
192,288,73028,1,0
192,192,73885,1,0
192,192,74100,1,0
192,192,74314,1,0
192,192,74528,1,0
256,192,75599,12,0,81599
256,192,82028,1,0
256,192,82242,1,0
256,192,82457,1,0
128,256,83314,2,0,B|128:256|416:256,2,280
192,160,85457,5,0
224,128,85671,1,0
256,160,85885,1,0
288,160,86742,2,0,B|288:160|224:96|256:32,1,140
288,32,87599,2,0,B|288:32|352:96|384:192|396:240|352:288,1,280
256,288,89314,6,0,L|256:288|256:288|256:256|224:256|224:224|192:224|192:192|160:192|160:160|192:160|192:128|224:128|224:96|256:96|256:64|288:64|288:64,1,420
320,64,91028,2,0,L|320:64|320:64|320:96|352:96|352:128|384:128|384:160|416:160|416:192|384:192|384:224|352:224|352:256|320:256|320:288|288:288|288:288,1,420
128,256,92742,6,0,L|128:256|192:320|256:320|320:256|256:192|192:192|129:258,1,490
128,256,94457,1,0
256,128,95742,5,0
256,160,95957,1,0
256,160,96171,1,0
192,160,97028,2,0,L|192:160|256:224|288:224|352:160,3,210
349,162,99171,1,0
256,192,99599,12,0,102171
256,192,102599,1,0
256,192,102814,1,0
256,192,103028,1,0
192,320,103885,2,0,B|192:320|192:32,2,280
288,192,106028,5,0
320,192,106242,1,0
320,224,106457,1,0
320,256,107314,2,0,B|320:256|384:320|448:288,1,140
352,224,108171,2,0,B|352:224|288:160|192:128|144:116|96:160,1,280
160,192,109885,6,0,L|160:192|160:192|192:192|192:224|224:224|224:256|256:256|256:288|288:288|288:256|320:256|320:224|352:224|352:192|384:192|384:160|384:160,1,420
384,128,111599,2,0,L|384:128|384:128|352:128|352:96|320:96|320:64|288:64|288:32|256:32|256:64|224:64|224:96|192:96|192:128|160:128|160:160|160:160,1,420
192,320,113314,6,0,L|192:320|128:256|128:192|192:128|256:192|256:256|190:319,1,490
192,320,115028,1,0
320,192,116314,5,0
288,192,116528,1,0
288,192,116742,1,0
288,256,117599,2,0,L|288:256|224:192|224:160|288:96,3,210
286,99,119742,1,0
256,192,120171,12,0,122742
256,192,123171,1,0
256,192,123385,1,0
256,192,123599,1,0
320,64,124457,2,0,B|320:64|320:352,2,280
256,128,126599,5,0
224,160,126814,1,0
256,192,127028,1,0
320,96,127885,2,0,B|320:96|256:32|192:64,1,140
96,96,128742,2,0,B|96:96|160:160|256:192|304:204|352:160,1,280
352,192,130457,6,0,L|352:192|352:192|320:192|320:160|288:160|288:128|256:128|256:96|224:96|224:128|192:128|192:160|160:160|160:192|128:192|128:224|128:224,1,420
128,256,132171,2,0,L|128:256|128:256|160:256|160:288|192:288|192:320|224:320|224:352|256:352|256:320|288:320|288:288|320:288|320:256|352:256|352:224|352:224,1,420
320,64,133885,6,0,L|320:64|384:128|384:192|320:256|256:192|256:128|322:65,1,490
320,64,135599,1,0
192,192,136885,5,0
224,192,137099,1,0
224,192,137314,1,0
224,128,138171,2,0,L|224:128|288:192|288:224|224:288,3,210
226,285,140314,1,0
256,192,140742,12,0,146742
288,192,147171,2,0,B|288:192|192:224|160:160,1,140
288,128,148457,1,0
224,128,148885,1,0
224,160,149314,1,0
224,160,149528,1,0
224,160,149742,1,0
224,160,149957,1,0
320,192,150600,6,0,B|320:192|256:96|223:203|224:224,1,140
352,128,151885,1,0
256,192,152314,1,0
224,128,152742,1,0
224,128,152957,1,0
224,128,153171,1,0
224,128,153385,1,0
224,128,153600,1,0
224,320,154457,6,0,B|224:320|224:96,1,210
256,96,155742,1,0
288,96,156171,2,0,B|288:96|288:320,1,210
320,320,157457,1,0
192,320,157885,6,0,L|192:320|128:256|128:192|192:128|256:192|256:256|190:319,1,490
192,320,159600,1,0
256,288,160671,6,0,B|256:288|256:64,1,210
192,288,162171,1,0
192,192,163028,1,0
192,192,163242,1,0
192,192,163457,1,0
192,192,163671,1,0
256,192,164742,12,0,167314
224,192,167742,6,0,B|224:192|320:192|288:192,2,70
384,64,169028,1,0
352,96,169457,1,0
320,128,169885,1,0
288,128,170314,1,0
256,128,170742,1,0
224,128,171171,5,0
224,160,171385,1,0
224,192,171600,1,0
224,160,172457,2,0,B|224:160|192:96|96:128,1,140
96,160,173314,2,0,B|96:160|160:224|256:256|304:268|352:224,1,280
160,192,175028,6,0,L|160:192|160:192|192:192|192:224|224:224|224:256|256:256|256:288|288:288|288:256|320:256|320:224|352:224|352:192|384:192|384:160|384:160,1,420
384,128,176742,2,0,L|384:128|384:128|352:128|352:96|320:96|320:64|288:64|288:32|256:32|256:64|224:64|224:96|192:96|192:128|160:128|160:160|160:160,1,420
352,288,178564,6,0,B|352:288|288:160|160:224|128:320|192:416|256:384|320:352|320:256,1,455
320,256,180171,1,0
192,192,181457,5,0
224,192,181671,1,0
224,192,181885,1,0
224,128,182742,2,0,L|224:128|288:192|288:224|224:288,3,210
226,285,184885,1,0
256,192,185421,12,0,187885
288,32,188314,1,0
256,128,188528,1,0
288,128,188742,1,0
192,224,189600,2,0,B|192:224|320:160|192:32|96:128|203:238,1,280
192,224,190671,1,0
192,224,190885,1,0
192,224,191100,1,0
320,128,191742,5,0
256,160,191957,1,0
320,256,192171,1,0
352,192,193028,2,0,B|352:192|256:256|160:256|64:192|96:64|256:0|352:96|352:196,1,560
320,256,195707,6,0,B|320:256|256:288|192:288|128:256,1,175
134,259,196564,1,0
134,259,196992,1,0
134,259,197314,2,0,B|134:259|224:224|288:224|352:256,1,210
338,249,198171,1,0
338,249,198600,1,0
338,249,199028,2,0,L|338:249|128:256|224:64|352:256,1,630
288,224,201278,1,0
320,192,201600,1,0
320,160,202028,5,4
288,192,202457,1,4
256,192,202885,1,4
224,160,203314,1,4
224,128,203742,1,4
256,128,204171,1,4
256,128,204385,1,4
256,128,204600,1,4
256,128,204814,1,4
256,192,205885,12,6,214457
