osu file format v12

[General]
AudioFilename: OP.mp3
AudioLeadIn: 0
PreviewTime: 51582
Countdown: 0
SampleSet: Soft
StackLeniency: 0.7
Mode: 0
LetterboxInBreaks: 0
WidescreenStoryboard: 1

[Editor]
DistanceSpacing: 1
BeatDivisor: 4
GridSize: 4

[Metadata]
Title:Progress
TitleUnicode:Progress
Artist:Hamasaki Ayumi
ArtistUnicode:浜崎あゆみ
Creator:AnreFM
Version:Progress
Source:Tales of Xillia
Tags:テイルズ オブ エクシリア rpg jpop five irreversible lanturn nardoxyribonucleic
BeatmapID:300628
BeatmapSetID:116540

[Difficulty]
HPDrainRate:7
CircleSize:4
OverallDifficulty:7
ApproachRate:8
SliderMultiplier:1.8
SliderTickRate:1

[Events]
//Background and Video events
0,0,"12.jpg",0,0
Video,865,"Tales of Xillia - Opening video - Jude.avi"
//Break Periods
//Storyboard Layer 0 (Background)
//Storyboard Layer 1 (Fail)
//Storyboard Layer 2 (Pass)
//Storyboard Layer 3 (Foreground)
//Storyboard Sound Samples
//Background Colour Transformations
3,100,163,162,255

[TimingPoints]
2273,495.867768595041,4,2,1,60,1,0
3265,500,4,2,1,70,1,0
6245,500,4,2,1,70,1,0
8241,487.80487804878,4,2,1,70,1,0
9215,480,4,2,1,60,1,0
10186,495.867768595041,4,2,1,70,1,0
19607,-100,4,2,1,5,0,0
20081,495.867768595041,4,2,1,70,1,0
43882,-125,4,2,1,70,0,0
44378,-100,4,2,1,70,0,0
45865,-125,4,2,1,70,0,0
46361,-100,4,2,1,70,0,0
50080,-111.111111111111,4,2,1,70,0,0
50824,-100,4,2,1,70,0,0
51816,-100,4,2,1,70,0,1
67560,-100,4,2,1,70,0,0
67684,-100,4,2,1,70,0,1
83303,-100,4,2,1,70,0,0
83551,-100,4,2,1,70,0,1
83676,-100,4,2,1,70,0,0
99419,-100,4,2,1,70,0,0
101031,-100,4,2,1,5,0,0
101279,-100,4,2,1,30,0,0
101542,697.674418604651,4,2,1,30,1,0
101855,753.768844221106,4,2,1,60,1,0
102239,779.220779220779,4,2,1,30,1,0
102608,833.333333333333,4,2,1,60,1,0
103441,937.5,4,2,1,60,1,0
104497,1445.78313253012,4,2,1,60,1,0
105219,495.867768595041,4,2,1,60,1,0
105505,495.867768595041,4,2,1,15,1,0
109471,-100,4,2,1,7,0,0

[Colours]
Combo1 : 0,107,215
Combo2 : 255,128,64
Combo3 : 0,128,192
Combo4 : 255,128,0

[HitObjects]
128,208,2272,6,0,L|228:200,1,90,4|0,0:0|0:0,0:0:0:0:
303,109,2768,2,0,L|204:116,2,90,0|2|0,0:0|0:0|0:0,0:0:0:0:
392,104,3515,1,0,0:0:0:0:
471,141,3765,2,0,P|479:97|467:55,1,90,0|2,0:0|0:0,0:0:0:0:
408,204,4265,5,0,0:0:0:0:
340,332,4515,1,0,0:0:0:0:
472,268,4765,1,0,0:0:0:0:
332,240,5015,1,2,0:0:0:0:
428,348,5265,1,0,0:0:0:0:
248,280,5515,2,0,L|152:292,1,90
88,236,6015,1,0,0:0:0:0:
116,152,6245,5,4,0:0:0:0:
44,96,6495,1,0,0:0:0:0:
124,44,6745,2,0,P|166:32|216:48,1,90,0|2,0:0|0:0,0:0:0:0:
374,87,7245,2,0,P|331:98|288:88,1,90,0|0,0:0|0:0,0:0:0:0:
456,124,7745,2,0,P|463:85|448:32,1,90,0|2,0:0|0:0,0:0:0:0:
464,224,8241,5,0,0:0:0:0:
404,292,8484,2,0,P|396:330|408:380,2,90,0|0|2,0:0|0:0|0:0,0:0:0:0:
332,236,9215,1,0,0:0:0:0:
252,276,9455,1,2,0:0:0:0:
204,200,9695,1,0,0:0:0:0:
124,240,9935,1,2,0:0:0:0:
84,224,10055,1,0,0:0:0:0:
56,188,10186,6,0,P|40:136|44:92,1,90,4|0,0:0|0:0,0:0:0:0:
136,108,10681,2,0,L|172:24,1,90,8|0,0:0|0:0,0:0:0:0:
248,104,11177,1,0,0:0:0:0:
248,104,11301,1,2,0:0:0:0:
248,104,11425,2,0,L|324:40,1,90,0|8,0:0|0:0,0:0:0:0:
352,128,11921,1,0,0:0:0:0:
388,152,12045,1,0,0:0:0:0:
432,156,12169,1,0,0:0:0:0:
508,204,12417,6,0,P|520:164|504:108,2,90,0|8|0,0:0|0:0|0:0,0:0:0:0:
480,248,13037,1,0,0:0:0:0:
440,276,13161,1,0,0:0:0:0:
348,268,13409,2,0,L|248:252,2,90,0|8|0,0:0|0:0|0:0,0:0:0:0:
184,288,14152,6,0,P|180:244|212:188,1,90,4|0,0:0|0:0,0:0:0:0:
312,60,14648,2,0,P|316:104|280:156,1,90,8|0,0:0|0:0,0:0:0:0:
232,80,15144,1,0,0:0:0:0:
144,68,15392,2,0,P|100:64|60:92,1,90,0|8,0:0|0:0,0:0:0:0:
140,224,15888,1,0,0:0:0:0:
140,224,16136,6,0,P|143:184|119:139,1,90
208,272,16632,2,0,P|245:259|296:264,1,90,12|0,0:0|0:0,0:0:0:0:
456,224,17128,2,0,P|462:264|448:312,1,90,0|8,0:0|0:0,0:0:0:0:
376,256,17624,1,0,0:0:0:0:
352,220,17747,1,0,0:0:0:0:
344,176,17871,2,0,P|340:132|368:84,1,90,8|12,0:0|0:0,0:0:0:0:
256,192,18367,12,0,19607,0:0:0:0:
120,208,20081,6,0,P|160:220|208:204,1,90,2|0,0:0|0:0,0:0:0:0:
283,112,20576,2,0,P|244:104|196:120,2,90,0|0|2,0:0|0:0|0:0,0:0:0:0:
372,112,21320,1,0,0:0:0:0:
447,59,21568,2,0,P|460:102|451:146,1,90
432,188,21940,1,0,0:0:0:0:
400,220,22064,6,0,P|390:263|405:304,1,90,2|0,0:0|0:0,0:0:0:0:
304,340,22560,2,0,L|214:336,1,90,0|0,0:0|0:0,0:0:0:0:
216,336,23056,1,2,0:0:0:0:
104,184,23304,2,0,L|193:191,1,90,0|0,0:0|0:0,0:0:0:0:
192,192,23800,1,0,0:0:0:0:
348,136,24047,5,0,0:0:0:0:
348,136,24295,2,0,P|358:98|396:64,1,90
472,152,24791,1,0,0:0:0:0:
472,152,24915,2,0,P|488:228|460:276,1,135,2|0,0:0|0:0,0:0:0:0:
312,344,25535,1,0,0:0:0:0:
376,276,25783,1,0,0:0:0:0:
336,252,25907,1,0,0:0:0:0:
292,248,26031,6,0,P|244:248|204:280,1,90,2|0,0:0|0:0,0:0:0:0:
144,332,26527,1,0,0:0:0:0:
60,296,26775,1,0,0:0:0:0:
20,216,27023,2,0,P|56:204|112:216,1,90,2|0,0:0|0:0,0:0:0:0:
300,164,27519,2,0,P|260:176|208:164,1,90,0|0,0:0|0:0,0:0:0:0:
456,112,28014,6,0,P|444:156|464:204,1,90,2|0,0:0|0:0,0:0:0:0:
448,244,28386,2,0,P|384:244|320:292,1,135,0|2,0:0|0:0,0:0:0:0:
327,283,29006,1,0,0:0:0:0:
148,260,29254,2,0,L|240:244,2,90
104,252,29874,1,0,0:0:0:0:
64,228,29998,6,0,P|72:176|48:136,1,90,2|0,0:0|0:0,0:0:0:0:
80,104,30370,2,0,P|144:104|208:56,1,135,0|2,0:0|0:0,0:0:0:0:
264,0,30990,1,2,0:0:0:0:
300,28,31114,1,0,0:0:0:0:
316,72,31238,2,0,P|352:84|408:64,1,90,0|2,0:0|0:0,0:0:0:0:
480,28,31733,1,0,0:0:0:0:
496,212,31981,6,0,L|488:122,1,90
408,232,32477,2,0,L|415:321,1,90,2|0,0:0|0:0,0:0:0:0:
312,288,32973,1,0,0:0:0:0:
228,240,33221,2,0,L|140:259,2,90,0|2|0,0:0|0:0|0:0,0:0:0:0:
64,308,33965,6,0,P|54:267|72:216,1,90,0|0,0:0|0:0,0:0:0:0:
108,132,34461,1,2,0:0:0:0:
228,0,34709,2,0,P|238:41|220:96,1,90,0|8,0:0|0:0,0:0:0:0:
188,168,35204,1,0,0:0:0:0:
240,252,35452,2,0,P|288:272|336:256,1,90,8|0,0:0|0:0,0:0:0:0:
364,244,35824,1,0,0:0:0:0:
408,240,35948,6,0,P|421:283|414:327,1,90,4|0,0:0|0:0,0:0:0:0:
443,151,36444,2,0,P|431:107|440:64,1,90,8|0,0:0|0:0,0:0:0:0:
372,280,36940,1,0,0:0:0:0:
284,288,37188,2,0,L|192:300,1,90,0|8,0:0|0:0,0:0:0:0:
108,352,37684,5,0,0:0:0:0:
84,308,37808,1,0,0:0:0:0:
100,260,37932,2,0,P|108:220|88:176,1,90,0|0,0:0|0:0,0:0:0:0:
148,96,38428,2,0,P|188:104|236:84,1,90,8|0,0:0|0:0,0:0:0:0:
280,64,38800,1,0,0:0:0:0:
328,72,38923,1,0,0:0:0:0:
420,104,39171,2,0,P|424:64|404:12,2,90,0|8|0,0:0|0:0|0:0,0:0:0:0:
416,196,39915,6,0,P|411:235|432:284,2,90,0|0|8,0:0|0:0|0:0,0:0:0:0:
380,352,40659,1,0,0:0:0:0:
328,284,40907,2,0,L|228:296,1,90
148,288,41403,1,8,0:0:0:0:
68,328,41651,5,0,0:0:0:0:
52,284,41775,1,0,0:0:0:0:
72,244,41899,2,0,P|76:200|56:156,1,90,2|0,0:0|0:0,0:0:0:0:
116,84,42395,2,0,L|204:60,1,90,8|0,0:0|0:0,0:0:0:0:
292,80,42890,1,2,0:0:0:0:
268,168,43138,1,8,0:0:0:0:
352,200,43386,1,2,0:0:0:0:
320,284,43634,1,8,0:0:0:0:
109,323,43882,6,0,P|177:303|244:328,1,144,4|8,0:0|0:0,0:0:0:0:
36,376,44626,1,0,0:0:0:0:
32,288,44874,2,0,P|36:240|16:204,1,90
28,36,45370,2,0,P|17:83|32:124,1,90,8|0,0:0|0:0,0:0:0:0:
237,77,45866,6,0,P|171:52|104:72,1,144,2|8,0:0|0:0,0:0:0:0:
292,148,46609,2,0,L|388:136,1,90
478,234,47105,1,0,0:0:0:0:
434,239,47229,1,0,0:0:0:0:
388,244,47353,2,0,L|298:253,1,90,8|0,0:0|0:0,0:0:0:0:
232,312,47849,6,0,P|212:256|240:188,2,135,4|0|0,0:0|0:0|0:0,0:0:0:0:
168,376,48841,1,8,0:0:0:0:
92,328,49089,1,0,0:0:0:0:
132,248,49337,2,0,P|136:204|108:152,1,90,8|0,0:0|0:0,0:0:0:0:
56,56,49833,1,4,0:0:0:0:
56,56,50080,2,0,P|96:64|152:36,1,80.9999975280763,0|8,0:0|0:0,0:0:0:0:
352,72,50576,1,0,0:0:0:0:
256,20,50824,2,0,P|237:58|252:112,1,90,8|0,0:0|0:0,0:0:0:0:
464,192,51320,1,8,0:0:0:0:
444,200,51444,1,0,0:0:0:0:
424,200,51568,1,8,0:0:0:0:
404,196,51692,1,0,0:0:0:0:
384,192,51816,6,0,P|344:184|296:204,1,90,4|0,0:0|0:0,0:0:0:0:
140,275,52312,2,0,P|183:283|224:264,1,90,8|0,0:0|0:0,0:3:0:0:
57,227,52808,2,0,P|47:271|55:315,2,90,0|0|8,0:0|0:0|0:0,0:0:0:0:
108,140,53552,1,0,0:0:0:0:
196,92,53800,2,0,L|284:112,1,90,0|0,0:0|0:0,0:0:0:0:
415,222,54295,2,0,L|328:200,1,90,8|0,0:0|0:0,0:0:0:0:
244,256,54791,1,0,0:0:0:0:
160,304,55039,1,0,0:0:0:0:
144,264,55163,1,0,0:0:0:0:
156,220,55287,2,0,P|164:184|132:120,1,90,8|0,0:0|0:0,0:0:0:0:
192,44,55783,5,0,0:0:0:0:
92,36,56031,2,0,P|48:32|-4:-4,2,90,0|8|0,0:0|0:0|0:0,0:0:0:0:
200,56,56775,1,0,0:0:0:0:
300,52,57023,2,0,P|344:52|392:84,1,90,0|8,0:0|0:0,0:0:0:0:
426,190,57519,2,0,P|382:186|344:164,1,90
300,140,57890,1,0,0:0:0:0:
252,152,58014,1,0,0:0:0:0:
160,188,58262,2,0,P|148:148|172:88,1,90,8|0,0:0|0:0,0:0:0:0:
256,240,58758,6,0,P|286:243|308:256,1,45,0|8,0:0|0:0,0:0:0:0:
196,304,59006,2,0,P|204:324|204:352,1,45,0|0,0:0|0:0,0:0:0:0:
128,348,59254,1,8,0:0:0:0:
88,332,59378,1,0,0:0:0:0:
52,292,59502,1,0,0:0:0:0:
141,148,59750,6,0,P|151:191|136:240,1,90,4|0,0:0|0:0,0:0:0:0:
48,176,60246,1,8,0:0:0:0:
88,80,60494,2,0,L|176:52,1,90
292,128,60990,2,0,L|188:164,2,90,0|8|0,0:0|0:0|0:0,0:0:0:0:
292,128,61733,1,0,0:0:0:0:
368,68,61981,1,2,0:0:0:0:
416,152,62229,2,0,P|404:192|420:236,1,90,8|0,0:0|0:0,0:0:0:0:
376,324,62725,1,0,0:0:0:0:
336,304,62849,1,8,0:0:0:0:
308,268,62973,2,0,L|219:282,2,90,0|8|0,0:0|0:0|0:0,0:0:0:0:
132,328,63717,5,4,0:0:0:0:
132,328,63965,2,0,P|118:286|129:243,2,90,0|8|0,0:0|0:0|0:0,0:0:0:0:
172,152,64709,1,0,0:0:0:0:
128,140,64833,1,2,0:0:0:0:
88,156,64957,2,0,P|44:164|-8:140,1,90,0|8,0:0|0:0,0:0:0:0:
216,148,65452,1,2,0:0:0:0:
260,144,65576,1,8,0:0:0:0:
292,176,65700,2,0,P|324:196|388:188,1,90,0|12,0:0|0:0,0:0:0:0:
272,320,66196,2,0,P|240:300|176:304,1,90,0|8,0:0|0:0,0:0:0:0:
104,336,66692,5,8,0:0:0:0:
100,312,66816,1,0,0:0:0:0:
104,288,66940,1,8,0:0:0:0:
112,268,67064,1,0,0:0:0:0:
120,248,67188,1,8,0:0:0:0:
124,224,67312,1,0,0:0:0:0:
120,200,67436,1,8,0:0:0:0:
112,180,67560,1,0,0:0:0:0:
100,160,67684,5,4,0:0:0:0:
68,68,67932,2,0,P|104:64|164:96,1,90,0|8,0:0|0:0,0:0:0:0:
307,171,68428,2,0,P|263:173|224:152,1,90
384,108,68923,1,0,0:0:0:0:
408,204,69171,2,0,P|404:240|424:292,2,90,8|0|0,0:0|0:0|0:0,0:0:0:0:
468,344,69915,2,0,P|420:332|376:352,1,90,0|8,0:0|0:0,0:0:0:0:
284,352,70411,1,0,0:0:0:0:
192,316,70659,1,0,0:0:0:0:
152,296,70783,1,2,0:0:0:0:
116,272,70907,2,0,L|28:212,2,90,0|8|0,0:0|0:0|0:0,0:0:0:0:
132,172,71651,6,0,L|80:72,1,90
140,8,72147,1,8,0:0:0:0:
216,68,72395,1,0,0:0:0:0:
280,0,72642,1,0,0:0:0:0:
368,48,72890,2,0,P|412:48|456:76,1,90,0|8,0:0|0:0,0:0:0:0:
512,195,73386,2,0,P|467:195|429:173,2,90
344,120,74130,6,0,P|332:164|348:216,1,90,8|0,0:0|0:0,0:0:0:0:
254,352,74626,2,0,P|271:311|264:268,1,90,0|0,0:0|0:0,0:0:0:0:
232,228,74998,1,2,0:0:0:0:
188,200,75122,1,8,0:0:0:0:
172,300,75370,1,8,0:0:0:0:
92,240,75618,6,0,P|77:183|104:112,2,135,4|2|0,0:0|0:0|0:0,0:0:0:0:
144,33,76609,2,0,L|56:48,1,90
204,120,77105,2,0,L|292:104,1,90,8|0,0:0|0:0,0:0:0:0:
364,148,77601,2,0,P|368:80|312:24,2,135,0|2|8,0:0|0:0|0:0,0:0:0:0:
408,236,78593,1,0,0:0:0:0:
364,252,78717,1,8,0:0:0:0:
324,272,78841,2,0,L|240:312,2,90,0|8|0,0:0|0:0|0:0,0:0:0:0:
184,372,79585,6,0,P|160:336|160:288,1,90,4|0,0:0|0:0,0:0:0:0:
195,123,80080,2,0,P|220:161|223:205,1,90,8|0,0:0|0:0,0:0:0:0:
212,24,80576,1,0,0:0:0:0:
292,80,80824,2,0,L|392:68,1,90,0|8,0:0|0:0,0:0:0:0:
496,208,81320,1,0,0:0:0:0:
456,196,81444,1,0,0:0:0:0:
424,168,81568,2,0,L|332:180,1,90,8|4,0:0|0:0,0:0:0:0:
184,232,82064,2,0,P|224:220|280:236,1,90,8|0,0:0|0:0,0:0:0:0:
116,304,82560,5,8,0:0:0:0:
108,284,82684,1,0,0:0:0:0:
100,264,82808,1,10,0:0:0:0:
96,244,82932,1,0,0:0:0:0:
100,224,83056,1,8,0:0:0:0:
104,204,83180,1,0,0:0:0:0:
104,184,83304,1,10,0:0:0:0:
100,164,83428,1,0,0:0:0:0:
96,148,83552,6,0,P|104:104|76:52,1,90,4|0,0:0|0:0,0:0:0:0:
216,104,84047,2,0,P|208:148|236:200,1,90,8|0,0:0|0:0,0:0:0:0:
312,140,84543,1,0,0:0:0:0:
408,120,84791,2,0,L|504:104,1,90,0|8,0:0|0:0,0:0:0:0:
400,256,85287,2,0,L|304:276,1,90
232,336,85783,1,0,0:0:0:0:
148,284,86031,1,8,0:0:0:0:
92,364,86279,1,0,0:0:0:0:
8,316,86527,1,0,0:0:0:0:
16,216,86775,2,0,L|0:120,2,90,0|8|0,0:0|0:0|0:0,0:0:0:0:
100,148,87519,6,0,L|132:64,1,90,4|0,0:0|0:0,0:0:0:0:
212,124,88014,2,0,L|284:56,1,90,8|0,0:0|0:0,0:0:0:0:
304,160,88510,1,0,0:0:0:0:
404,148,88758,2,0,L|492:132,1,90,0|8,0:0|0:0,0:0:0:0:
420,256,89254,2,0,L|328:272,1,90
252,320,89750,2,0,P|212:300|160:308,2,90,0|8|0,0:0|0:0|0:0,0:0:0:0:
100,356,90494,2,0,P|84:312|92:264,1,90,0|8,0:0|0:0,0:0:0:0:
88,76,90990,1,8,0:0:0:0:
128,88,91114,1,0,0:0:0:0:
156,124,91238,2,0,P|172:168|160:212,1,90,8|4,0:0|0:0,0:0:0:0:
216,284,91733,6,0,P|236:308|296:320,1,90,0|8,0:0|0:0,0:0:0:0:
456,332,92229,1,0,0:0:0:0:
390,279,92477,2,0,P|371:319|376:364,2,90,0|0|12,0:0|0:0|0:0,0:0:0:0:
456,204,93221,1,0,0:0:0:0:
444,104,93469,1,0,0:0:0:0:
348,84,93717,1,0,0:0:0:0:
162,64,93965,2,0,P|204:80|248:72,1,90,8|0,0:0|0:0,0:0:0:0:
121,151,94461,1,0,0:0:0:0:
121,151,94585,1,8,0:0:0:0:
121,151,94709,2,0,P|79:135|36:144,2,90,0|8|0,0:0|0:0|0:0,0:0:0:0:
68,228,95452,6,0,L|52:320,1,90,4|0,0:0|0:0,0:0:0:0:
116,380,95948,1,8,0:0:0:0:
196,340,96196,1,0,0:0:0:0:
284,364,96444,1,0,0:0:0:0:
368,336,96692,2,0,P|404:332|460:364,1,90,0|8,0:0|0:0,0:0:0:0:
506,181,97188,2,0,L|480:268,1,90
472,100,97684,1,0,0:0:0:0:
344,108,97932,2,0,P|364:112|388:124,2,45,8|8|0,0:0|0:0|0:0,0:0:0:0:
260,56,98428,5,8,0:0:0:0:
248,72,98552,1,0,0:0:0:0:
244,92,98676,1,0,0:0:0:0:
244,112,98800,1,0,0:0:0:0:
236,132,98923,2,0,L|176:148,1,45,8|0,0:0|0:0,0:0:0:0:
92,236,99171,2,0,L|134:222,1,45,8|0,0:0|0:0,0:0:0:0:
256,192,99419,12,0,101155,0:0:0:0:
96,116,101527,5,2,0:0:0:0:
184,164,101855,2,0,P|228:176|272:160,1,90,0|2,0:0|0:0,0:0:0:0:
402,237,102608,2,0,P|359:225|316:236,1,90,2|0,0:0|0:0,0:0:0:0:
244,288,103441,1,0,0:0:0:0:
208,300,103909,1,2,0:0:0:0:
160,296,104497,1,2,0:0:0:0:
120,300,105219,2,0,L|76:296,2,30,0|0|2,0:0|0:0|0:0,0:0:0:0:
256,192,105466,12,0,110463,0:0:0:0:
