osu file format v12

[General]
AudioFilename: OP.mp3
AudioLeadIn: 0
PreviewTime: 51582
Countdown: 0
SampleSet: Soft
StackLeniency: 0.7
Mode: 1
LetterboxInBreaks: 0
WidescreenStoryboard: 1

[Editor]
DistanceSpacing: 1
BeatDivisor: 4
GridSize: 32

[Metadata]
Title:Progress
TitleUnicode:Progress
Artist:Hamasaki Ayumi
ArtistUnicode:浜崎あゆみ
Creator:AnreFM
Version:Muzukashii
Source:Tales of Xillia
Tags:テイルズ オブ エクシリア rpg jpop five irreversible lanturn nardoxyribonucleic
BeatmapID:307614
BeatmapSetID:116540

[Difficulty]
HPDrainRate:5
CircleSize:5
OverallDifficulty:4
ApproachRate:5
SliderMultiplier:1.4
SliderTickRate:1

[Events]
//Background and Video events
0,0,"12.jpg",0,0
//Break Periods
//Storyboard Layer 0 (Background)
//Storyboard Layer 1 (Fail)
//Storyboard Layer 2 (Pass)
//Storyboard Layer 3 (Foreground)
//Storyboard Sound Samples
//Background Colour Transformations
3,100,163,162,255

[TimingPoints]
2273,495.867768595041,4,2,1,60,1,0
3265,500,4,2,1,70,1,0
6245,500,4,2,1,70,1,0
8241,487.80487804878,4,2,1,70,1,0
9215,480,4,2,1,60,1,0
10186,495.867768595041,4,2,1,70,1,0
20081,495.867768595041,4,2,1,70,1,0
51816,-100,4,1,0,80,0,1
83551,-100,4,1,0,80,0,0
101542,697.674418604651,4,2,1,30,1,0
101855,753.768844221106,4,2,1,60,1,0
102239,779.220779220779,4,2,1,30,1,0
102608,833.333333333333,4,2,1,60,1,0
103441,937.5,4,2,1,60,1,0
104497,1445.78313253012,4,2,1,60,1,0
105219,495.867768595041,4,2,1,60,1,0
105505,495.867768595041,4,2,1,15,1,0

[Colours]
Combo1 : 0,107,215
Combo2 : 255,128,64
Combo3 : 0,128,192
Combo4 : 255,128,0

[HitObjects]
96,96,2272,1,8,0:0:0:0:
96,96,2768,1,8,0:0:0:0:
96,96,3264,1,8,0:0:0:0:
96,96,3765,1,0,0:0:0:0:
96,96,4015,1,8,0:0:0:0:
128,128,4515,1,0,0:0:0:0:
128,128,4765,1,8,0:0:0:0:
128,128,5015,1,8,0:0:0:0:
128,128,5265,1,0,0:0:0:0:
128,128,5515,1,8,0:0:0:0:
384,96,5765,1,0,0:0:0:0:
384,96,6015,1,0,0:0:0:0:
384,96,6245,1,12,0:0:0:0:
96,96,6745,1,8,0:0:0:0:
96,96,7245,1,8,0:0:0:0:
96,96,7745,1,0,0:0:0:0:
96,96,7995,1,8,0:0:0:0:
128,128,8484,1,0,0:0:0:0:
128,128,8728,1,0,0:0:0:0:
128,128,8972,1,8,0:0:0:0:
128,128,9216,1,0,0:0:0:0:
128,128,9455,1,8,0:0:0:0:
128,128,9695,1,0,0:0:0:0:
384,96,9935,1,0,0:0:0:0:
384,96,10055,1,0,0:0:0:0:
384,96,10175,1,8,0:0:0:0:
96,96,10681,1,8,0:0:0:0:
224,64,11177,1,8,0:0:0:0:
96,96,11673,1,0,0:0:0:0:
96,96,11921,1,8,0:0:0:0:
256,128,12417,1,0,0:0:0:0:
160,256,12665,1,8,0:0:0:0:
256,128,12913,1,8,0:0:0:0:
128,128,13161,1,0,0:0:0:0:
128,128,13409,1,8,0:0:0:0:
0,32,13657,1,0,0:0:0:0:
384,96,13905,1,0,0:0:0:0:
384,96,14028,1,0,0:0:0:0:
384,96,14152,1,8,0:0:0:0:
96,96,14648,1,8,0:0:0:0:
96,96,15144,1,8,0:0:0:0:
96,96,15640,1,0,0:0:0:0:
96,96,15888,1,8,0:0:0:0:
224,64,16136,1,0,0:0:0:0:
224,64,16384,1,0,0:0:0:0:
224,64,16632,1,8,0:0:0:0:
224,64,16880,1,8,0:0:0:0:
224,64,17128,1,0,0:0:0:0:
224,64,17376,1,8,0:0:0:0:
224,64,17624,1,0,0:0:0:0:
224,64,17747,1,0,0:0:0:0:
128,128,17871,1,0,0:0:0:0:
192,128,18119,1,0,0:0:0:0:
96,96,20081,1,0,0:0:0:0:
96,96,20576,1,0,0:0:0:0:
96,96,21072,1,0,0:0:0:0:
96,96,21568,1,8,0:0:0:0:
96,96,22064,1,0,0:0:0:0:
96,96,22560,1,0,0:0:0:0:
96,96,23056,1,0,0:0:0:0:
96,96,23552,1,8,0:0:0:0:
96,96,24047,1,0,0:0:0:0:
96,96,24543,1,8,0:0:0:0:
96,96,25039,1,0,0:0:0:0:
96,96,25535,1,8,0:0:0:0:
0,32,25783,1,0,0:0:0:0:
0,32,25907,1,0,0:0:0:0:
0,32,26031,1,0,0:0:0:0:
0,32,26527,1,8,0:0:0:0:
96,96,27023,1,0,0:0:0:0:
96,96,27519,1,8,0:0:0:0:
96,96,28014,1,0,0:0:0:0:
96,96,28510,1,8,0:0:0:0:
0,32,29006,1,0,0:0:0:0:
0,32,29254,1,0,0:0:0:0:
0,32,29502,1,8,0:0:0:0:
96,96,29998,1,0,0:0:0:0:
96,96,30494,1,8,0:0:0:0:
192,192,30990,1,8,0:0:0:0:
0,32,31238,1,0,0:0:0:0:
0,32,31485,1,8,0:0:0:0:
96,96,31981,1,0,0:0:0:0:
96,96,32477,1,8,0:0:0:0:
96,96,32973,1,0,0:0:0:0:
160,128,33221,1,0,0:0:0:0:
96,96,33469,1,8,0:0:0:0:
96,96,33965,1,0,0:0:0:0:
96,96,34461,1,8,0:0:0:0:
96,96,34957,1,0,0:0:0:0:
96,96,35204,1,0,0:0:0:0:
96,96,35452,1,8,0:0:0:0:
0,32,35700,1,0,0:0:0:0:
256,64,35948,1,12,0:0:0:0:
96,96,36444,1,8,0:0:0:0:
96,96,36940,1,0,0:0:0:0:
96,96,37188,1,0,0:0:0:0:
96,96,37436,1,8,0:0:0:0:
96,96,37932,1,0,0:0:0:0:
96,96,38428,1,8,0:0:0:0:
96,96,38923,1,0,0:0:0:0:
96,96,39419,1,8,0:0:0:0:
96,96,39915,1,0,0:0:0:0:
96,96,40163,1,0,0:0:0:0:
96,96,40411,1,8,0:0:0:0:
96,96,40907,1,0,0:0:0:0:
288,160,41403,1,8,0:0:0:0:
256,64,41651,1,0,0:0:0:0:
256,64,41775,1,0,0:0:0:0:
288,160,41899,1,0,0:0:0:0:
288,160,42395,1,8,0:0:0:0:
288,160,42890,1,0,0:0:0:0:
288,160,43138,1,8,0:0:0:0:
288,160,43386,1,0,0:0:0:0:
288,160,43634,1,8,0:0:0:0:
288,160,43882,1,4,0:0:0:0:
96,96,44378,1,8,0:0:0:0:
96,96,44874,1,0,0:0:0:0:
96,96,45122,1,0,0:0:0:0:
96,96,45370,1,8,0:0:0:0:
96,96,45866,1,0,0:0:0:0:
96,96,46361,1,8,0:0:0:0:
256,64,46857,1,0,0:0:0:0:
256,64,47105,1,8,0:0:0:0:
256,64,47353,1,0,0:0:0:0:
256,64,47601,1,8,0:0:0:0:
256,160,47849,1,12,0:0:0:0:
96,96,48345,1,8,0:0:0:0:
96,96,48841,1,0,0:0:0:0:
96,96,49089,1,0,0:0:0:0:
96,96,49337,1,8,0:0:0:0:
96,96,49833,1,8,0:0:0:0:
96,96,50204,1,8,0:0:0:0:
224,64,50576,1,0,0:0:0:0:
224,64,50824,1,8,0:0:0:0:
288,64,51320,1,8,0:0:0:0:
448,64,51816,1,0,0:0:0:0:
384,96,52064,1,0,0:0:0:0:
448,96,52312,1,8,0:0:0:0:
384,64,52808,1,0,0:0:0:0:
384,64,53056,1,0,0:0:0:0:
384,64,53304,1,8,0:0:0:0:
384,64,53552,1,0,0:0:0:0:
320,96,53800,1,8,0:0:0:0:
192,160,54295,1,8,0:0:0:0:
384,128,54791,1,0,0:0:0:0:
384,128,54915,1,0,0:0:0:0:
384,128,55039,1,0,0:0:0:0:
384,128,55287,1,8,0:0:0:0:
96,96,55783,1,0,0:0:0:0:
96,96,56279,1,0,0:0:0:0:
192,96,56527,1,8,0:0:0:0:
256,64,56775,1,8,0:0:0:0:
160,64,57023,1,0,0:0:0:0:
160,64,57271,1,8,0:0:0:0:
96,96,57766,1,0,0:0:0:0:
96,96,58014,1,0,0:0:0:0:
96,96,58262,1,8,0:0:0:0:
96,96,58510,1,0,0:0:0:0:
160,64,58758,1,0,0:0:0:0:
160,64,58882,1,0,0:0:0:0:
160,64,59006,1,0,0:0:0:0:
96,96,59254,1,8,0:0:0:0:
96,96,59750,1,4,0:0:0:0:
96,96,60246,1,8,0:0:0:0:
96,96,60494,1,0,0:0:0:0:
96,96,60742,1,8,0:0:0:0:
256,64,60990,1,0,0:0:0:0:
224,128,61238,1,0,0:0:0:0:
256,64,61485,1,8,0:0:0:0:
256,64,61733,1,0,0:0:0:0:
96,96,62105,1,8,0:0:0:0:
128,192,62477,1,0,0:0:0:0:
128,192,62725,1,0,0:0:0:0:
128,192,62849,1,0,0:0:0:0:
128,192,62973,1,0,0:0:0:0:
128,192,63221,1,8,0:0:0:0:
96,96,63717,1,4,0:0:0:0:
96,96,63965,1,0,0:0:0:0:
160,128,64213,1,8,0:0:0:0:
96,96,64461,1,0,0:0:0:0:
192,288,64709,1,0,0:0:0:0:
192,288,64833,1,0,0:0:0:0:
192,288,64957,1,0,0:0:0:0:
96,96,65204,1,8,0:0:0:0:
256,0,65700,1,0,0:0:0:0:
256,0,65948,1,8,0:0:0:0:
256,0,66196,1,0,0:0:0:0:
256,0,66444,1,8,0:0:0:0:
416,256,66692,1,0,0:0:0:0:
352,256,66816,1,0,0:0:0:0:
352,256,66940,1,0,0:0:0:0:
352,256,67188,1,8,0:0:0:0:
352,256,67312,1,8,0:0:0:0:
352,256,67436,1,8,0:0:0:0:
416,224,67684,1,4,0:0:0:0:
96,0,68180,1,0,0:0:0:0:
96,96,68428,1,8,0:0:0:0:
96,96,68676,1,8,0:0:0:0:
96,160,68923,1,0,0:0:0:0:
224,160,69171,1,8,0:0:0:0:
160,0,69419,1,0,0:0:0:0:
256,128,69667,1,0,0:0:0:0:
96,96,70163,1,8,0:0:0:0:
192,96,70411,1,0,0:0:0:0:
256,128,70659,1,0,0:0:0:0:
192,96,70783,1,0,0:0:0:0:
256,128,70907,1,0,0:0:0:0:
96,96,71155,1,8,0:0:0:0:
96,96,71651,1,0,0:0:0:0:
128,160,71899,1,0,0:0:0:0:
96,96,72147,1,8,0:0:0:0:
256,64,72395,1,0,0:0:0:0:
256,64,72642,1,8,0:0:0:0:
256,64,72890,1,0,0:0:0:0:
192,128,73138,1,8,0:0:0:0:
256,64,73386,1,8,0:0:0:0:
256,64,73634,1,0,0:0:0:0:
96,96,74130,1,8,0:0:0:0:
96,96,74378,1,0,0:0:0:0:
320,96,74626,1,0,0:0:0:0:
320,128,74750,1,0,0:0:0:0:
256,128,74874,1,0,0:0:0:0:
96,96,75122,1,8,0:0:0:0:
96,96,75618,1,4,0:0:0:0:
64,160,75866,1,0,0:0:0:0:
96,96,76114,1,8,0:0:0:0:
192,96,76361,1,0,0:0:0:0:
192,96,76609,1,8,0:0:0:0:
192,160,76857,1,0,0:0:0:0:
192,96,77105,1,8,0:0:0:0:
96,96,77353,1,8,0:0:0:0:
96,96,77601,1,0,0:0:0:0:
256,64,77973,1,8,0:0:0:0:
256,64,78345,1,0,0:0:0:0:
160,160,78593,1,0,0:0:0:0:
288,160,78717,1,0,0:0:0:0:
160,160,78841,1,0,0:0:0:0:
160,160,79089,1,8,0:0:0:0:
96,96,79585,1,4,0:0:0:0:
160,160,79833,1,0,0:0:0:0:
224,192,80080,1,8,0:0:0:0:
160,160,80328,1,0,0:0:0:0:
192,96,80576,1,8,0:0:0:0:
320,160,81072,1,8,0:0:0:0:
256,192,81320,1,0,0:0:0:0:
256,192,81444,1,0,0:0:0:0:
416,256,81568,1,0,0:0:0:0:
192,96,81816,1,8,0:0:0:0:
192,96,82064,1,0,0:0:0:0:
192,96,82312,1,8,0:0:0:0:
416,256,82560,1,0,0:0:0:0:
192,96,82684,1,0,0:0:0:0:
192,96,82808,1,0,0:0:0:0:
192,96,83056,1,8,0:0:0:0:
192,96,83180,1,8,0:0:0:0:
192,96,83304,1,8,0:0:0:0:
192,96,83552,1,4,0:0:0:0:
96,96,84047,1,8,0:0:0:0:
96,96,84543,1,8,0:0:0:0:
96,96,85039,1,0,0:0:0:0:
96,96,85287,1,8,0:0:0:0:
96,96,85783,1,0,0:0:0:0:
192,32,86031,1,0,0:0:0:0:
224,128,86279,1,8,0:0:0:0:
192,32,86527,1,0,0:0:0:0:
192,32,86775,1,8,0:0:0:0:
192,32,87023,1,8,0:0:0:0:
192,32,87271,1,0,0:0:0:0:
96,96,87519,1,8,0:0:0:0:
96,96,88014,1,8,0:0:0:0:
96,96,88510,1,8,0:0:0:0:
96,96,89006,1,0,0:0:0:0:
96,96,89254,1,8,0:0:0:0:
96,96,89750,1,0,0:0:0:0:
224,192,89998,1,0,0:0:0:0:
224,192,90246,1,8,0:0:0:0:
224,192,90494,1,0,0:0:0:0:
224,192,90742,1,8,0:0:0:0:
224,192,90990,1,8,0:0:0:0:
224,192,91114,1,8,0:0:0:0:
224,192,91238,1,8,0:0:0:0:
224,192,91485,1,12,0:0:0:0:
96,96,91981,1,8,0:0:0:0:
96,96,92477,1,0,0:0:0:0:
96,96,92973,1,0,0:0:0:0:
96,96,93221,1,8,0:0:0:0:
224,192,93717,1,0,0:0:0:0:
224,192,93965,1,0,0:0:0:0:
192,32,94213,1,8,0:0:0:0:
192,32,94461,1,0,0:0:0:0:
192,32,94709,1,8,0:0:0:0:
192,32,94957,1,8,0:0:0:0:
192,32,95204,1,0,0:0:0:0:
96,96,95452,1,8,0:0:0:0:
96,96,95948,1,8,0:0:0:0:
96,96,96444,1,8,0:0:0:0:
96,96,96940,1,0,0:0:0:0:
96,96,97188,1,8,0:0:0:0:
256,224,97684,1,0,0:0:0:0:
192,32,97932,1,0,0:0:0:0:
192,32,98056,1,0,0:0:0:0:
192,32,98180,1,0,0:0:0:0:
192,32,98428,1,8,0:0:0:0:
192,32,98552,1,8,0:0:0:0:
192,32,98676,1,8,0:0:0:0:
192,32,98923,1,8,0:0:0:0:
192,32,99047,1,8,0:0:0:0:
96,96,99171,1,0,0:0:0:0:
96,96,99419,1,12,0:0:0:0:
256,192,101403,12,0,105505,0:0:0:0:
