osu file format v9

[General]
AudioFilename: Halozy feat. Hotaru - eliminate anthem.mp3
AudioLeadIn: 0
PreviewTime: 90061
Countdown: 0
SampleSet: Normal
StackLeniency: 0.7
Mode: 0
LetterboxInBreaks: 0

[Editor]
DistanceSpacing: 0.8
BeatDivisor: 4
GridSize: 4

[Metadata]
Title:eliminate anthem
Artist:Halozy
Creator:Elly-chan
Version:Normal
Source:Touhou
Tags:Hotaru Kuma risu Sumi Jun Rumia Shiirn MMzz

[Difficulty]
HPDrainRate:2
CircleSize:4
OverallDifficulty:3
ApproachRate:4
SliderMultiplier:1.1
SliderTickRate:1

[Events]
//Background and Video events
0,0,"BG.jpg"
//Break Periods
2,39675,50955
2,116475,127755
2,180475,191355
//Storyboard Layer 0 (Background)
//Storyboard Layer 1 (Fail)
//Storyboard Layer 2 (Pass)
//Storyboard Layer 3 (Foreground)
//Storyboard Sound Samples
//Background Colour Transformations
3,100,0,0,0

[TimingPoints]
1075,400,4,1,1,50,1,0
26775,-100,4,1,1,50,0,0
33775,-100,4,2,1,5,0,0
34275,-100,4,1,1,50,0,0
35375,-100,4,2,1,5,0,0
35875,-100,4,1,1,50,0,0
52275,-100,4,1,0,50,0,0
90675,-100,4,1,1,50,0,1
97875,-100,4,2,0,5,0,1
97925,-100,4,1,1,50,0,1
103375,-100,4,1,1,50,0,0
103475,-100,4,1,1,50,0,1
103575,-100,4,1,1,50,0,0
116275,-100,4,1,1,50,0,1
116375,-100,4,1,1,50,0,0
129075,-100,4,1,0,50,0,0
154675,-100,4,1,1,50,0,1
167375,-100,4,1,1,50,0,0
167475,-100,4,1,1,50,0,1
167575,-100,4,1,1,50,0,0
169875,-100,4,1,0,50,0,0
169975,-100,4,1,1,50,0,0
192675,-100,4,2,1,50,0,0
194275,-100,4,2,1,40,0,0
195075,-100,4,2,1,30,0,0
195875,-100,4,2,1,20,0,0
200675,-100,4,2,1,30,0,0
201475,-100,4,2,1,40,0,0
202275,-100,4,2,1,50,0,0
205875,-100,4,2,1,50,0,1
205975,-100,4,2,1,50,0,0
219075,-100,4,1,1,50,0,0
219175,-100,4,2,1,50,0,0
219875,-100,4,1,1,50,0,0
219975,-100,4,2,1,50,0,0
220675,-100,4,1,1,50,0,0
220775,-100,4,2,1,50,0,0
221475,-100,4,1,1,50,0,0
221575,-100,4,2,1,50,0,0
222275,-100,4,1,1,50,0,0
222375,-100,4,2,1,50,0,0
223075,-100,4,1,1,50,0,0
223175,-100,4,2,1,50,0,0
223875,-100,4,1,1,50,0,0
223975,-100,4,2,1,50,0,0
224675,-100,4,1,1,50,0,0
224775,-100,4,2,1,50,0,0
225475,-100,4,1,1,50,0,0
225575,-100,4,2,1,50,0,0
226275,-100,4,1,1,50,0,0
226375,-100,4,2,1,50,0,0
227075,-100,4,1,1,50,0,0
227175,-100,4,2,1,50,0,0
230275,-100,4,1,1,50,0,0
230375,-100,4,2,1,50,0,0
231475,-100,4,1,1,50,0,1
242675,-100,4,1,1,5,0,1
242775,-100,4,1,1,50,0,1
244175,-100,4,1,1,50,0,0
244275,-100,4,1,1,50,0,1
256975,-100,4,1,1,50,0,0
257075,-100,4,1,1,50,0,1
257175,-100,4,1,1,50,0,0

[Colours]
Combo1 : 130,0,3
Combo2 : 102,102,102
Combo3 : 229,229,229

[HitObjects]
76,136,26675,2,0,B|108:56|212:56|244:136,1,220,4|0
160,164,27875,1,8
97,226,28275,2,0,B|192:296,1,110,0|8
247,228,29075,2,0,B|342:298,1,110,0|8
397,355,29875,6,0,B|461:355|493:291,1,110,0|8
487,213,30675,2,0,B|487:93,1,110,0|8
412,52,31475,1,0
412,140,31875,1,8
332,100,32275,1,0
332,188,32675,1,8
244,188,33075,6,0,B|68:188,2,165,4|0|8
306,250,34675,2,0,B|486:250,2,165,4|0|8
217,250,36275,5,4
129,250,36675,1,8
41,250,37075,2,0,B|-7:302|49:358,1,110,4|8
128,348,37875,5,4
216,348,38275,2,0,B|216:228,2,110,12|4|0
304,348,39475,5,4
156,68,52275,5,4
31,192,53075,1,0
155,316,53875,1,0
280,192,54675,2,0,B|344:192|344:192|392:204|392:204|464:204,1,165,0|0
444,72,55875,1,8
360,39,56275,1,0
280,72,56675,1,8
200,40,57075,5,0
48,208,58075,1,0
56,252,58275,1,0
80,288,58475,2,0,B|124:363|190:322|190:322|224:393|312:354,1,275
488,354,60275,6,0,B|545:335|533:269|496:270|456:271|447:197|512:183,1,220
507,96,61475,1,0
507,52,61675,1,0
376,32,62275,1,8
328,104,62675,1,0
376,176,63075,1,8
376,220,63275,6,0,B|384:252|348:272,1,55
267,267,63875,2,0,B|268:388,2,110,0|0|0
179,267,65075,6,0,B|87:303|11:247|31:147,1,220,4|0
112,196,66275,1,0
200,196,66675,2,0,B|292:196|292:196|324:212|324:212|436:212,1,220
478,274,67875,1,0
478,318,68075,1,0
356,364,68675,5,8
272,332,69075,1,0
192,364,69475,1,8
112,332,69875,5,0
8,140,70875,2,0,B|8:76,2,55
84,248,71875,2,0,B|213:248,1,110,8|0
194,159,72675,2,8,B|314:159,1,110,8|0
304,247,73475,2,0,B|432:247,1,110,8|0
502,247,74275,2,0,B|522:287|486:315,1,55,8|0
380,352,75075,5,8
296,384,75475,1,0
216,344,75875,1,8
180,320,76075,5,0
168,276,76275,1,4
168,188,76675,2,0,B|168:116,1,55,0|4
168,45,77275,1,4
264,136,77875,6,0,B|372:196|488:128,2,220,4|0|4
176,136,79875,2,0,B|52:136,2,110,8|0|8
176,224,81075,6,0,B|192:280|259:310,1,110,0|0
320,352,81875,1,0
404,324,82275,1,0
466,261,82675,2,0,B|466:161|466:161|482:137|482:137|482:25,2,220,0|0|4
378,261,84675,1,0
308,208,85075,5,0
220,208,85475,1,0
132,208,85875,2,0,B|72:196|40:124|72:52|152:44,1,220,4|0
219,47,87075,1,0
307,47,87475,5,4
404,192,88275,2,0,B|452:176|461:121,2,82.5,4|4|4
360,192,89075,1,4
180,320,90075,5,0
136,320,90275,1,0
92,320,90475,1,0
48,320,90675,6,0,B|48:190,1,110,4|8
136,210,91475,2,0,B|136:82,1,110,0|8
212,60,92275,1,0
292,100,92675,2,0,B|416:100,2,110,8|0|8
292,188,93875,6,0,B|232:284,1,110,0|8
192,204,94675,2,0,B|132:300,1,110,0|8
71,359,95475,1,0
32,336,95675,1,0
28,292,95875,1,8
64,212,96275,1,0
28,132,96675,1,8
90,69,97075,6,0,B|170:-11|298:-11|396:84,1,330,0|8
328,140,98675,2,0,B|292:92|232:84|176:92|124:148,2,220,0|0|0
328,228,100675,5,8
328,316,101075,2,0,B|384:340|456:312,1,110,0|8
435,230,101875,2,0,B|435:182|435:182|443:170|443:170|443:114,1,110,0|8
443,34,102675,1,4
355,34,103075,1,8
315,18,103275,1,0
275,34,103475,5,4
187,34,103875,2,0,B|67:34,2,110,8|0|8
140,108,105075,1,0
188,184,105475,2,0,B|56:184,2,110,8|0|8
250,246,106675,5,0
316,184,107075,1,8
252,124,107475,1,0
188,184,107875,1,8
125,246,108275,5,0
96,280,108475,1,0
124,312,108675,1,8
212,312,109075,1,0
300,312,109475,6,0,B|300:180,2,110,8|4|8
388,312,110675,2,0,B|388:192,2,110,0|8|4
476,312,111875,1,8
476,268,112075,1,0
476,224,112275,1,8
476,180,112475,1,0
256,192,112875,12,4,116275
116,192,129075,5,4
256,84,129875,1,0
396,192,130675,1,0
256,296,131475,2,0,B|336:296|336:296|352:304|352:304|424:304,1,165
512,208,132675,1,8
492,124,133075,1,0
428,64,133475,1,8
340,44,133875,5,0
120,44,134875,2,0,B|56:44,2,55
120,44,135475,1,4
120,220,136275,2,0,B|116:312|176:360|288:340,1,220
260,168,137875,2,0,B|384:168,1,110
414,168,138475,1,0
468,288,139075,5,8
393,337,139475,1,0
321,289,139875,1,8
281,273,140075,5,0
241,289,140275,1,4
178,351,140675,2,0,B|122:375|46:343,2,110,0|0|0
178,262,141875,6,0,B|410:262,1,220,4|0
460,199,143075,1,0
397,136,143475,2,0,B|341:108|277:140,3,110,4|8|0|8
224,64,145075,6,0,B|120:32|56:144|120:256|224:224,1,330,0|0
192,144,146675,1,0
276,128,147075,1,8
364,144,147475,1,0
452,128,147875,1,8
452,128,148275,6,0,B|452:228|452:228|444:244|444:244|444:352,2,220,4|0|4
452,40,150275,2,0,B|212:40,1,220,8|8
144,40,151475,5,4
36,180,152275,2,0,B|36:76,2,82.5,4|4|4
36,224,153075,1,4
216,352,154075,5,0
260,352,154275,1,0
304,352,154475,1,0
348,352,154675,6,0,B|396:340|396:340|428:272,1,110,4|8
421,197,155475,2,0,B|389:161|349:161|313:213,1,110,0|8
264,258,156275,1,0
201,195,156675,2,0,B|77:195,2,110,8|0|8
201,106,157875,5,0
284,72,158275,1,8
364,108,158675,1,0
444,72,159075,1,8
444,160,159475,2,0,B|444:292,2,110,0|8|0
356,160,160675,2,0,B|356:236,1,55,8|0
356,259,161075,5,0
293,321,161475,1,8
205,321,161875,1,0
142,258,162275,1,8
148,172,162675,2,0,B|212:132|292:132|356:172,2,220
64,204,164675,6,0,B|85:96,1,110,8|0
173,96,165475,2,0,B|269:44,1,110,8|0
357,43,166275,1,8
445,43,166675,1,4
445,131,167075,1,8
401,140,167275,1,0
357,132,167475,5,4
269,132,167875,2,0,B|229:184|281:256,2,110,8|0|8
224,56,169075,2,0,B|148:32|148:108|43:68,2,165,0|0|8
312,56,170675,5,0
400,56,171075,1,8
462,118,171475,1,0
399,180,171875,1,8
311,180,172275,2,0,B|231:180,1,55
212,180,172675,1,8
124,180,173075,1,0
36,180,173475,6,0,B|68:308,1,110,8|4
148,260,174275,2,0,B|203:356,1,110,8|0
264,292,175075,2,0,B|366:355,1,110,8|4
445,349,175875,1,8
445,305,176075,1,0
445,261,176275,1,8
445,217,176475,1,0
256,192,176875,12,4,180275
47,216,192675,5,0
135,216,193075,1,2
197,278,193475,2,2,B|207:353,2,55,2|0|2
259,215,194275,6,2,B|301:258,2,55,2|0|2
240,128,195075,6,2,B|304:108,2,55,2|0|2
164,84,195875,6,2,B|176:16,2,55,2|0|2
465,216,199075,5,0
377,216,199475,1,2
315,278,199875,2,2,B|305:353,2,55,2|0|2
253,215,200675,6,2,B|211:258,2,55,2|0|2
272,128,201475,6,2,B|208:108,2,55,2|0|2
348,84,202275,6,2,B|336:16,2,55,2|0|2
156,192,205275,5,0
200,192,205475,1,0
244,192,205675,1,0
288,192,205875,5,4
376,192,206275,2,0,B|376:320,1,110,8|8
313,364,207075,2,0,B|188:364,1,110,8|8
140,301,207875,2,0,B|140:189,1,110,8|8
202,128,208675,6,0,B|336:128,1,110,8|8
400,128,209475,2,0,B|472:136|488:64,1,110,8|8
422,13,210275,2,0,B|370:13|370:13|346:25|346:25|290:25,1,110,8|8
270,25,210875,1,0
182,25,211275,1,0
88,118,211875,5,8
88,162,212075,2,0,B|168:222|280:222|364:152,1,275,0|0
433,166,213475,1,8
464,248,213875,5,8
336,276,214475,1,0
232,360,215075,1,8
256,192,215475,12,8,217075
56,192,217875,5,8
144,192,218275,5,8
188,192,218475,1,0
232,192,218675,2,0,B|292:216|356:184,2,110,4|8|8
284,120,219875,1,8
372,120,220275,2,0,B|492:120,1,110,8|8
482,208,221075,1,8
452,292,221475,1,8
364,292,221875,6,0,B|300:304|272:236,3,110,8|8|8|8
213,181,223475,2,0,B|141:181,4,55,8|0|8|0|8
213,269,224675,6,0,B|248:316|332:328,1,110,8|4
394,323,225475,1,8
456,260,225875,1,8
393,197,226275,1,8
305,197,226675,6,0,B|177:197,1,110,4|8
151,197,227275,1,0
112,180,227475,1,8
72,196,227675,1,4
256,192,228075,12,0,229875
164,192,230875,1,4
208,192,231075,1,4
252,192,231275,1,4
296,192,231475,5,4
384,192,231875,2,0,B|424:252|368:312,2,110,8|0|8
384,104,233075,2,0,B|312:105|312:105|236:76|236:76|144:76,1,220
81,76,234275,1,8
20,140,234675,5,0
96,188,235075,1,8
20,232,235475,1,0
96,276,235875,1,8
20,320,236275,2,0,B|64:368|124:364,1,110,0|8
204,364,237075,1,0
292,364,237475,2,0,B|368:364,1,55,8|0
391,364,237875,5,0
448,296,238275,2,0,B|477:169,1,110,8|0
384,196,239075,2,0,B|368:80,1,110,8|0
300,144,239875,2,0,B|232:44,1,110,8|0
150,53,240675,1,8
62,53,241075,6,0,B|22:101|62:157,2,110,0|8|0
150,53,242275,2,0,B|150:149|150:149|164:176|164:176|164:288,1,220,8|8
236,320,243475,1,4
324,320,243875,2,0,B|396:320,1,55,8|0
423,320,244275,5,4
484,256,244675,2,0,B|484:136,2,110,8|0|8
400,236,245875,1,0
352,164,246275,1,8
272,204,246675,1,0
228,128,247075,1,8
152,84,247475,6,0,B|52:144,1,110,0|8
112,208,248275,2,0,B|140:328,1,110,0|8
208,264,249075,2,0,B|316:336,1,110,0|8
387,325,249875,1,0
475,325,250275,2,0,B|475:265,1,55,8|0
475,226,250675,5,4
440,148,251075,1,8
360,188,251475,1,0
336,104,251875,1,8
248,104,252275,6,0,B|138:104,1,110,4|8
93,104,252875,1,0
52,88,253075,1,8
12,104,253275,1,0
256,192,253675,12,4,257075
