osu file format v9

[General]
AudioFilename: Halozy feat. Hotaru - eliminate anthem.mp3
AudioLeadIn: 0
PreviewTime: 90061
Countdown: 0
SampleSet: Normal
StackLeniency: 0.7
Mode: 0
LetterboxInBreaks: 0

[Editor]
Bookmarks: 26661,39461,52261,65061,77861,90661,103461,116261,129061,141861,154661,167461,180261,192661,205261,218661,231461,244261,257061
DistanceSpacing: 1.2
BeatDivisor: 4
GridSize: 4

[Metadata]
Title:eliminate anthem
Artist:Halozy
Creator:Elly-chan
Version:Collab
Source:Touhou
Tags:Hotaru Kuma risu Sumi Jun Rumia Shiirn MMzz

[Difficulty]
HPDrainRate:6
CircleSize:4
OverallDifficulty:7
ApproachRate:8
SliderMultiplier:1.5
SliderTickRate:1

[Events]
//Background and Video events
0,0,"BG.jpg"
//Break Periods
2,39675,51525
2,180475,191925
//Storyboard Layer 0 (Background)
//Storyboard Layer 1 (Fail)
//Storyboard Layer 2 (Pass)
//Storyboard Layer 3 (Foreground)
Sprite,Foreground,Centre,"Shiirn SB.png",320,240 M,0,25461,,140,89 F,0,25461,26661,0,1 F,0,26661,39461,1 F,0,39461,39861,1,0 F,0,39861,64661,0 F,0,64661,65061,0,1 F,0,65061,77461,1 F,0,77461,77861,1,0 F,0,77861,90261,0 F,0,90261,90661,0,1 S,0,90661,,1 F,0,90661,103061,1,0.9525 F,0,103061,103461,0.9525,0 F,0,103461,115861,0,0.04524376 F,0,115861,116261,0.04524376,1 F,0,116261,128661,1,0.9546491 F,0,128661,129061,0.9546491,0 F,0,129061,141461,0 F,0,141461,141861,0,0.983542 F,0,141861,154261,0.983542,0.9614124 F,0,154261,154661,0.9614124,0 F,0,154661,167061,0 F,0,167061,167461,0,1 F,0,167461,179861,1 F,0,179861,180261,1,0 F,0,180261,205461,0 F,0,205461,205861,0,1 F,0,205861,218261,1 F,0,218261,218661,1,0 F,0,218661,231061,0 F,0,231061,231461,0,1 F,0,231461,243861,1,0.9525 F,0,243861,244261,0.9525,0
Sprite,Foreground,Centre,"Elly-chan SB.png",320,240 F,0,51861,52261,0,1 F,0,52261,64661,1,0.9525 F,0,64661,65061,0.9525,0 M,0,64861,,155,191 F,0,65061,77461,0 F,0,77461,77861,0,1 F,0,77861,90261,1 F,0,90261,90661,1,0 S,0,90661,,1.064 F,0,90661,103061,0 F,0,103061,103461,0,1 F,0,103461,115861,1,0.9775 F,0,115861,116261,0.9775,0 F,0,116261,128661,0 F,0,128661,129061,0,1 F,0,129061,141461,1 F,0,141461,141861,1,0 F,0,141861,154261,0 F,0,154261,154661,0,1 F,0,154661,167061,1,0.75 F,0,167061,167461,0.75,0 F,0,167461,192261,0 F,0,192261,192661,0,1 F,0,192661,205461,1 F,0,205461,205861,1,0 F,0,205861,218261,0 F,0,218261,218661,0,1 F,0,218661,231061,1 F,0,231061,231461,1,0 F,0,231461,243861,0 F,0,243861,244261,0,1 F,0,244261,256661,1,0.9782031 F,0,256661,257061,0.9782031,0
//Storyboard Sound Samples
//Background Colour Transformations
3,100,0,0,0

[TimingPoints]
1075,400,4,1,1,50,1,0
90675,-100,4,1,1,50,0,1
103375,-100,4,1,1,50,0,0
103475,-100,4,1,1,50,0,1
103575,-100,4,1,1,50,0,0
116275,-100,4,1,1,50,0,1
116275,-100,4,1,1,50,0,1
116375,-100,4,1,1,50,0,0
132875,-100,4,1,1,50,0,0
132975,-100,4,1,1,50,0,0
133075,-100,4,2,1,5,0,0
133125,-100,4,1,1,50,0,0
141675,-100,4,2,1,5,0,0
141725,-100,4,1,1,50,0,0
154675,-100,4,1,1,50,0,1
157175,-100,4,2,1,5,0,1
157375,-100,4,1,1,50,0,1
167375,-100,4,1,1,50,0,0
167475,-100,4,1,1,50,0,1
167575,-100,4,1,1,50,0,0
192675,-100,4,2,1,50,0,0
194275,-100,4,2,1,40,0,0
195075,-100,4,2,1,30,0,0
195875,-100,4,2,1,20,0,0
200675,-100,4,2,1,30,0,0
201475,-100,4,2,1,40,0,0
202275,-100,4,2,1,50,0,0
205275,-100,4,1,1,50,0,0
205875,-100,4,1,1,50,0,1
205875,-100,4,1,1,50,0,1
205975,-100,4,1,1,50,0,0
205975,-100,4,1,1,50,0,0
206275,-100,4,2,1,50,0,0
218675,-100,4,1,1,50,0,0
219475,-100,4,2,1,50,0,0
219575,-100,4,1,1,50,0,0
220275,-100,4,2,1,50,0,0
220375,-100,4,1,1,50,0,0
221075,-100,4,2,1,50,0,0
221175,-100,4,1,1,50,0,0
221875,-100,4,2,1,50,0,0
221975,-100,4,1,1,50,0,0
222675,-100,4,2,1,50,0,0
222775,-100,4,1,1,50,0,0
223475,-100,4,2,1,50,0,0
223575,-100,4,1,1,50,0,0
224275,-100,4,2,1,50,0,0
224375,-100,4,1,1,50,0,0
225875,-100,4,2,1,50,0,0
225975,-100,4,1,1,50,0,0
227475,-100,4,2,1,50,0,0
227575,-100,4,1,1,50,0,0
230875,-100,4,2,1,50,0,0
231475,-100,4,1,1,50,0,1
244175,-100,4,1,1,50,0,0
244275,-100,4,1,1,50,0,1
256975,-100,4,1,1,50,0,0
257075,-100,4,1,1,50,0,1
257175,-100,4,1,1,50,0,0

[Colours]
Combo1 : 130,0,3
Combo2 : 102,102,102
Combo3 : 229,229,229

[HitObjects]
200,80,26675,2,0,B|147:106|142:169,1,112.5,4|0
176,196,27075,2,0,B|212:214|216:257,2,75,8|0|0
296,256,27675,2,0,B|299:215|336:197,1,75,0|8
307,137,28075,6,0,B|269:105|256:123|242:105|204:137,1,112.5
164,124,28475,1,0
120,112,28575,1,0
76,120,28675,1,8
48,156,28775,1,0
52,200,28875,2,0,B|67:254|67:254|115:284,1,112.5
152,308,29275,2,0,B|184:332,1,37.5
224,316,29475,2,0,B|264:300,1,37.5,8|0
300,324,29675,2,0,B|344:340,1,37.5
376,312,29875,6,0,B|420:252|420:252|420:192,2,112.5
328,236,30675,2,0,B|328:160,1,75
256,280,31075,2,0,B|256:196,1,75,8|0
136,312,31475,6,0,B|92:252|92:252|92:204,2,112.5,0|0|0
184,236,32275,2,0,B|184:160,1,75,0|4
256,280,32675,2,0,B|256:196,1,75,8|0
352,192,33075,6,0,B|304:136|232:100,1,150,4|8
144,84,33675,1,0
144,84,33875,2,0,B|120:120|144:156,1,75
200,272,34275,2,0,B|224:236|200:200,1,75,8|0
292,120,34675,6,0,B|256:192|292:264,1,150,4|8
396,272,35275,1,0
396,272,35475,2,0,B|420:236|396:200,1,75
360,80,35875,2,0,B|336:116|360:152,1,75,8|0
248,196,36275,6,0,B|308:240|392:236,1,150,4|8
328,332,36875,1,0
328,332,37075,2,0,B|268:288|184:292,1,150,4|8
112,216,37675,1,0
111,216,37875,6,0,B|111:156,3,37.5,4|0|0|0
186,178,38275,2,0,B|186:126,3,37.5,12|0|0|0
261,140,38675,2,0,B|261:88,3,37.5,4|0|0|0
336,102,39075,2,0,B|336:50,1,37.5,0|0
336,102,39275,2,0,B|400:102,2,37.5,0|0|4
56,68,52275,5,4
56,156,52475,2,0,B|56:248,1,75,0|8
146,231,52875,2,0,B|194:299,1,75
253,356,53275,2,0,B|348:356,2,75,0|8|0
163,356,53875,1,0
76,328,54075,2,0,B|32:300|40:240,2,75,0|8|0
136,264,54675,1,0
184,184,54875,2,0,B|228:212|220:272,2,75,0|8|0
136,264,55475,5,0
8,136,55875,2,0,B|16:80|64:48|128:64,3,150,8|0|8|0
297,61,57475,1,8
477,61,57875,1,0
480,152,58075,2,0,B|480:248,2,75,0|8|0
390,152,58675,5,0
390,242,58875,1,0
304,208,59075,1,8
304,298,59275,1,0
240,361,59475,2,0,B|202:383|146:351,1,75
77,361,59875,1,8
12,297,60075,1,0
12,207,60275,6,0,B|12:151,2,37.5
102,207,60675,1,8
165,143,60875,1,0
228,206,61075,1,0
408,192,61475,1,8
342,147,61675,2,0,B|368:116|413:99|454:117|481:160,1,150
471,236,62275,2,0,B|454:267|413:285|368:268|342:237,2,150,8|0|8
472,236,63275,5,0
472,318,63475,1,0
292,328,63875,2,0,B|244:312|224:340|184:340|128:324,2,150,8|0|8
284,240,64875,1,0
204,240,65075,6,0,B|183:271|179:311,1,75,4|0
164,164,65475,2,0,B|138:191|128:230,1,75,8|0
139,82,65875,2,0,B|109:104|93:141,2,75,0|0|8
240,104,66475,1,0
240,104,66675,6,0,B|296:56|296:56|332:72|372:64,1,150,0|8
320,144,67275,1,0
276,224,67475,2,0,B|314:231|350:215|350:215|406:263,1,150,0|8
448,192,68075,1,0
448,192,68275,6,0,B|412:128,1,75
328,192,68675,2,0,B|252:192,1,75,8|0
144,192,69075,1,0
448,192,69475,1,8
48,192,69875,6,0,B|96:332,1,150,0|8
96,333,70475,1,0
320,152,70875,1,0
312,120,70975,1,0
304,88,71075,2,0,B|208:84,1,75,8|0
160,32,71475,6,0,B|112:88|124:172,1,150,0|8
200,120,72075,2,0,B|248:176|236:260,1,150
316,208,72675,2,0,B|316:283,1,75,8|0
396,260,73075,6,0,B|383:175|431:119,1,150,0|8
308,204,73875,2,0,B|276:272|276:272|272:348,1,150,0|8
132,300,74475,1,0
132,300,74675,6,0,B|200:332,1,75
380,300,75075,2,0,B|312:332,1,75,8|0
256,256,75475,2,0,B|220:188|304:188|252:108,1,150,0|8
256,48,76075,5,0
256,48,76275,1,4
104,128,76675,1,0
80,152,76875,1,4
120,296,77275,1,4
240,184,77675,5,0
216,208,77775,1,0
189,234,77875,2,0,B|253:298,1,75,4|0
300,228,78275,2,0,B|364:292,1,75,8|0
416,344,78675,1,0
479,280,78875,1,0
415,216,79075,1,8
478,152,79275,1,0
488,56,79475,2,0,B|420:16|332:60,3,150,4|8|0|8
260,88,80875,1,0
176,56,81075,6,0,B|168:152,1,75
80,112,81475,2,0,B|128:208,1,75,8|0
32,216,81875,2,0,B|104:264,1,75
40,328,82275,2,0,B|128:344,1,75,8|0
203,341,82675,1,0
330,213,83075,1,8
457,340,83475,1,0
330,213,83875,1,8
330,123,84075,5,0
344,80,84175,1,0
328,40,84275,1,4
152,80,84675,6,0,B|-24:80,2,150,8|0|8
156,168,85675,1,0
242,170,85875,2,0,B|296:197|296:197|330:238|296:313,1,150,4|8
72,170,86675,2,0,B|17:197|17:197|-16:238|17:313,1,150,0|8
176,336,87475,5,4
191,336,87575,1,0
206,336,87675,1,0
221,336,87775,1,0
236,336,87875,1,8
251,336,87975,1,0
266,336,88075,1,0
281,336,88175,1,0
296,336,88275,2,0,B|325:282|284:210,2,112.5,4|4|4
386,336,89075,5,4
428,348,89175,1,0
472,336,89275,1,0
472,291,89375,1,0
472,246,89475,2,0,B|472:187,4,37.5
384,248,90075,5,0
318,186,90275,1,0
254,250,90475,1,0
190,186,90675,6,0,B|180:93,1,75,4|0
326,111,91075,2,0,B|317:185,1,75,8|0
182,266,91475,2,0,B|254:306|326:266,1,150,0|8
254,378,92075,1,0
190,322,92275,6,0,B|134:266,1,75
254,290,92675,2,0,B|254:186,2,75,8|0|0
338,322,93275,1,0
338,232,93475,2,0,B|338:154,1,75,8|0
390,74,93875,6,0,B|454:122|478:194,1,150,0|8
117,313,94675,2,0,B|54:266|30:194,1,150,0|8
134,194,95275,1,0
254,119,95475,2,0,B|254:194,1,75,0|8
406,194,96075,1,8
496,194,96275,2,0,B|473:266|409:313,1,150
320,336,96875,1,0
256,272,97075,6,0,B|256:96,2,150,0|8|0
92,192,98275,1,8
412,192,98675,5,0
404,160,98875,1,0
396,128,99075,1,8
388,96,99275,1,0
380,64,99475,6,0,B|316:104|236:88,1,150,0|8
252,168,100075,1,0
268,248,100275,2,0,B|187:231|123:271,1,150,0|8
196,320,100875,2,0,B|212:239|172:175,1,150,8|0
96,172,101475,2,0,B|176:188|240:148,1,150,8|0
312,109,102075,5,0
351,182,102275,1,8
278,220,102475,1,8
240,148,102675,2,0,B|204:80,1,75,4|4
352,184,103075,2,0,B|387:251,1,75,8|8
312,108,103475,6,0,B|348:23|440:67,1,150,4|8
476,144,104075,1,0
476,234,104275,2,0,B|476:338,1,75
388,288,104675,2,0,B|348:356,1,75,8|0
259,352,105075,2,0,B|156:352,2,75,0|0|8
349,352,105675,1,0
392,364,105775,1,0
436,352,105875,1,0
436,262,106075,6,0,B|396:240|340:272,1,75,0|8
273,260,106475,1,0
40,244,106675,6,0,B|92:320|168:372,2,150,0|8|0
252,192,107875,1,8
476,112,108275,2,0,B|424:36|348:-16,2,150,0|8|0
476,202,109275,1,0
476,292,109475,5,8
396,332,109675,1,0
312,364,109875,2,0,B|148:364,1,150,4|8
98,300,110475,1,0
161,236,110675,2,0,B|336:236,1,150,0|8
401,236,111275,1,0
412,148,111475,5,4
340,12,111675,1,0
268,148,111875,1,8
412,60,112075,1,0
268,60,112275,1,8
340,196,112475,1,0
256,192,112875,12,0,114275
88,304,114675,6,0,B|172:304,1,75
298,304,115175,1,0
433,304,115475,2,0,B|433:256,1,37.5
433,176,115775,1,0
433,41,116075,1,0
343,41,116275,6,0,B|336:115,1,75,4|0
328,192,116675,2,0,B|256:212|256:212|184:192,1,150,8|0
175,115,117275,2,0,B|169:41,2,75,0|8|0
256,192,117875,6,0,B|256:267,1,75
256,340,118275,1,8
256,340,118375,1,0
256,340,118475,1,0
336,312,118675,1,0
400,268,118875,1,0
400,268,118975,1,0
400,268,119075,2,0,B|392:192,1,75,8|0
348,132,119475,6,0,B|316:80|260:68,1,112.5
227,100,119875,2,0,B|227:188,1,75,8|0
208,264,120275,1,0
124,300,120475,1,0
40,304,120675,2,0,B|28:192,1,112.5,8|0
60,160,121075,5,8
168,192,121275,1,0
168,192,121375,1,0
168,192,121475,1,8
168,192,121575,1,0
168,192,121675,2,0,B|236:224|332:232,1,150
264,144,122275,2,0,B|232:212|232:308,1,150,8|0
256,356,122875,5,0
320,320,123075,2,0,B|328:236,1,75,8|0
192,320,123475,2,0,B|184:236,1,75,0|0
256,264,123875,1,8
256,176,124075,6,0,B|184:192|184:192|104:184,1,150
92,168,124575,1,0
80,148,124675,1,8
80,124,124775,1,0
84,104,124875,2,0,B|156:84|156:84|176:96|232:68,1,150
256,96,125375,1,0
284,70,125475,2,0,B|336:96|356:84|356:84|428:104,1,150,8|0
440,184,126075,6,0,B|408:204|352:212,1,75,0|8
296,172,126475,1,0
216,212,126675,1,0
226,133,126875,1,0
285,250,127075,1,8
285,250,127275,6,0,B|224:292|148:316,1,150,8|0
84,264,127775,1,0
84,264,127875,1,0
84,264,127975,1,0
84,264,128075,6,0,B|158:135,1,150,8|0
224,104,128575,1,0
224,104,128675,1,0
224,104,128775,1,0
224,104,128875,1,0
224,104,128975,1,0
224,104,129075,6,0,B|308:96,1,75,4|0
388,96,129475,2,0,B|485:108,1,75,8|0
462,195,129875,1,0
376,220,130075,1,0
285,220,130275,1,8
200,192,130475,1,0
328,116,130675,6,0,B|328:36,2,75,0|0|8
328,116,131275,1,0
328,206,131475,1,0
391,269,131675,1,0
264,272,131875,1,8
328,336,132075,1,0
328,336,132275,6,0,B|184:380|116:236,2,225,0|0|8
455,208,133875,2,0,B|456:144|456:144|467:124|467:124|467:52,2,150,0|8|0
388,268,134875,1,0
388,268,134975,1,0
388,268,135075,1,8
306,305,135275,1,0
224,268,135475,6,0,B|208:180|264:144|264:144|340:168|428:104,1,300
256,32,136675,1,8
288,268,137075,6,0,B|304:180|248:144|248:144|172:168|84:104,1,300
256,32,138275,1,8
256,122,138475,1,0
128,249,138875,5,0
128,249,139075,2,0,B|124:204,3,37.5
180,196,139475,2,0,B|188:152,3,37.5
140,140,139875,2,0,B|120:108,3,37.5
64,84,140275,5,4
248,124,140675,2,8,B|248:44,1,75,8|8
364,165,141275,6,8,B|424:169|472:233|428:325|352:309,1,225,8|4
288,276,142075,1,0
216,232,142275,2,0,B|204:268|176:296,1,75,8|0
72,328,142675,2,0,B|84:292|112:264,1,75
104,140,143075,2,0,B|92:176|64:204,1,75,8|0
148,208,143475,6,0,B|196:152|272:124,1,150,4|8
316,188,144075,1,0
412,208,144275,2,0,B|364:264|288:292,1,150,0|8
244,228,144875,1,0
236,140,145075,6,0,B|320:76|448:80,1,225
396,160,145875,2,0,B|472:172,2,75,0|0|8
316,204,146475,1,0
228,208,146675,6,0,B|232:328|348:384,1,225,4|0
376,316,147475,2,0,B|396:284|392:244,1,75
488,172,147875,2,0,B|468:204|472:244,1,75,8|0
396,156,148275,6,0,B|252:112,1,150,4|8
160,108,148875,1,0
76,160,149075,1,0
160,208,149275,1,0
76,256,149475,1,8
160,308,149675,1,0
248,264,149875,6,0,B|264:188|312:220|328:140,1,150,4|8
280,80,150475,1,0
240,140,150675,2,0,B|255:217|303:185|319:261,1,150,0|8
368,328,151275,1,0
448,288,151475,6,0,B|456:212,1,75,4|0
468,144,151875,2,0,B|424:132,3,37.5,8|0|0|0
392,156,152275,6,0,B|336:184,1,37.5,4|0
328,164,152475,2,0,B|264:152,1,37.5,0|4
245,157,152675,1,8
200,157,152775,1,0
155,157,152875,1,4
110,157,152975,1,0
65,157,153075,6,0,B|41:157,16,18.75,4|0|0|0|0|0|0|0|0|0|0|0|0|0|0|0|0
152,256,154075,5,0
280,284,154275,1,0
408,256,154475,1,0
368,156,154675,5,4
368,156,154775,1,0
368,156,154875,1,0
192,156,155075,1,8
192,156,155175,1,0
192,156,155275,1,0
192,231,155475,2,0,B|239:310|336:300,1,150,0|8
408,268,156075,1,0
456,178,156275,6,0,B|512:178,2,37.5
392,114,156675,1,8
308,76,156875,2,0,B|168:68|124:228,1,225,0|8
225,192,157675,1,0
315,192,157875,6,0,B|300:292|184:288,1,150,0|8
125,286,158475,1,0
61,222,158675,2,0,B|16:320|112:372,1,150,0|8
177,356,159275,1,0
268,356,159475,1,0
312,344,159575,1,0
340,308,159675,1,0
340,218,159875,6,0,B|416:156|492:230,2,150,8|0|8
262,264,160875,1,0
184,220,161075,2,0,B|146:201|152:141,1,75
241,157,161475,1,8
280,132,161575,1,0
320,156,161675,1,0
368,80,161875,2,0,B|352:36|284:20,1,75
160,32,162275,6,0,B|176:76|244:92,1,75,0|0
144,140,162675,1,0
64,104,162875,1,0
68,192,163075,1,8
152,228,163275,1,0
256,80,163675,1,0
342,54,163875,2,0,B|438:82|386:194,1,150,8|0
352,250,164475,5,0
288,313,164675,1,8
256,344,164775,1,0
224,312,164875,1,8
160,248,165075,1,8
256,96,165475,1,8
256,184,165675,1,0
172,152,165875,6,0,B|124:140|84:160|60:200|76:264,1,150,8|8
340,152,166675,2,0,B|388:140|428:160|452:200|436:264,1,150,8|8
216,292,167275,1,0
216,292,167375,1,0
216,292,167475,6,0,B|140:288,1,75
296,292,167875,2,0,B|372:288,1,75,8|0
256,236,168275,2,0,B|280:176|220:164|256:92,1,150,0|8
256,1,168875,1,0
168,124,169075,6,0,B|140:148|140:192,1,75
344,356,169475,2,0,B|372:332|372:288,1,75,8|0
111,258,169875,2,0,B|118:294|155:315,1,75
400,221,170275,2,0,B|393:185|355:163,1,75,8|0
232,156,170675,6,0,B|172:112|92:108,1,150,0|8
280,188,171275,1,0
328,220,171475,2,0,B|388:264|468:268,1,150,0|8
512,188,172075,1,0
512,188,172275,5,0
512,188,172475,2,0,B|432:188|376:132,1,150,0|8
272,132,173075,2,0,B|216:187|136:187,1,150,0|8
176,100,173675,1,0
176,100,173875,6,0,B|204:124|208:168,1,75,4|0
384,276,174275,2,0,B|356:252|352:208,1,75,8|0
292,152,174675,1,0
268,224,174875,1,0
372,148,175075,1,8
188,228,175275,1,0
108,308,175475,5,4
244,320,175675,2,0,B|152:264,1,75,0|8
268,224,176075,2,0,B|244:132,1,75
372,148,176475,2,0,B|456:152|492:228,1,150,8|8
440,284,177075,6,0,B|400:296,3,37.5,12|0|0|0
356,264,177475,2,0,B|320:248,3,37.5,8|0|0|0
280,300,177875,2,0,B|220:292,3,37.5,8|0|0|0
208,256,178275,2,0,B|168:236,3,37.5,8|0|0|0
164,196,178675,5,0
228,132,178875,2,0,B|252:68|296:44,1,112.5,0|0
332,176,179475,1,0
332,176,179575,2,0,B|328:212|296:240,1,75,0|0
176,300,180075,1,0
248,356,180275,1,4
96,164,192675,6,0,B|168:140,1,75,0|2
167,230,193075,2,0,B|272:260,1,75,2|2
329,250,193475,1,2
372,239,193575,1,0
400,203,193675,1,2
388,116,193875,1,2
228,36,194275,5,2
184,52,194375,1,0
156,88,194475,1,2
124,172,194675,1,2
172,344,195075,5,2
216,352,195175,1,0
260,336,195275,1,2
340,304,195475,1,2
396,156,195875,5,2
372,116,195975,1,0
336,92,196075,1,2
248,76,196275,1,2
120,203,196675,6,0,B|92:248|128:300,1,75,2|2
178,338,197075,2,0,B|214:369|262:329,1,75,2|2
324,288,197475,1,0
368,208,197675,1,2
364,120,197875,2,0,B|272:-4|92:16,1,300,2|2
98,195,199075,6,0,B|146:267,1,75,0|2
203,193,199475,2,0,B|252:260,1,75,2|2
304,324,199875,1,2
348,320,199975,1,0
384,296,200075,1,2
404,208,200275,1,2
324,48,200675,5,2
284,28,200775,1,0
240,40,200875,1,2
160,80,201075,1,2
52,224,201475,5,2
40,268,201575,1,0
52,312,201675,1,2
132,356,201875,1,2
312,356,202275,5,2
344,324,202375,1,0
344,280,202475,1,2
360,191,202675,2,0,B|380:132,3,37.5
326,155,203075,2,0,B|308:108,3,37.5
296,76,203475,5,0
264,44,203575,1,0
224,24,203675,1,0
180,28,203775,1,0
140,48,203875,1,0
116,84,203975,1,0
104,128,204075,1,0
112,172,204175,1,0
128,212,204275,6,0,B|140:232,18,18.75
168,264,205275,5,0
256,72,205475,1,0
348,264,205675,1,0
256,192,205875,6,0,B|216:148|156:176|120:140,1,150,4|8
256,192,206675,2,0,B|216:236|156:208|120:244,1,150,8|8
40,240,207275,1,0
100,300,207475,6,0,B|184:308,1,75,8|0
100,84,207875,2,0,B|184:76,1,75,8|0
256,60,208275,1,8
332,88,208475,1,0
384,152,208675,1,8
424,224,208875,1,0
412,304,209075,6,0,B|340:284|304:208,1,150,8|8
100,80,209875,2,0,B|172:100|208:176,1,150,8|8
128,192,210475,1,0
44,192,210675,5,8
44,192,210875,2,0,B|204:192,1,150
208,272,211475,2,0,B|272:304|356:296,1,150,8|8
408,232,212075,1,0
432,152,212275,6,0,B|388:92,1,75,8|0
308,68,212675,1,8
308,68,212775,1,0
308,68,212875,2,0,B|236:88,1,75,0|8
276,295,213475,2,0,B|204:316,1,75,8|0
204,316,213775,1,0
204,316,213875,6,0,B|128:304,1,75,8|0
64,248,214275,2,0,B|88:220|132:228,1,75,8|0
64,136,214675,2,0,B|88:164|132:156,1,75,8|0
129,79,215075,2,0,B|204:68,1,75,8|0
280,36,215475,6,0,B|352:56|352:56|376:84|420:84,1,150,8|8
419,300,216275,2,0,B|376:300|352:328|352:328|280:348,1,150,8|8
292,256,216875,1,0
295,138,217075,6,0,B|308:176|348:188,1,75,8|0
202,152,217475,2,0,B|240:140|252:100,1,75,8|0
216,245,217875,2,0,B|204:208|164:196,1,75,8|0
309,231,218275,2,0,B|272:244|260:284,1,75,8|0
318,342,218675,6,0,B|342:390|378:350|378:350|414:390|446:334,1,150,4|8
437,264,219275,1,0
437,181,219475,2,0,B|437:113|437:113|417:89|417:89|417:29,1,150,8|8
334,38,220075,1,0
334,120,220275,6,0,B|316:152|268:151,1,75,8|0
196,112,220675,2,0,B|165:190|202:257,2,150,8|8|8
137,53,221675,1,0
64,88,221875,6,0,B|-1:142|14:222,1,150,8|8
164,156,222675,2,0,B|249:186|260:296,1,150,8|8
332,296,223275,1,0
380,360,223475,6,0,B|422:368|450:340,1,75,8|0
488,268,223875,1,8
429,209,224075,1,0
487,150,224275,2,0,B|443:78|411:110|411:146|355:66,1,150,8|8
288,56,224875,1,0
208,84,225075,6,0,B|128:108|116:216,1,150,4|8
189,238,225675,1,0
268,212,225875,2,0,B|289:306|205:366,1,150,8|8
144,364,226475,1,0
68,336,226675,5,4
36,260,226875,1,0
68,184,227075,1,8
140,144,227275,1,0
220,168,227475,1,8
244,248,227675,1,4
256,192,228075,12,8,229475
144,308,229875,5,0
256,112,230275,1,8
368,308,230675,1,0
256,320,230875,6,0,B|256:212,1,75,4|4
256,162,231275,1,4
256,79,231475,5,4
336,116,231675,2,0,B|352:152|392:164,1,75,0|8
176,116,232075,2,0,B|160:152|120:164,1,75
256,162,232475,2,0,B|256:240,2,75,0|8|0
360,208,233075,5,0
360,118,233275,1,0
360,298,233475,1,8
360,208,233675,1,8
360,208,233875,2,0,B|304:160,1,75
152,208,234275,2,0,B|208:160,1,75,8|0
360,208,234675,6,0,B|344:280|296:344,1,150,0|8
152,208,235275,2,0,B|168:280|216:344,1,150
256,200,235875,2,0,B|256:120,1,75,8|0
256,44,236275,5,0
188,88,236475,1,0
148,160,236675,1,8
324,88,236875,1,0
364,160,237075,2,0,B|384:188|384:232,1,75
316,324,237475,2,0,B|296:296|296:252,1,75,8|0
196,324,237875,6,0,B|216:296|216:252,1,75,0|0
128,192,238275,1,8
128,192,238375,1,0
128,192,238475,1,0
215,131,238675,2,0,B|216:88|196:60,2,75,0|0|8
256,192,239275,1,0
296,252,239475,6,0,B|332:324|416:328,1,150,0|8
296,360,240075,2,0,B|368:324|372:240,1,150,0|0
368,164,240675,1,8
324,104,240875,1,0
256,72,241075,6,0,B|184:88|108:92,1,150,0|8
256,312,241875,2,0,B|328:296|404:292,1,150,0|8
460,244,242475,1,0
460,168,242675,6,0,B|384:152,1,75
396,228,243075,2,0,B|320:212,1,75,8|0
258,273,243475,2,0,B|332:289,1,75,4|4
194,332,243875,2,0,B|268:348,1,75,8|0
340,364,244275,6,0,B|432:352|444:240,1,150,4|8
364,266,244875,2,0,B|344:196|412:122,1,150
458,75,245475,1,8
404,21,245675,1,0
350,74,245875,6,0,B|308:84|290:138,1,75
349,175,246275,1,8
365,210,246375,1,0
349,246,246475,1,0
284,280,246675,1,0
209,280,246875,2,0,B|164:264|165:192,2,75,0|8|0
244,216,247475,6,0,B|250:130|162:66,1,150,0|8
109,84,248075,2,0,B|27:109|19:221,1,150
21,270,248675,2,0,B|30:322|85:350,1,75,8|0
133,333,249075,1,0
136,260,249275,1,0
189,206,249475,1,8
242,259,249675,1,0
242,334,249875,2,0,B|276:352|317:335,1,75
376,296,250275,2,0,B|412:274|420:214,1,75,8|0
416,159,250675,6,0,B|360:104|260:84,1,150,4|8
148,112,251275,1,0
148,112,251475,2,0,B|204:167|304:187,1,150,4|8
6,151,252275,2,0,B|20:112|76:112,1,75,4|0
72,188,252675,2,0,B|116:180|148:240,1,75,8|8
56,264,253075,2,0,B|86:300|84:356,1,75,8|0
256,192,253675,12,0,255075
128,104,255475,5,8
384,104,255675,1,8
256,336,255975,2,0,B|256:224,1,112.5,8|8
256,178,256375,1,8
192,116,256575,1,8
327,116,256875,1,8
256,60,257075,5,4
