osu file format v12

[General]
AudioFilename: Starry Presto.mp3
AudioLeadIn: 0
PreviewTime: 23028
Countdown: 0
SampleSet: None
StackLeniency: 0.7
Mode: 3
LetterboxInBreaks: 0
SpecialStyle: 0
WidescreenStoryboard: 1

[Editor]
Bookmarks: 1362
DistanceSpacing: 1.2
BeatDivisor: 4
GridSize: 8
TimelineZoom: 1.9

[Metadata]
Title:Starry Presto
TitleUnicode:Starry Presto
Artist:Halozy
ArtistUnicode:Halozy
Creator:Entozer
Version:Normal
Source:東方
Tags:
BeatmapID:433288
BeatmapSetID:178027

[Difficulty]
HPDrainRate:8
CircleSize:7
OverallDifficulty:8
ApproachRate:5
SliderMultiplier:1.4
SliderTickRate:1

[Events]
//Background and Video events
0,0,"Starry Presto.jpg",0,0
//Break Periods
//Storyboard Layer 0 (Background)
//Storyboard Layer 1 (Fail)
//Storyboard Layer 2 (Pass)
//Storyboard Layer 3 (Foreground)
//Storyboard Sound Samples
//Background Colour Transformations
3,100,163,162,255

[TimingPoints]
1862,333.333333333333,4,2,0,5,1,0

[HitObjects]
109,192,1861,128,0,4528:0:0:0:0:
256,192,4528,128,0,7195:0:0:0:0:
402,192,7195,128,0,12528:0:0:0:0:
256,192,12528,1,0,0:0:0:0:
109,192,12695,1,0,0:0:0:0:
329,192,12861,1,0,0:0:0:0:
475,192,12861,1,0,0:0:0:0:
109,192,13028,1,0,0:0:0:0:
109,192,13361,1,0,0:0:0:0:
329,192,13528,1,0,0:0:0:0:
475,192,13528,1,0,0:0:0:0:
109,192,13695,1,0,0:0:0:0:
109,192,14028,1,0,0:0:0:0:
329,192,14195,1,0,0:0:0:0:
475,192,14195,1,0,0:0:0:0:
109,192,14361,1,0,0:0:0:0:
109,192,14695,1,0,0:0:0:0:
329,192,14861,1,0,0:0:0:0:
475,192,14861,1,0,0:0:0:0:
109,192,15028,1,0,0:0:0:0:
109,192,15361,1,0,0:0:0:0:
329,192,15528,1,0,0:0:0:0:
475,192,15528,1,0,0:0:0:0:
109,192,15695,1,0,0:0:0:0:
109,192,16028,1,0,0:0:0:0:
329,192,16195,1,0,0:0:0:0:
475,192,16195,1,0,0:0:0:0:
109,192,16361,1,0,0:0:0:0:
109,192,16695,1,0,0:0:0:0:
329,192,16861,1,0,0:0:0:0:
475,192,16861,1,0,0:0:0:0:
109,192,17028,1,0,0:0:0:0:
109,192,17361,1,0,0:0:0:0:
329,192,17528,1,0,0:0:0:0:
475,192,17528,1,0,0:0:0:0:
109,192,17695,1,0,0:0:0:0:
256,192,17861,1,0,0:0:0:0:
402,192,18028,1,0,0:0:0:0:
182,192,18195,1,0,0:0:0:0:
36,192,18195,1,0,0:0:0:0:
402,192,18361,1,0,0:0:0:0:
402,192,18695,1,0,0:0:0:0:
182,192,18861,1,0,0:0:0:0:
36,192,18861,1,0,0:0:0:0:
402,192,19028,1,0,0:0:0:0:
256,192,19195,1,0,0:0:0:0:
109,192,19361,1,0,0:0:0:0:
329,192,19528,1,0,0:0:0:0:
475,192,19528,1,0,0:0:0:0:
109,192,19695,1,0,0:0:0:0:
109,192,20028,1,0,0:0:0:0:
329,192,20195,1,0,0:0:0:0:
475,192,20195,1,0,0:0:0:0:
109,192,20361,1,0,0:0:0:0:
256,192,20528,1,0,0:0:0:0:
475,192,20528,1,0,0:0:0:0:
402,192,20695,1,0,0:0:0:0:
256,192,20861,1,0,0:0:0:0:
36,192,20861,1,0,0:0:0:0:
109,192,21028,1,0,0:0:0:0:
256,192,21195,1,0,0:0:0:0:
475,192,21195,1,0,0:0:0:0:
402,192,21361,1,0,0:0:0:0:
256,192,21528,1,0,0:0:0:0:
36,192,21528,1,0,0:0:0:0:
109,192,21695,1,0,0:0:0:0:
182,192,21861,1,0,0:0:0:0:
329,192,21861,1,0,0:0:0:0:
182,192,22861,1,0,0:0:0:0:
329,192,22945,1,0,0:0:0:0:
36,192,23195,1,0,0:0:0:0:
329,192,23195,1,0,0:0:0:0:
109,192,23361,1,0,0:0:0:0:
402,192,23361,1,0,0:0:0:0:
182,192,23528,1,0,0:0:0:0:
475,192,23528,1,0,0:0:0:0:
402,192,23695,1,0,0:0:0:0:
109,192,23695,1,0,0:0:0:0:
329,192,23861,1,0,0:0:0:0:
36,192,23861,1,0,0:0:0:0:
402,192,24028,1,0,0:0:0:0:
109,192,24028,1,0,0:0:0:0:
36,192,24195,1,0,0:0:0:0:
329,192,24195,1,0,0:0:0:0:
109,192,24361,1,0,0:0:0:0:
402,192,24361,1,0,0:0:0:0:
182,192,24528,1,0,0:0:0:0:
475,192,24528,1,0,0:0:0:0:
109,192,24695,1,0,0:0:0:0:
402,192,24695,1,0,0:0:0:0:
36,192,24861,1,0,0:0:0:0:
329,192,24861,1,0,0:0:0:0:
109,192,25028,1,0,0:0:0:0:
402,192,25028,1,0,0:0:0:0:
36,192,25195,1,0,0:0:0:0:
329,192,25195,1,0,0:0:0:0:
109,192,25361,1,0,0:0:0:0:
402,192,25361,1,0,0:0:0:0:
182,192,25528,1,0,0:0:0:0:
475,192,25528,1,0,0:0:0:0:
36,192,25695,1,0,0:0:0:0:
329,192,25695,1,0,0:0:0:0:
182,192,25861,1,0,0:0:0:0:
475,192,25861,1,0,0:0:0:0:
109,192,26028,1,0,0:0:0:0:
402,192,26028,1,0,0:0:0:0:
36,192,26195,1,0,0:0:0:0:
329,192,26195,1,0,0:0:0:0:
109,192,26361,1,0,0:0:0:0:
402,192,26361,1,0,0:0:0:0:
182,192,26528,1,0,0:0:0:0:
475,192,26528,1,0,0:0:0:0:
109,192,26695,1,0,0:0:0:0:
402,192,26695,1,0,0:0:0:0:
182,192,26861,1,0,0:0:0:0:
475,192,26861,1,0,0:0:0:0:
109,192,27028,1,0,0:0:0:0:
402,192,27028,1,0,0:0:0:0:
36,192,27195,1,0,0:0:0:0:
329,192,27195,1,0,0:0:0:0:
109,192,27361,1,0,0:0:0:0:
402,192,27361,1,0,0:0:0:0:
36,192,27528,1,0,0:0:0:0:
329,192,27528,1,0,0:0:0:0:
182,192,27695,1,0,0:0:0:0:
475,192,27695,1,0,0:0:0:0:
402,192,27861,1,0,0:0:0:0:
109,192,27861,1,0,0:0:0:0:
475,192,28028,1,0,0:0:0:0:
182,192,28028,1,0,0:0:0:0:
36,192,28195,1,0,0:0:0:0:
329,192,28195,1,0,0:0:0:0:
109,192,28361,1,0,0:0:0:0:
402,192,28361,1,0,0:0:0:0:
36,192,28528,1,0,0:0:0:0:
329,192,28528,1,0,0:0:0:0:
109,192,28695,1,0,0:0:0:0:
402,192,28695,1,0,0:0:0:0:
182,192,28861,1,0,0:0:0:0:
475,192,28861,1,0,0:0:0:0:
109,192,29028,1,0,0:0:0:0:
402,192,29028,1,0,0:0:0:0:
182,192,29195,1,0,0:0:0:0:
475,192,29195,1,0,0:0:0:0:
109,192,29361,1,0,0:0:0:0:
402,192,29361,1,0,0:0:0:0:
36,192,29528,1,0,0:0:0:0:
329,192,29528,1,0,0:0:0:0:
402,192,29695,1,0,0:0:0:0:
109,192,29695,1,0,0:0:0:0:
182,192,29778,1,0,0:0:0:0:
475,192,29778,1,0,0:0:0:0:
402,192,30028,1,0,0:0:0:0:
109,192,30028,1,0,0:0:0:0:
329,192,30195,1,0,0:0:0:0:
36,192,30195,1,0,0:0:0:0:
402,192,30361,1,0,0:0:0:0:
109,192,30361,1,0,0:0:0:0:
36,192,30528,1,0,0:0:0:0:
329,192,30528,1,0,0:0:0:0:
109,192,30695,1,0,0:0:0:0:
402,192,30695,1,0,0:0:0:0:
182,192,30861,1,0,0:0:0:0:
475,192,30861,1,0,0:0:0:0:
36,192,31028,1,0,0:0:0:0:
329,192,31028,1,0,0:0:0:0:
182,192,31195,1,0,0:0:0:0:
475,192,31195,1,0,0:0:0:0:
109,192,31361,1,0,0:0:0:0:
402,192,31361,1,0,0:0:0:0:
182,192,31528,1,0,0:0:0:0:
475,192,31528,1,0,0:0:0:0:
109,192,31695,1,0,0:0:0:0:
402,192,31695,1,0,0:0:0:0:
36,192,31861,1,0,0:0:0:0:
329,192,31861,1,0,0:0:0:0:
109,192,32028,1,0,0:0:0:0:
402,192,32028,1,0,0:0:0:0:
36,192,32195,1,0,0:0:0:0:
329,192,32195,1,0,0:0:0:0:
109,192,32361,1,0,0:0:0:0:
402,192,32361,1,0,0:0:0:0:
182,192,32528,1,0,0:0:0:0:
475,192,32528,1,0,0:0:0:0:
109,192,32695,1,0,0:0:0:0:
402,192,32695,1,0,0:0:0:0:
475,192,32861,1,0,0:0:0:0:
182,192,32861,1,0,0:0:0:0:
329,192,33028,1,0,0:0:0:0:
36,192,33028,1,0,0:0:0:0:
109,192,33195,1,0,0:0:0:0:
402,192,33195,1,0,0:0:0:0:
36,192,33361,1,0,0:0:0:0:
329,192,33361,1,0,0:0:0:0:
182,192,33528,1,0,0:0:0:0:
475,192,33528,1,0,0:0:0:0:
109,192,33695,1,0,0:0:0:0:
402,192,33695,1,0,0:0:0:0:
475,192,33861,1,0,0:0:0:0:
182,192,33861,1,0,0:0:0:0:
402,192,34028,1,0,0:0:0:0:
109,192,34028,1,0,0:0:0:0:
329,192,34195,1,0,0:0:0:0:
36,192,34195,1,0,0:0:0:0:
402,192,34361,1,0,0:0:0:0:
109,192,34361,1,0,0:0:0:0:
329,192,34528,1,0,0:0:0:0:
36,192,34528,1,0,0:0:0:0:
402,192,34695,1,0,0:0:0:0:
109,192,34695,1,0,0:0:0:0:
182,192,34861,1,0,0:0:0:0:
475,192,34861,1,0,0:0:0:0:
109,192,35028,1,0,0:0:0:0:
402,192,35028,1,0,0:0:0:0:
36,192,35195,1,0,0:0:0:0:
329,192,35195,1,0,0:0:0:0:
109,192,35361,1,0,0:0:0:0:
402,192,35361,1,0,0:0:0:0:
36,192,35528,1,0,0:0:0:0:
329,192,35528,1,0,0:0:0:0:
109,192,35695,1,0,0:0:0:0:
402,192,35695,1,0,0:0:0:0:
182,192,35861,1,0,0:0:0:0:
475,192,35861,1,0,0:0:0:0:
109,192,36028,1,0,0:0:0:0:
402,192,36028,1,0,0:0:0:0:
36,192,36195,1,0,0:0:0:0:
329,192,36195,1,0,0:0:0:0:
182,192,36361,1,0,0:0:0:0:
475,192,36361,1,0,0:0:0:0:
36,192,36528,1,0,0:0:0:0:
329,192,36528,1,0,0:0:0:0:
109,192,36695,1,0,0:0:0:0:
402,192,36695,1,0,0:0:0:0:
182,192,36861,1,0,0:0:0:0:
475,192,36861,1,0,0:0:0:0:
402,192,37028,1,0,0:0:0:0:
109,192,37028,1,0,0:0:0:0:
475,192,37195,1,0,0:0:0:0:
182,192,37195,1,0,0:0:0:0:
402,192,37361,1,0,0:0:0:0:
109,192,37361,1,0,0:0:0:0:
329,192,37528,1,0,0:0:0:0:
36,192,37528,1,0,0:0:0:0:
109,192,37695,1,0,0:0:0:0:
402,192,37695,1,0,0:0:0:0:
475,192,37861,1,0,0:0:0:0:
182,192,37861,1,0,0:0:0:0:
36,192,38028,1,0,0:0:0:0:
329,192,38028,1,0,0:0:0:0:
109,192,38195,1,0,0:0:0:0:
402,192,38195,1,0,0:0:0:0:
36,192,38361,1,0,0:0:0:0:
329,192,38361,1,0,0:0:0:0:
182,192,38528,1,0,0:0:0:0:
475,192,38528,1,0,0:0:0:0:
109,192,38695,1,0,0:0:0:0:
402,192,38695,1,0,0:0:0:0:
182,192,38861,1,0,0:0:0:0:
475,192,38861,1,0,0:0:0:0:
36,192,39028,1,0,0:0:0:0:
329,192,39028,1,0,0:0:0:0:
182,192,39195,1,0,0:0:0:0:
402,192,39195,1,0,0:0:0:0:
36,192,39361,1,0,0:0:0:0:
475,192,39361,1,0,0:0:0:0:
109,192,39528,1,0,0:0:0:0:
329,192,39528,1,0,0:0:0:0:
182,192,39695,1,0,0:0:0:0:
475,192,39695,1,0,0:0:0:0:
36,192,39861,1,0,0:0:0:0:
402,192,39861,1,0,0:0:0:0:
109,192,40028,1,0,0:0:0:0:
475,192,40028,1,0,0:0:0:0:
36,192,40195,1,0,0:0:0:0:
329,192,40195,1,0,0:0:0:0:
182,192,40361,1,0,0:0:0:0:
402,192,40361,1,0,0:0:0:0:
109,192,40445,1,0,0:0:0:0:
475,192,40445,1,0,0:0:0:0:
36,192,40695,1,0,0:0:0:0:
329,192,40695,1,0,0:0:0:0:
182,192,40861,1,0,0:0:0:0:
402,192,40861,1,0,0:0:0:0:
109,192,41028,1,0,0:0:0:0:
475,192,41028,1,0,0:0:0:0:
182,192,41195,1,0,0:0:0:0:
329,192,41195,1,0,0:0:0:0:
36,192,41361,1,0,0:0:0:0:
475,192,41361,1,0,0:0:0:0:
109,192,41528,1,0,0:0:0:0:
402,192,41528,1,0,0:0:0:0:
182,192,41695,1,0,0:0:0:0:
475,192,41695,1,0,0:0:0:0:
36,192,41861,1,0,0:0:0:0:
329,192,41861,1,0,0:0:0:0:
182,192,42028,1,0,0:0:0:0:
475,192,42028,1,0,0:0:0:0:
109,192,42195,1,0,0:0:0:0:
402,192,42195,1,0,0:0:0:0:
182,192,42361,1,0,0:0:0:0:
329,192,42361,1,0,0:0:0:0:
36,192,42528,1,0,0:0:0:0:
475,192,42528,1,0,0:0:0:0:
109,192,42695,1,0,0:0:0:0:
329,192,42695,1,0,0:0:0:0:
182,192,42861,1,0,0:0:0:0:
402,192,42861,1,0,0:0:0:0:
36,192,43028,1,0,0:0:0:0:
329,192,43028,1,0,0:0:0:0:
109,192,43195,1,0,0:0:0:0:
475,192,43195,1,0,0:0:0:0:
402,192,43361,1,0,0:0:0:0:
182,192,43528,1,0,0:0:0:0:
475,192,43695,1,0,0:0:0:0:
109,192,43861,1,0,0:0:0:0:
402,192,44028,1,0,0:0:0:0:
36,192,44195,1,0,0:0:0:0:
329,192,44361,1,0,0:0:0:0:
256,192,44528,1,0,0:0:0:0:
109,192,44695,1,0,0:0:0:0:
256,192,44861,1,0,0:0:0:0:
402,192,44861,1,0,0:0:0:0:
109,192,45028,1,0,0:0:0:0:
256,192,45195,1,0,0:0:0:0:
109,192,45361,1,0,0:0:0:0:
256,192,45528,1,0,0:0:0:0:
402,192,45528,1,0,0:0:0:0:
109,192,45695,1,0,0:0:0:0:
256,192,45861,1,0,0:0:0:0:
109,192,46028,1,0,0:0:0:0:
256,192,46195,1,0,0:0:0:0:
402,192,46195,1,0,0:0:0:0:
109,192,46361,1,0,0:0:0:0:
256,192,46528,1,0,0:0:0:0:
109,192,46695,1,0,0:0:0:0:
256,192,46861,1,0,0:0:0:0:
402,192,46861,1,0,0:0:0:0:
109,192,47028,1,0,0:0:0:0:
256,192,47195,1,0,0:0:0:0:
182,192,47361,1,0,0:0:0:0:
256,192,47528,1,0,0:0:0:0:
329,192,47528,1,0,0:0:0:0:
182,192,47695,1,0,0:0:0:0:
256,192,47861,1,0,0:0:0:0:
182,192,48028,1,0,0:0:0:0:
256,192,48195,1,0,0:0:0:0:
329,192,48195,1,0,0:0:0:0:
182,192,48361,1,0,0:0:0:0:
256,192,48528,1,0,0:0:0:0:
182,192,48695,1,0,0:0:0:0:
256,192,48861,1,0,0:0:0:0:
329,192,48861,1,0,0:0:0:0:
182,192,49028,1,0,0:0:0:0:
256,192,49195,1,0,0:0:0:0:
182,192,49361,1,0,0:0:0:0:
256,192,49528,1,0,0:0:0:0:
329,192,49528,1,0,0:0:0:0:
182,192,49695,1,0,0:0:0:0:
256,192,49861,1,0,0:0:0:0:
36,192,50028,1,0,0:0:0:0:
256,192,50195,1,0,0:0:0:0:
475,192,50195,1,0,0:0:0:0:
36,192,50361,1,0,0:0:0:0:
256,192,50528,1,0,0:0:0:0:
36,192,50695,1,0,0:0:0:0:
256,192,50861,1,0,0:0:0:0:
475,192,50861,1,0,0:0:0:0:
36,192,51028,1,0,0:0:0:0:
256,192,51195,1,0,0:0:0:0:
36,192,51361,1,0,0:0:0:0:
256,192,51528,1,0,0:0:0:0:
475,192,51528,1,0,0:0:0:0:
36,192,51695,1,0,0:0:0:0:
256,192,51861,1,0,0:0:0:0:
36,192,52028,1,0,0:0:0:0:
256,192,52195,1,0,0:0:0:0:
475,192,52195,1,0,0:0:0:0:
36,192,52361,1,0,0:0:0:0:
256,192,52528,1,0,0:0:0:0:
109,192,52695,1,0,0:0:0:0:
256,192,52861,1,0,0:0:0:0:
402,192,52861,1,0,0:0:0:0:
109,192,53028,1,0,0:0:0:0:
256,192,53195,1,0,0:0:0:0:
109,192,53361,1,0,0:0:0:0:
256,192,53528,1,0,0:0:0:0:
402,192,53528,1,0,0:0:0:0:
109,192,53695,1,0,0:0:0:0:
256,192,53861,1,0,0:0:0:0:
109,192,54028,1,0,0:0:0:0:
256,192,54195,1,0,0:0:0:0:
402,192,54195,1,0,0:0:0:0:
109,192,54361,1,0,0:0:0:0:
256,192,54528,1,0,0:0:0:0:
109,192,54695,1,0,0:0:0:0:
256,192,54861,1,0,0:0:0:0:
402,192,54861,1,0,0:0:0:0:
109,192,55028,1,0,0:0:0:0:
256,192,55028,1,0,0:0:0:0:
182,192,55195,1,0,0:0:0:0:
256,192,55195,1,0,0:0:0:0:
402,192,55361,1,0,0:0:0:0:
256,192,55528,1,0,0:0:0:0:
109,192,55528,1,0,0:0:0:0:
402,192,55695,1,0,0:0:0:0:
256,192,55861,1,0,0:0:0:0:
402,192,56028,1,0,0:0:0:0:
256,192,56195,1,0,0:0:0:0:
109,192,56195,1,0,0:0:0:0:
402,192,56361,1,0,0:0:0:0:
256,192,56528,1,0,0:0:0:0:
402,192,56695,1,0,0:0:0:0:
256,192,56861,1,0,0:0:0:0:
109,192,56861,1,0,0:0:0:0:
402,192,57028,1,0,0:0:0:0:
256,192,57195,1,0,0:0:0:0:
402,192,57361,1,0,0:0:0:0:
256,192,57528,1,0,0:0:0:0:
109,192,57528,1,0,0:0:0:0:
402,192,57695,1,0,0:0:0:0:
256,192,57861,1,0,0:0:0:0:
329,192,58028,1,0,0:0:0:0:
182,192,58195,1,0,0:0:0:0:
256,192,58195,1,0,0:0:0:0:
329,192,58361,1,0,0:0:0:0:
256,192,58528,1,0,0:0:0:0:
329,192,58695,1,0,0:0:0:0:
256,192,58861,1,0,0:0:0:0:
182,192,58861,1,0,0:0:0:0:
329,192,59028,1,0,0:0:0:0:
256,192,59195,1,0,0:0:0:0:
329,192,59361,1,0,0:0:0:0:
256,192,59528,1,0,0:0:0:0:
182,192,59528,1,0,0:0:0:0:
329,192,59695,1,0,0:0:0:0:
256,192,59861,1,0,0:0:0:0:
329,192,60028,1,0,0:0:0:0:
256,192,60195,1,0,0:0:0:0:
182,192,60195,1,0,0:0:0:0:
329,192,60361,1,0,0:0:0:0:
256,192,60528,1,0,0:0:0:0:
475,192,60695,1,0,0:0:0:0:
256,192,60861,1,0,0:0:0:0:
36,192,60861,1,0,0:0:0:0:
475,192,61028,1,0,0:0:0:0:
256,192,61195,1,0,0:0:0:0:
475,192,61361,1,0,0:0:0:0:
256,192,61528,1,0,0:0:0:0:
36,192,61528,1,0,0:0:0:0:
475,192,61695,1,0,0:0:0:0:
256,192,61861,1,0,0:0:0:0:
475,192,62028,1,0,0:0:0:0:
256,192,62195,1,0,0:0:0:0:
36,192,62195,1,0,0:0:0:0:
475,192,62361,1,0,0:0:0:0:
256,192,62528,1,0,0:0:0:0:
475,192,62695,1,0,0:0:0:0:
256,192,62861,1,0,0:0:0:0:
36,192,62861,1,0,0:0:0:0:
475,192,63028,1,0,0:0:0:0:
256,192,63195,1,0,0:0:0:0:
402,192,63361,1,0,0:0:0:0:
109,192,63528,1,0,0:0:0:0:
256,192,63528,1,0,0:0:0:0:
402,192,63695,1,0,0:0:0:0:
256,192,63861,1,0,0:0:0:0:
402,192,64028,1,0,0:0:0:0:
256,192,64195,1,0,0:0:0:0:
109,192,64195,1,0,0:0:0:0:
402,192,64361,1,0,0:0:0:0:
329,192,64528,1,0,0:0:0:0:
182,192,64528,1,0,0:0:0:0:
36,192,65861,1,0,0:0:0:0:
402,192,65861,1,0,0:0:0:0:
109,192,66028,1,0,0:0:0:0:
182,192,66195,1,0,0:0:0:0:
256,192,66195,1,0,0:0:0:0:
475,192,66361,1,0,0:0:0:0:
402,192,66528,1,0,0:0:0:0:
329,192,66695,1,0,0:0:0:0:
36,192,66861,1,0,0:0:0:0:
256,192,66861,1,0,0:0:0:0:
109,192,67028,1,0,0:0:0:0:
182,192,67195,1,0,0:0:0:0:
475,192,67361,1,0,0:0:0:0:
402,192,67528,1,0,0:0:0:0:
256,192,67528,1,0,0:0:0:0:
329,192,67695,1,0,0:0:0:0:
36,192,67861,1,0,0:0:0:0:
109,192,68028,1,0,0:0:0:0:
182,192,68195,1,0,0:0:0:0:
256,192,68195,1,0,0:0:0:0:
329,192,68361,1,0,0:0:0:0:
475,192,68528,1,0,0:0:0:0:
402,192,68695,1,0,0:0:0:0:
329,192,68861,1,0,0:0:0:0:
256,192,68861,1,0,0:0:0:0:
36,192,69028,1,0,0:0:0:0:
109,192,69195,1,0,0:0:0:0:
182,192,69361,1,0,0:0:0:0:
475,192,69528,1,0,0:0:0:0:
256,192,69528,1,0,0:0:0:0:
402,192,69695,1,0,0:0:0:0:
329,192,69861,1,0,0:0:0:0:
182,192,70028,1,0,0:0:0:0:
109,192,70195,1,0,0:0:0:0:
256,192,70195,1,0,0:0:0:0:
36,192,70361,1,0,0:0:0:0:
329,192,70528,1,0,0:0:0:0:
402,192,70695,1,0,0:0:0:0:
182,192,70861,1,0,0:0:0:0:
256,192,70861,1,0,0:0:0:0:
109,192,71028,1,0,0:0:0:0:
36,192,71195,1,0,0:0:0:0:
109,192,71361,1,0,0:0:0:0:
182,192,71528,1,0,0:0:0:0:
475,192,71695,1,0,0:0:0:0:
402,192,71861,1,0,0:0:0:0:
329,192,72028,1,0,0:0:0:0:
36,192,72195,1,0,0:0:0:0:
109,192,72361,1,0,0:0:0:0:
182,192,72445,1,0,0:0:0:0:
475,192,72695,1,0,0:0:0:0:
402,192,72861,1,0,0:0:0:0:
329,192,73028,1,0,0:0:0:0:
36,192,73195,1,0,0:0:0:0:
109,192,73361,1,0,0:0:0:0:
182,192,73528,1,0,0:0:0:0:
329,192,73695,1,0,0:0:0:0:
475,192,73861,1,0,0:0:0:0:
402,192,74028,1,0,0:0:0:0:
329,192,74195,1,0,0:0:0:0:
36,192,74361,1,0,0:0:0:0:
109,192,74528,1,0,0:0:0:0:
182,192,74695,1,0,0:0:0:0:
475,192,74861,1,0,0:0:0:0:
402,192,75028,1,0,0:0:0:0:
329,192,75195,1,0,0:0:0:0:
182,192,75361,1,0,0:0:0:0:
109,192,75528,1,0,0:0:0:0:
36,192,75695,1,0,0:0:0:0:
329,192,75861,1,0,0:0:0:0:
402,192,76028,1,0,0:0:0:0:
182,192,76195,1,0,0:0:0:0:
109,192,76361,1,0,0:0:0:0:
36,192,76528,1,0,0:0:0:0:
109,192,76695,1,0,0:0:0:0:
182,192,76861,1,0,0:0:0:0:
475,192,77028,1,0,0:0:0:0:
402,192,77195,1,0,0:0:0:0:
329,192,77361,1,0,0:0:0:0:
36,192,77528,1,0,0:0:0:0:
109,192,77695,1,0,0:0:0:0:
182,192,77861,1,0,0:0:0:0:
475,192,78028,1,0,0:0:0:0:
402,192,78195,1,0,0:0:0:0:
329,192,78361,1,0,0:0:0:0:
36,192,78528,1,0,0:0:0:0:
109,192,78695,1,0,0:0:0:0:
182,192,78861,1,0,0:0:0:0:
329,192,79028,1,0,0:0:0:0:
475,192,79195,1,0,0:0:0:0:
402,192,79361,1,0,0:0:0:0:
329,192,79528,1,0,0:0:0:0:
36,192,79695,1,0,0:0:0:0:
109,192,79861,1,0,0:0:0:0:
182,192,80028,1,0,0:0:0:0:
475,192,80195,1,0,0:0:0:0:
402,192,80361,1,0,0:0:0:0:
329,192,80528,1,0,0:0:0:0:
36,192,80695,1,0,0:0:0:0:
109,192,80861,1,0,0:0:0:0:
182,192,81028,1,0,0:0:0:0:
475,192,81195,1,0,0:0:0:0:
402,192,81361,1,0,0:0:0:0:
329,192,81528,1,0,0:0:0:0:
182,192,81695,1,0,0:0:0:0:
36,192,81861,1,0,0:0:0:0:
109,192,82028,1,0,0:0:0:0:
182,192,82195,1,0,0:0:0:0:
475,192,82361,1,0,0:0:0:0:
402,192,82528,1,0,0:0:0:0:
329,192,82695,1,0,0:0:0:0:
36,192,82861,1,0,0:0:0:0:
109,192,83028,1,0,0:0:0:0:
182,192,83195,1,0,0:0:0:0:
475,192,83361,1,0,0:0:0:0:
402,192,83528,1,0,0:0:0:0:
329,192,83695,1,0,0:0:0:0:
36,192,83861,1,0,0:0:0:0:
109,192,84028,1,0,0:0:0:0:
182,192,84195,1,0,0:0:0:0:
329,192,84361,1,0,0:0:0:0:
475,192,84528,1,0,0:0:0:0:
402,192,84695,1,0,0:0:0:0:
329,192,84861,1,0,0:0:0:0:
36,192,85028,1,0,0:0:0:0:
109,192,85195,1,0,0:0:0:0:
182,192,85361,1,0,0:0:0:0:
475,192,85528,1,0,0:0:0:0:
402,192,85695,1,0,0:0:0:0:
329,192,85861,1,0,0:0:0:0:
36,192,86028,1,0,0:0:0:0:
109,192,86195,1,0,0:0:0:0:
182,192,86361,1,0,0:0:0:0:
475,192,86528,1,0,0:0:0:0:
402,192,86695,1,0,0:0:0:0:
329,192,86861,1,0,0:0:0:0:
182,192,87028,1,0,0:0:0:0:
109,192,87195,1,0,0:0:0:0:
402,192,87195,1,0,0:0:0:0:
256,192,87195,1,0,0:0:0:0:
