osu file format v12

[General]
AudioFilename: Starry Presto.mp3
AudioLeadIn: 0
PreviewTime: 23028
Countdown: 0
SampleSet: Soft
StackLeniency: 0.7
Mode: 3
LetterboxInBreaks: 0
SpecialStyle: 0
WidescreenStoryboard: 1

[Editor]
DistanceSpacing: 1.2
BeatDivisor: 4
GridSize: 8
TimelineZoom: 1.4

[Metadata]
Title:Starry Presto
TitleUnicode:Starry Presto
Artist:Halozy
ArtistUnicode:Halozy
Creator:Entozer
Version:God
Source:東方
Tags:
BeatmapID:433286
BeatmapSetID:178027

[Difficulty]
HPDrainRate:8
CircleSize:8
OverallDifficulty:8
ApproachRate:5
SliderMultiplier:1.4
SliderTickRate:1

[Events]
//Background and Video events
0,0,"Starry Presto.jpg",0,0
//Break Periods
//Storyboard Layer 0 (Background)
//Storyboard Layer 1 (Fail)
//Storyboard Layer 2 (Pass)
//Storyboard Layer 3 (Foreground)
//Storyboard Sound Samples
//Background Colour Transformations
3,100,163,162,255

[TimingPoints]
1862,333.333333333333,4,2,0,5,1,0
85861,-200,4,2,0,5,0,0
107195,-100,4,2,0,5,0,0

[HitObjects]
109,192,1861,128,0,4528:0:0:0:0:
402,192,1861,128,0,4528:0:0:0:0:
475,192,1861,1,0,0:0:0:0:
32,192,1861,128,0,4528:0:0:0:0:
288,192,1861,128,0,4528:0:0:0:0:
329,192,4528,128,0,7195:0:0:0:0:
182,192,4528,128,0,7195:0:0:0:0:
224,192,4528,128,0,7195:0:0:0:0:
480,192,4528,128,0,7195:0:0:0:0:
416,192,7195,128,0,12528:0:0:0:0:
36,192,7195,128,0,12528:0:0:0:0:
256,192,9861,128,0,12528:0:0:0:0:
416,192,12528,1,0,0:0:0:0:
352,192,12528,1,0,0:0:0:0:
224,192,12528,1,0,0:0:0:0:
160,192,12528,1,0,0:0:0:0:
96,192,12528,1,0,0:0:0:0:
32,192,12695,1,0,0:0:0:0:
160,192,12695,1,0,0:0:0:0:
352,192,12695,1,0,0:0:0:0:
416,192,12778,1,0,0:0:0:0:
480,192,12861,1,0,0:0:0:0:
96,192,12861,1,0,0:0:0:0:
416,192,12945,1,0,0:0:0:0:
32,192,13028,1,0,0:0:0:0:
160,192,13028,1,0,0:0:0:0:
352,192,13028,1,0,0:0:0:0:
416,192,13111,1,0,0:0:0:0:
480,192,13195,1,0,0:0:0:0:
96,192,13195,1,0,0:0:0:0:
416,192,13278,1,0,0:0:0:0:
32,192,13361,1,0,0:0:0:0:
160,192,13361,1,0,0:0:0:0:
352,192,13361,1,0,0:0:0:0:
416,192,13445,1,0,0:0:0:0:
480,192,13528,1,0,0:0:0:0:
96,192,13528,1,0,0:0:0:0:
416,192,13611,1,0,0:0:0:0:
32,192,13695,1,0,0:0:0:0:
160,192,13695,1,0,0:0:0:0:
352,192,13695,1,0,0:0:0:0:
416,192,13778,1,0,0:0:0:0:
480,192,13861,1,0,0:0:0:0:
96,192,13861,1,0,0:0:0:0:
416,192,13945,1,0,0:0:0:0:
32,192,14028,1,0,0:0:0:0:
160,192,14028,1,0,0:0:0:0:
352,192,14028,1,0,0:0:0:0:
416,192,14111,1,0,0:0:0:0:
480,192,14195,1,0,0:0:0:0:
96,192,14195,1,0,0:0:0:0:
416,192,14278,1,0,0:0:0:0:
32,192,14361,1,0,0:0:0:0:
160,192,14361,1,0,0:0:0:0:
352,192,14361,1,0,0:0:0:0:
416,192,14445,1,0,0:0:0:0:
480,192,14528,1,0,0:0:0:0:
96,192,14528,1,0,0:0:0:0:
352,192,14611,1,0,0:0:0:0:
160,192,14695,1,0,0:0:0:0:
32,192,14695,1,0,0:0:0:0:
416,192,14695,1,0,0:0:0:0:
480,192,14778,1,0,0:0:0:0:
416,192,14861,1,0,0:0:0:0:
96,192,14861,1,0,0:0:0:0:
352,192,14945,1,0,0:0:0:0:
32,192,15028,1,0,0:0:0:0:
160,192,15028,1,0,0:0:0:0:
416,192,15028,1,0,0:0:0:0:
480,192,15111,1,0,0:0:0:0:
416,192,15195,1,0,0:0:0:0:
96,192,15195,1,0,0:0:0:0:
352,192,15278,1,0,0:0:0:0:
182,192,15361,1,0,0:0:0:0:
32,192,15361,1,0,0:0:0:0:
416,192,15361,1,0,0:0:0:0:
480,192,15445,1,0,0:0:0:0:
416,192,15528,1,0,0:0:0:0:
96,192,15528,1,0,0:0:0:0:
352,192,15611,1,0,0:0:0:0:
416,192,15695,1,0,0:0:0:0:
32,192,15695,1,0,0:0:0:0:
160,192,15695,1,0,0:0:0:0:
480,192,15778,1,0,0:0:0:0:
96,192,15861,1,0,0:0:0:0:
416,192,15861,1,0,0:0:0:0:
352,192,15945,1,0,0:0:0:0:
32,192,16028,1,0,0:0:0:0:
160,192,16028,1,0,0:0:0:0:
416,192,16028,1,0,0:0:0:0:
480,192,16111,1,0,0:0:0:0:
96,192,16195,1,0,0:0:0:0:
416,192,16195,1,0,0:0:0:0:
352,192,16278,1,0,0:0:0:0:
32,192,16361,1,0,0:0:0:0:
160,192,16361,1,0,0:0:0:0:
416,192,16361,1,0,0:0:0:0:
480,192,16445,1,0,0:0:0:0:
96,192,16528,1,0,0:0:0:0:
416,192,16528,1,0,0:0:0:0:
352,192,16611,1,0,0:0:0:0:
32,192,16695,1,0,0:0:0:0:
160,192,16695,1,0,0:0:0:0:
416,192,16695,1,0,0:0:0:0:
480,192,16778,1,0,0:0:0:0:
96,192,16861,1,0,0:0:0:0:
416,192,16861,1,0,0:0:0:0:
352,192,16945,1,0,0:0:0:0:
32,192,17028,1,0,0:0:0:0:
160,192,17028,1,0,0:0:0:0:
416,192,17028,1,0,0:0:0:0:
480,192,17111,1,0,0:0:0:0:
96,192,17195,1,0,0:0:0:0:
416,192,17195,1,0,0:0:0:0:
352,192,17278,1,0,0:0:0:0:
32,192,17361,1,0,0:0:0:0:
160,192,17361,1,0,0:0:0:0:
416,192,17361,1,0,0:0:0:0:
480,192,17445,1,0,0:0:0:0:
96,192,17528,1,0,0:0:0:0:
416,192,17528,1,0,0:0:0:0:
352,192,17611,1,0,0:0:0:0:
32,192,17695,1,0,0:0:0:0:
160,192,17695,1,0,0:0:0:0:
416,192,17695,1,0,0:0:0:0:
480,192,17778,1,0,0:0:0:0:
96,192,17861,1,0,0:0:0:0:
224,192,17861,1,0,0:0:0:0:
352,192,17861,1,0,0:0:0:0:
480,192,17861,1,0,0:0:0:0:
288,192,17861,1,0,0:0:0:0:
416,192,17945,1,0,0:0:0:0:
160,192,17945,1,0,0:0:0:0:
480,192,18028,1,0,0:0:0:0:
96,192,18028,1,0,0:0:0:0:
32,192,18028,1,0,0:0:0:0:
416,192,18111,1,0,0:0:0:0:
160,192,18111,1,0,0:0:0:0:
352,192,18195,1,0,0:0:0:0:
224,192,18195,1,0,0:0:0:0:
160,192,18278,1,0,0:0:0:0:
416,192,18278,1,0,0:0:0:0:
96,192,18361,1,0,0:0:0:0:
480,192,18361,1,0,0:0:0:0:
32,192,18361,1,0,0:0:0:0:
160,192,18445,1,0,0:0:0:0:
416,192,18445,1,0,0:0:0:0:
224,192,18528,1,0,0:0:0:0:
352,192,18528,1,0,0:0:0:0:
416,192,18611,1,0,0:0:0:0:
160,192,18611,1,0,0:0:0:0:
96,192,18695,1,0,0:0:0:0:
480,192,18695,1,0,0:0:0:0:
32,192,18695,1,0,0:0:0:0:
160,192,18778,1,0,0:0:0:0:
416,192,18778,1,0,0:0:0:0:
224,192,18861,1,0,0:0:0:0:
352,192,18861,1,0,0:0:0:0:
160,192,18945,1,0,0:0:0:0:
416,192,18945,1,0,0:0:0:0:
96,192,19028,1,0,0:0:0:0:
480,192,19028,1,0,0:0:0:0:
32,192,19028,1,0,0:0:0:0:
160,192,19111,1,0,0:0:0:0:
416,192,19111,1,0,0:0:0:0:
224,192,19195,1,0,0:0:0:0:
352,192,19195,1,0,0:0:0:0:
288,192,19195,1,0,0:0:0:0:
160,192,19278,1,0,0:0:0:0:
416,192,19278,1,0,0:0:0:0:
32,192,19361,1,0,0:0:0:0:
96,192,19361,1,0,0:0:0:0:
480,192,19361,1,0,0:0:0:0:
182,192,19445,1,0,0:0:0:0:
416,192,19445,1,0,0:0:0:0:
224,192,19528,1,0,0:0:0:0:
352,192,19528,1,0,0:0:0:0:
182,192,19611,1,0,0:0:0:0:
416,192,19611,1,0,0:0:0:0:
32,192,19695,1,0,0:0:0:0:
96,192,19695,1,0,0:0:0:0:
480,192,19695,1,0,0:0:0:0:
182,192,19778,1,0,0:0:0:0:
416,192,19778,1,0,0:0:0:0:
224,192,19861,1,0,0:0:0:0:
352,192,19861,1,0,0:0:0:0:
182,192,19945,1,0,0:0:0:0:
416,192,19945,1,0,0:0:0:0:
36,192,20028,1,0,0:0:0:0:
96,192,20028,1,0,0:0:0:0:
480,192,20028,1,0,0:0:0:0:
182,192,20111,1,0,0:0:0:0:
416,192,20111,1,0,0:0:0:0:
224,192,20195,1,0,0:0:0:0:
352,192,20195,1,0,0:0:0:0:
182,192,20278,1,0,0:0:0:0:
288,192,20278,1,0,0:0:0:0:
36,192,20361,1,0,0:0:0:0:
352,192,20361,1,0,0:0:0:0:
182,192,20445,1,0,0:0:0:0:
288,192,20445,1,0,0:0:0:0:
480,192,20528,1,0,0:0:0:0:
352,192,20528,1,0,0:0:0:0:
160,192,20611,1,0,0:0:0:0:
416,192,20611,1,0,0:0:0:0:
288,192,20611,1,0,0:0:0:0:
36,192,20695,1,0,0:0:0:0:
352,192,20695,1,0,0:0:0:0:
224,192,20695,1,0,0:0:0:0:
160,192,20778,1,0,0:0:0:0:
288,192,20778,1,0,0:0:0:0:
96,192,20861,1,0,0:0:0:0:
352,192,20861,1,0,0:0:0:0:
160,192,20945,1,0,0:0:0:0:
416,192,20945,1,0,0:0:0:0:
36,192,21028,1,0,0:0:0:0:
224,192,21028,1,0,0:0:0:0:
480,192,21028,1,0,0:0:0:0:
160,192,21111,1,0,0:0:0:0:
352,192,21111,1,0,0:0:0:0:
288,192,21195,1,0,0:0:0:0:
224,192,21278,1,0,0:0:0:0:
352,192,21278,1,0,0:0:0:0:
480,192,21278,1,0,0:0:0:0:
36,192,21320,1,0,0:0:0:0:
475,192,21361,1,0,0:0:0:0:
160,192,21361,1,0,0:0:0:0:
288,192,21361,1,0,0:0:0:0:
402,192,21445,1,0,0:0:0:0:
224,192,21445,1,0,0:0:0:0:
475,192,21528,1,0,0:0:0:0:
329,192,21528,1,0,0:0:0:0:
256,192,21611,1,0,0:0:0:0:
402,192,21611,1,0,0:0:0:0:
329,192,21695,1,0,0:0:0:0:
182,192,21695,1,0,0:0:0:0:
36,192,21695,1,0,0:0:0:0:
109,192,21778,1,0,0:0:0:0:
256,192,21778,1,0,0:0:0:0:
402,192,21778,1,0,0:0:0:0:
182,192,21861,1,0,0:0:0:0:
329,192,21861,1,0,0:0:0:0:
475,192,21861,1,0,0:0:0:0:
36,192,21861,1,0,0:0:0:0:
256,192,22861,1,0,0:0:0:0:
256,192,22945,1,0,0:0:0:0:
329,192,23195,1,0,0:0:0:0:
182,192,23195,1,0,0:0:0:0:
224,192,23195,1,0,0:0:0:0:
352,192,23361,128,0,23528:0:0:0:0:
475,192,23361,1,0,0:0:0:0:
32,192,23361,1,0,0:0:0:0:
480,192,23528,128,0,23695:0:0:0:0:
256,192,23528,1,0,0:0:0:0:
109,192,23528,1,0,0:0:0:0:
224,192,23528,1,0,0:0:0:0:
416,192,23528,1,0,0:0:0:0:
402,192,23695,128,0,23861:0:0:0:0:
288,192,23695,1,0,0:0:0:0:
224,192,23695,1,0,0:0:0:0:
96,192,23695,1,0,0:0:0:0:
256,192,23861,128,0,24028:0:0:0:0:
475,192,23861,1,0,0:0:0:0:
352,192,23861,1,0,0:0:0:0:
224,192,24028,128,0,24195:0:0:0:0:
402,192,24028,1,0,0:0:0:0:
416,192,24195,128,0,24361:0:0:0:0:
256,192,24195,1,0,0:0:0:0:
329,192,24195,1,0,0:0:0:0:
475,192,24195,1,0,0:0:0:0:
160,192,24195,1,0,0:0:0:0:
96,192,24195,1,0,0:0:0:0:
182,192,24361,128,0,24528:0:0:0:0:
288,192,24361,1,0,0:0:0:0:
329,192,24528,128,0,24695:0:0:0:0:
36,192,24528,1,0,0:0:0:0:
402,192,24695,128,0,24861:0:0:0:0:
109,192,24695,1,0,0:0:0:0:
256,192,24861,128,0,25028:0:0:0:0:
36,192,24861,1,0,0:0:0:0:
475,192,24861,1,0,0:0:0:0:
224,192,24861,1,0,0:0:0:0:
160,192,24861,1,0,0:0:0:0:
109,192,25028,128,0,25195:0:0:0:0:
329,192,25028,1,0,0:0:0:0:
36,192,25195,128,0,25361:0:0:0:0:
402,192,25195,1,0,0:0:0:0:
224,192,25195,1,0,0:0:0:0:
288,192,25195,1,0,0:0:0:0:
352,192,25195,1,0,0:0:0:0:
182,192,25361,128,0,25528:0:0:0:0:
256,192,25361,1,0,0:0:0:0:
475,192,25361,1,0,0:0:0:0:
329,192,25528,128,0,25695:0:0:0:0:
109,192,25528,1,0,0:0:0:0:
224,192,25528,1,0,0:0:0:0:
288,192,25528,1,0,0:0:0:0:
402,192,25695,128,0,25861:0:0:0:0:
256,192,25695,1,0,0:0:0:0:
36,192,25695,1,0,0:0:0:0:
182,192,25861,1,0,0:0:0:0:
475,192,25861,128,0,26028:0:0:0:0:
224,192,25861,1,0,0:0:0:0:
288,192,25861,1,0,0:0:0:0:
352,192,25861,1,0,0:0:0:0:
329,192,26028,128,0,26195:0:0:0:0:
109,192,26028,1,0,0:0:0:0:
182,192,26195,128,0,26361:0:0:0:0:
36,192,26195,1,0,0:0:0:0:
475,192,26195,1,0,0:0:0:0:
224,192,26195,1,0,0:0:0:0:
288,192,26195,1,0,0:0:0:0:
109,192,26361,128,0,26528:0:0:0:0:
402,192,26361,1,0,0:0:0:0:
256,192,26528,128,0,26695:0:0:0:0:
182,192,26528,1,0,0:0:0:0:
352,192,26528,1,0,0:0:0:0:
416,192,26528,1,0,0:0:0:0:
480,192,26528,1,0,0:0:0:0:
402,192,26695,128,0,26861:0:0:0:0:
109,192,26695,1,0,0:0:0:0:
475,192,26861,128,0,27028:0:0:0:0:
182,192,26861,1,0,0:0:0:0:
256,192,26861,1,0,0:0:0:0:
36,192,26861,1,0,0:0:0:0:
224,192,26861,1,0,0:0:0:0:
352,192,26861,1,0,0:0:0:0:
329,192,27028,128,0,27195:0:0:0:0:
109,192,27028,1,0,0:0:0:0:
480,192,27195,128,0,27361:0:0:0:0:
402,192,27195,1,0,0:0:0:0:
36,192,27195,1,0,0:0:0:0:
288,192,27195,1,0,0:0:0:0:
224,192,27195,1,0,0:0:0:0:
329,192,27361,128,0,27528:0:0:0:0:
416,192,27361,1,0,0:0:0:0:
96,192,27528,128,0,27695:0:0:0:0:
182,192,27528,1,0,0:0:0:0:
36,192,27528,1,0,0:0:0:0:
224,192,27528,1,0,0:0:0:0:
288,192,27528,1,0,0:0:0:0:
402,192,27695,128,0,27861:0:0:0:0:
160,192,27695,1,0,0:0:0:0:
329,192,27861,128,0,28028:0:0:0:0:
256,192,27861,1,0,0:0:0:0:
36,192,27861,1,0,0:0:0:0:
182,192,28028,128,0,28195:0:0:0:0:
475,192,28028,1,0,0:0:0:0:
402,192,28195,128,0,28361:0:0:0:0:
36,192,28195,1,0,0:0:0:0:
329,192,28195,1,0,0:0:0:0:
288,192,28195,1,0,0:0:0:0:
224,192,28195,1,0,0:0:0:0:
109,192,28361,128,0,28528:0:0:0:0:
256,192,28361,1,0,0:0:0:0:
36,192,28528,128,0,28695:0:0:0:0:
329,192,28528,1,0,0:0:0:0:
224,192,28528,1,0,0:0:0:0:
160,192,28528,1,0,0:0:0:0:
416,192,28528,1,0,0:0:0:0:
480,192,28528,1,0,0:0:0:0:
182,192,28695,128,0,28861:0:0:0:0:
475,192,28695,1,0,0:0:0:0:
329,192,28861,128,0,29028:0:0:0:0:
256,192,28861,1,0,0:0:0:0:
36,192,28861,1,0,0:0:0:0:
402,192,29028,128,0,29195:0:0:0:0:
109,192,29028,1,0,0:0:0:0:
256,192,29195,128,0,29361:0:0:0:0:
182,192,29195,1,0,0:0:0:0:
475,192,29195,1,0,0:0:0:0:
224,192,29195,1,0,0:0:0:0:
96,192,29195,1,0,0:0:0:0:
352,192,29195,1,0,0:0:0:0:
224,192,29361,128,0,29528:0:0:0:0:
402,192,29361,1,0,0:0:0:0:
36,192,29528,128,0,29695:0:0:0:0:
256,192,29528,1,0,0:0:0:0:
329,192,29528,1,0,0:0:0:0:
475,192,29528,1,0,0:0:0:0:
160,192,29528,1,0,0:0:0:0:
182,192,29695,128,0,29778:0:0:0:0:
402,192,29695,1,0,0:0:0:0:
329,192,29778,128,0,30028:0:0:0:0:
256,192,29861,1,0,0:0:0:0:
109,192,29861,1,0,0:0:0:0:
160,192,29861,1,0,0:0:0:0:
416,192,29861,1,0,0:0:0:0:
480,192,29861,1,0,0:0:0:0:
402,192,30028,128,0,30195:0:0:0:0:
182,192,30028,1,0,0:0:0:0:
256,192,30195,128,0,30361:0:0:0:0:
36,192,30195,1,0,0:0:0:0:
329,192,30195,1,0,0:0:0:0:
224,192,30195,1,0,0:0:0:0:
160,192,30195,1,0,0:0:0:0:
224,192,30361,128,0,30528:0:0:0:0:
475,192,30361,1,0,0:0:0:0:
36,192,30528,128,0,30695:0:0:0:0:
256,192,30528,1,0,0:0:0:0:
402,192,30528,1,0,0:0:0:0:
160,192,30528,1,0,0:0:0:0:
96,192,30528,1,0,0:0:0:0:
224,192,30695,128,0,30861:0:0:0:0:
475,192,30695,1,0,0:0:0:0:
329,192,30861,128,0,31028:0:0:0:0:
256,192,30861,1,0,0:0:0:0:
36,192,30861,1,0,0:0:0:0:
160,192,30861,1,0,0:0:0:0:
480,192,30861,1,0,0:0:0:0:
416,192,30861,1,0,0:0:0:0:
402,192,31028,128,0,31195:0:0:0:0:
109,192,31028,1,0,0:0:0:0:
475,192,31195,128,0,31361:0:0:0:0:
182,192,31195,1,0,0:0:0:0:
36,192,31195,1,0,0:0:0:0:
224,192,31195,1,0,0:0:0:0:
288,192,31195,1,0,0:0:0:0:
352,192,31195,1,0,0:0:0:0:
329,192,31361,128,0,31528:0:0:0:0:
109,192,31361,1,0,0:0:0:0:
182,192,31528,128,0,31695:0:0:0:0:
475,192,31528,1,0,0:0:0:0:
256,192,31528,1,0,0:0:0:0:
109,192,31695,128,0,31861:0:0:0:0:
402,192,31695,1,0,0:0:0:0:
256,192,31861,128,0,32028:0:0:0:0:
329,192,31861,1,0,0:0:0:0:
36,192,31861,1,0,0:0:0:0:
160,192,31861,1,0,0:0:0:0:
224,192,31861,1,0,0:0:0:0:
402,192,32028,128,0,32195:0:0:0:0:
109,192,32028,1,0,0:0:0:0:
475,192,32195,128,0,32361:0:0:0:0:
182,192,32195,1,0,0:0:0:0:
256,192,32195,1,0,0:0:0:0:
36,192,32195,1,0,0:0:0:0:
352,192,32195,1,0,0:0:0:0:
329,192,32361,128,0,32528:0:0:0:0:
109,192,32361,1,0,0:0:0:0:
224,192,32528,128,0,32695:0:0:0:0:
475,192,32528,1,0,0:0:0:0:
256,192,32528,1,0,0:0:0:0:
416,192,32528,1,0,0:0:0:0:
288,192,32695,128,0,32861:0:0:0:0:
352,192,32695,1,0,0:0:0:0:
36,192,32861,128,0,33028:0:0:0:0:
182,192,32861,1,0,0:0:0:0:
475,192,32861,1,0,0:0:0:0:
352,192,32861,1,0,0:0:0:0:
416,192,32861,1,0,0:0:0:0:
109,192,33028,128,0,33195:0:0:0:0:
256,192,33028,1,0,0:0:0:0:
329,192,33195,128,0,33361:0:0:0:0:
475,192,33195,1,0,0:0:0:0:
36,192,33195,1,0,0:0:0:0:
224,192,33195,1,0,0:0:0:0:
288,192,33195,1,0,0:0:0:0:
160,192,33195,1,0,0:0:0:0:
182,192,33361,128,0,33528:0:0:0:0:
402,192,33361,1,0,0:0:0:0:
256,192,33528,128,0,33695:0:0:0:0:
36,192,33528,1,0,0:0:0:0:
475,192,33528,1,0,0:0:0:0:
352,192,33528,1,0,0:0:0:0:
416,192,33528,1,0,0:0:0:0:
224,192,33528,1,0,0:0:0:0:
109,192,33695,128,0,33861:0:0:0:0:
329,192,33695,1,0,0:0:0:0:
36,192,33695,1,0,0:0:0:0:
36,192,33861,128,0,34195:0:0:0:0:
329,192,33861,1,0,0:0:0:0:
475,192,33861,1,0,0:0:0:0:
182,192,33861,1,0,0:0:0:0:
224,192,33861,1,0,0:0:0:0:
256,192,33945,1,0,0:0:0:0:
182,192,34028,128,0,34278:0:0:0:0:
402,192,34028,1,0,0:0:0:0:
475,192,34111,1,0,0:0:0:0:
256,192,34195,128,0,34611:0:0:0:0:
224,192,34195,1,0,0:0:0:0:
352,192,34195,1,0,0:0:0:0:
109,192,34278,1,0,0:0:0:0:
402,192,34361,128,0,34695:0:0:0:0:
182,192,34361,1,0,0:0:0:0:
475,192,34445,1,0,0:0:0:0:
329,192,34528,128,0,34861:0:0:0:0:
36,192,34528,1,0,0:0:0:0:
182,192,34611,1,0,0:0:0:0:
224,192,34695,128,0,34861:0:0:0:0:
256,192,34695,1,0,0:0:0:0:
402,192,34778,1,0,0:0:0:0:
96,192,34861,128,0,35111:0:0:0:0:
256,192,34861,1,0,0:0:0:0:
329,192,34945,1,0,0:0:0:0:
32,192,35028,128,0,35278:0:0:0:0:
402,192,35028,1,0,0:0:0:0:
475,192,35111,1,0,0:0:0:0:
160,192,35195,128,0,35611:0:0:0:0:
109,192,35278,1,0,0:0:0:0:
288,192,35361,128,0,35695:0:0:0:0:
224,192,35361,1,0,0:0:0:0:
475,192,35445,1,0,0:0:0:0:
352,192,35445,1,0,0:0:0:0:
416,192,35528,128,0,35945:0:0:0:0:
36,192,35528,1,0,0:0:0:0:
480,192,35611,1,0,0:0:0:0:
160,192,35695,1,0,0:0:0:0:
109,192,35695,128,0,36195:0:0:0:0:
352,192,35695,1,0,0:0:0:0:
288,192,35778,1,0,0:0:0:0:
36,192,35861,128,0,36111:0:0:0:0:
475,192,35861,1,0,0:0:0:0:
224,192,35861,1,0,0:0:0:0:
256,192,35945,1,0,0:0:0:0:
160,192,35945,1,0,0:0:0:0:
416,192,36028,1,0,0:0:0:0:
182,192,36028,128,0,36445:0:0:0:0:
329,192,36028,1,0,0:0:0:0:
475,192,36111,1,0,0:0:0:0:
256,192,36195,128,0,36528:0:0:0:0:
36,192,36195,1,0,0:0:0:0:
109,192,36278,1,0,0:0:0:0:
402,192,36361,128,0,36611:0:0:0:0:
329,192,36361,1,0,0:0:0:0:
36,192,36445,1,0,0:0:0:0:
475,192,36528,128,0,36695:0:0:0:0:
182,192,36528,1,0,0:0:0:0:
256,192,36611,1,0,0:0:0:0:
329,192,36695,128,0,37195:0:0:0:0:
402,192,36695,1,0,0:0:0:0:
36,192,36778,1,0,0:0:0:0:
288,192,36778,1,0,0:0:0:0:
224,192,36861,128,0,37195:0:0:0:0:
402,192,36945,1,0,0:0:0:0:
160,192,36945,1,0,0:0:0:0:
109,192,37028,128,0,37195:0:0:0:0:
475,192,37028,1,0,0:0:0:0:
36,192,37111,1,0,0:0:0:0:
182,192,37195,128,0,37611:0:0:0:0:
256,192,37195,1,0,0:0:0:0:
329,192,37278,1,0,0:0:0:0:
402,192,37361,128,0,37695:0:0:0:0:
109,192,37361,1,0,0:0:0:0:
224,192,37445,1,0,0:0:0:0:
288,192,37528,1,0,0:0:0:0:
475,192,37528,128,0,37945:0:0:0:0:
36,192,37528,1,0,0:0:0:0:
224,192,37528,1,0,0:0:0:0:
109,192,37611,1,0,0:0:0:0:
352,192,37611,1,0,0:0:0:0:
329,192,37695,128,0,38028:0:0:0:0:
182,192,37695,1,0,0:0:0:0:
402,192,37778,1,0,0:0:0:0:
256,192,37861,128,0,38028:0:0:0:0:
109,192,37861,1,0,0:0:0:0:
182,192,37945,1,0,0:0:0:0:
402,192,38028,128,0,38195:0:0:0:0:
475,192,38028,1,0,0:0:0:0:
224,192,38028,1,0,0:0:0:0:
36,192,38111,1,0,0:0:0:0:
160,192,38111,1,0,0:0:0:0:
182,192,38195,128,0,38445:0:0:0:0:
256,192,38195,1,0,0:0:0:0:
96,192,38195,1,0,0:0:0:0:
402,192,38278,1,0,0:0:0:0:
224,192,38278,1,0,0:0:0:0:
329,192,38361,128,0,38778:0:0:0:0:
475,192,38361,1,0,0:0:0:0:
288,192,38361,1,0,0:0:0:0:
36,192,38445,1,0,0:0:0:0:
416,192,38445,1,0,0:0:0:0:
109,192,38528,128,0,38945:0:0:0:0:
182,192,38528,1,0,0:0:0:0:
480,192,38528,1,0,0:0:0:0:
288,192,38528,1,0,0:0:0:0:
402,192,38611,1,0,0:0:0:0:
256,192,38695,128,0,38861:0:0:0:0:
475,192,38695,1,0,0:0:0:0:
36,192,38778,1,0,0:0:0:0:
182,192,38861,128,0,39195:0:0:0:0:
329,192,38861,1,0,0:0:0:0:
402,192,38945,1,0,0:0:0:0:
329,192,39028,128,0,39278:0:0:0:0:
109,192,39028,1,0,0:0:0:0:
256,192,39111,1,0,0:0:0:0:
36,192,39195,128,0,39361:0:0:0:0:
475,192,39195,1,0,0:0:0:0:
402,192,39195,1,0,0:0:0:0:
182,192,39278,1,0,0:0:0:0:
109,192,39361,128,0,39528:0:0:0:0:
329,192,39361,1,0,0:0:0:0:
402,192,39445,1,0,0:0:0:0:
182,192,39528,128,0,39778:0:0:0:0:
475,192,39528,1,0,0:0:0:0:
36,192,39611,1,0,0:0:0:0:
256,192,39695,128,0,39945:0:0:0:0:
109,192,39695,1,0,0:0:0:0:
402,192,39778,1,0,0:0:0:0:
416,192,39861,128,0,40028:0:0:0:0:
475,192,39861,1,0,0:0:0:0:
224,192,39861,1,0,0:0:0:0:
36,192,39945,1,0,0:0:0:0:
480,192,40028,128,0,40195:0:0:0:0:
256,192,40028,1,0,0:0:0:0:
352,192,40028,1,0,0:0:0:0:
182,192,40195,1,0,0:0:0:0:
416,192,40195,1,0,0:0:0:0:
352,192,40278,128,0,40445:0:0:0:0:
475,192,40361,1,0,0:0:0:0:
224,192,40445,128,0,40695:0:0:0:0:
256,192,40445,1,0,0:0:0:0:
402,192,40528,1,0,0:0:0:0:
160,192,40528,1,0,0:0:0:0:
36,192,40570,1,0,0:0:0:0:
329,192,40611,1,0,0:0:0:0:
475,192,40653,1,0,0:0:0:0:
96,192,40695,128,0,40861:0:0:0:0:
402,192,40778,1,0,0:0:0:0:
182,192,40861,128,0,41028:0:0:0:0:
329,192,40861,1,0,0:0:0:0:
36,192,40945,1,0,0:0:0:0:
96,192,40945,1,0,0:0:0:0:
480,192,40945,1,0,0:0:0:0:
224,192,41028,128,0,41195:0:0:0:0:
416,192,41028,1,0,0:0:0:0:
480,192,41028,1,0,0:0:0:0:
329,192,41111,1,0,0:0:0:0:
160,192,41111,1,0,0:0:0:0:
416,192,41111,1,0,0:0:0:0:
36,192,41195,128,0,41361:0:0:0:0:
256,192,41195,1,0,0:0:0:0:
480,192,41195,1,0,0:0:0:0:
352,192,41195,1,0,0:0:0:0:
402,192,41278,1,0,0:0:0:0:
224,192,41278,1,0,0:0:0:0:
480,192,41278,1,0,0:0:0:0:
182,192,41361,128,0,41528:0:0:0:0:
329,192,41361,1,0,0:0:0:0:
416,192,41361,1,0,0:0:0:0:
109,192,41445,1,0,0:0:0:0:
480,192,41445,1,0,0:0:0:0:
352,192,41445,1,0,0:0:0:0:
256,192,41528,128,0,41695:0:0:0:0:
36,192,41528,1,0,0:0:0:0:
416,192,41528,1,0,0:0:0:0:
475,192,41611,1,0,0:0:0:0:
352,192,41611,1,0,0:0:0:0:
402,192,41695,128,0,41861:0:0:0:0:
182,192,41695,1,0,0:0:0:0:
109,192,41778,1,0,0:0:0:0:
475,192,41861,128,0,42028:0:0:0:0:
329,192,41861,1,0,0:0:0:0:
160,192,41861,1,0,0:0:0:0:
36,192,41945,1,0,0:0:0:0:
224,192,41945,1,0,0:0:0:0:
96,192,41945,1,0,0:0:0:0:
256,192,41986,1,0,0:0:0:0:
402,192,42028,128,0,42195:0:0:0:0:
109,192,42028,1,0,0:0:0:0:
160,192,42028,1,0,0:0:0:0:
182,192,42111,1,0,0:0:0:0:
329,192,42195,128,0,42361:0:0:0:0:
475,192,42195,1,0,0:0:0:0:
224,192,42195,1,0,0:0:0:0:
96,192,42195,1,0,0:0:0:0:
36,192,42278,1,0,0:0:0:0:
96,192,42278,1,0,0:0:0:0:
224,192,42361,128,0,42528:0:0:0:0:
182,192,42361,1,0,0:0:0:0:
480,192,42361,1,0,0:0:0:0:
402,192,42445,1,0,0:0:0:0:
288,192,42445,1,0,0:0:0:0:
329,192,42528,128,0,42695:0:0:0:0:
36,192,42528,1,0,0:0:0:0:
96,192,42528,1,0,0:0:0:0:
475,192,42611,1,0,0:0:0:0:
160,192,42611,1,0,0:0:0:0:
288,192,42695,128,0,42861:0:0:0:0:
480,192,42695,1,0,0:0:0:0:
224,192,42695,1,0,0:0:0:0:
96,192,42778,1,0,0:0:0:0:
475,192,42861,128,0,43028:0:0:0:0:
36,192,42861,1,0,0:0:0:0:
160,192,42861,1,0,0:0:0:0:
329,192,42945,1,0,0:0:0:0:
224,192,42945,1,0,0:0:0:0:
96,192,42945,1,0,0:0:0:0:
402,192,43028,128,0,43195:0:0:0:0:
256,192,43028,1,0,0:0:0:0:
96,192,43028,1,0,0:0:0:0:
224,192,43028,1,0,0:0:0:0:
160,192,43111,1,0,0:0:0:0:
288,192,43111,1,0,0:0:0:0:
36,192,43195,128,0,43361:0:0:0:0:
224,192,43195,1,0,0:0:0:0:
329,192,43236,1,0,0:0:0:0:
109,192,43278,1,0,0:0:0:0:
256,192,43320,1,0,0:0:0:0:
475,192,43361,128,0,43528:0:0:0:0:
402,192,43361,1,0,0:0:0:0:
182,192,43403,1,0,0:0:0:0:
329,192,43445,1,0,0:0:0:0:
224,192,43445,1,0,0:0:0:0:
36,192,43486,1,0,0:0:0:0:
109,192,43528,128,0,43695:0:0:0:0:
256,192,43528,1,0,0:0:0:0:
352,192,43528,1,0,0:0:0:0:
182,192,43570,1,0,0:0:0:0:
329,192,43611,1,0,0:0:0:0:
475,192,43653,1,0,0:0:0:0:
402,192,43695,128,0,43861:0:0:0:0:
36,192,43695,1,0,0:0:0:0:
256,192,43736,1,0,0:0:0:0:
329,192,43778,1,0,0:0:0:0:
109,192,43820,1,0,0:0:0:0:
36,192,43861,128,0,44028:0:0:0:0:
182,192,43861,1,0,0:0:0:0:
329,192,43903,1,0,0:0:0:0:
402,192,43945,1,0,0:0:0:0:
224,192,43945,1,0,0:0:0:0:
109,192,43986,1,0,0:0:0:0:
475,192,44028,128,0,44195:0:0:0:0:
256,192,44028,1,0,0:0:0:0:
224,192,44028,1,0,0:0:0:0:
329,192,44070,1,0,0:0:0:0:
36,192,44111,1,0,0:0:0:0:
288,192,44111,1,0,0:0:0:0:
109,192,44153,1,0,0:0:0:0:
182,192,44195,128,0,44361:0:0:0:0:
402,192,44195,1,0,0:0:0:0:
352,192,44195,1,0,0:0:0:0:
402,192,44278,1,0,0:0:0:0:
36,192,44361,128,0,44528:0:0:0:0:
256,192,44528,1,0,0:0:0:0:
402,192,44528,1,0,0:0:0:0:
96,192,44528,128,0,44945:0:0:0:0:
224,192,44528,128,0,44945:0:0:0:0:
329,192,44695,1,0,0:0:0:0:
475,192,44861,1,0,0:0:0:0:
256,192,44861,1,0,0:0:0:0:
402,192,44861,1,0,0:0:0:0:
182,192,45028,1,0,0:0:0:0:
109,192,45028,1,0,0:0:0:0:
36,192,45028,1,0,0:0:0:0:
480,192,45028,128,0,46528:0:0:0:0:
352,192,45028,128,0,46528:0:0:0:0:
224,192,45028,1,0,0:0:0:0:
256,192,45195,1,0,0:0:0:0:
402,192,45195,1,0,0:0:0:0:
96,192,45195,1,0,0:0:0:0:
224,192,45195,1,0,0:0:0:0:
182,192,45361,1,0,0:0:0:0:
36,192,45528,1,0,0:0:0:0:
96,192,45528,1,0,0:0:0:0:
224,192,45528,1,0,0:0:0:0:
160,192,45695,1,0,0:0:0:0:
256,192,45861,1,0,0:0:0:0:
402,192,45861,1,0,0:0:0:0:
96,192,45861,1,0,0:0:0:0:
224,192,45861,1,0,0:0:0:0:
182,192,46028,1,0,0:0:0:0:
224,192,46028,1,0,0:0:0:0:
109,192,46195,1,0,0:0:0:0:
224,192,46195,1,0,0:0:0:0:
288,192,46195,1,0,0:0:0:0:
256,192,46361,1,0,0:0:0:0:
160,192,46361,1,0,0:0:0:0:
36,192,46528,1,0,0:0:0:0:
224,192,46528,1,0,0:0:0:0:
288,192,46528,1,0,0:0:0:0:
96,192,46528,1,0,0:0:0:0:
182,192,46695,1,0,0:0:0:0:
352,192,46695,1,0,0:0:0:0:
416,192,46695,1,0,0:0:0:0:
256,192,46861,1,0,0:0:0:0:
109,192,46861,1,0,0:0:0:0:
475,192,46861,1,0,0:0:0:0:
224,192,46861,1,0,0:0:0:0:
352,192,46861,1,0,0:0:0:0:
160,192,46945,1,0,0:0:0:0:
36,192,47028,1,0,0:0:0:0:
480,192,47028,1,0,0:0:0:0:
288,192,47028,1,0,0:0:0:0:
416,192,47028,1,0,0:0:0:0:
96,192,47028,1,0,0:0:0:0:
224,192,47028,1,0,0:0:0:0:
36,192,47195,1,0,0:0:0:0:
109,192,47195,1,0,0:0:0:0:
224,192,47195,1,0,0:0:0:0:
352,192,47195,1,0,0:0:0:0:
182,192,47361,1,0,0:0:0:0:
96,192,47361,1,0,0:0:0:0:
352,192,47361,1,0,0:0:0:0:
256,192,47528,1,0,0:0:0:0:
109,192,47528,1,0,0:0:0:0:
475,192,47528,1,0,0:0:0:0:
329,192,47528,1,0,0:0:0:0:
36,192,47528,1,0,0:0:0:0:
329,192,47695,1,0,0:0:0:0:
182,192,47695,1,0,0:0:0:0:
402,192,47695,1,0,0:0:0:0:
288,192,47695,1,0,0:0:0:0:
109,192,47861,1,0,0:0:0:0:
475,192,47861,1,0,0:0:0:0:
288,192,47861,1,0,0:0:0:0:
416,192,47861,1,0,0:0:0:0:
329,192,48028,1,0,0:0:0:0:
224,192,48028,1,0,0:0:0:0:
182,192,48195,1,0,0:0:0:0:
36,192,48195,1,0,0:0:0:0:
224,192,48195,1,0,0:0:0:0:
416,192,48195,1,0,0:0:0:0:
480,192,48195,1,0,0:0:0:0:
256,192,48361,1,0,0:0:0:0:
416,192,48361,1,0,0:0:0:0:
109,192,48528,1,0,0:0:0:0:
36,192,48528,1,0,0:0:0:0:
329,192,48528,1,0,0:0:0:0:
475,192,48528,1,0,0:0:0:0:
288,192,48528,1,0,0:0:0:0:
402,192,48695,1,0,0:0:0:0:
160,192,48695,1,0,0:0:0:0:
256,192,48861,1,0,0:0:0:0:
109,192,48861,1,0,0:0:0:0:
475,192,48861,1,0,0:0:0:0:
160,192,48861,1,0,0:0:0:0:
224,192,48861,1,0,0:0:0:0:
182,192,49028,1,0,0:0:0:0:
329,192,49195,1,0,0:0:0:0:
36,192,49195,1,0,0:0:0:0:
160,192,49195,1,0,0:0:0:0:
96,192,49195,1,0,0:0:0:0:
256,192,49361,1,0,0:0:0:0:
224,192,49361,1,0,0:0:0:0:
160,192,49361,1,0,0:0:0:0:
182,192,49528,1,0,0:0:0:0:
475,192,49528,1,0,0:0:0:0:
36,192,49528,1,0,0:0:0:0:
224,192,49528,1,0,0:0:0:0:
402,192,49695,1,0,0:0:0:0:
109,192,49695,1,0,0:0:0:0:
224,192,49695,1,0,0:0:0:0:
109,192,49861,1,0,0:0:0:0:
36,192,49861,1,0,0:0:0:0:
475,192,49861,1,0,0:0:0:0:
329,192,49861,1,0,0:0:0:0:
416,192,49861,1,0,0:0:0:0:
224,192,49861,1,0,0:0:0:0:
109,192,50028,1,0,0:0:0:0:
402,192,50028,1,0,0:0:0:0:
160,192,50028,1,0,0:0:0:0:
182,192,50195,1,0,0:0:0:0:
36,192,50195,1,0,0:0:0:0:
256,192,50195,1,0,0:0:0:0:
329,192,50195,1,0,0:0:0:0:
475,192,50195,1,0,0:0:0:0:
224,192,50195,1,0,0:0:0:0:
96,192,50195,1,0,0:0:0:0:
109,192,50361,1,0,0:0:0:0:
256,192,50361,1,0,0:0:0:0:
475,192,50361,1,0,0:0:0:0:
224,192,50361,1,0,0:0:0:0:
402,192,50528,1,0,0:0:0:0:
182,192,50528,1,0,0:0:0:0:
329,192,50695,1,0,0:0:0:0:
182,192,50861,1,0,0:0:0:0:
109,192,50861,1,0,0:0:0:0:
36,192,50861,1,0,0:0:0:0:
256,192,50861,1,0,0:0:0:0:
402,192,50861,1,0,0:0:0:0:
475,192,50861,1,0,0:0:0:0:
329,192,51028,1,0,0:0:0:0:
224,192,51028,1,0,0:0:0:0:
160,192,51028,1,0,0:0:0:0:
96,192,51028,1,0,0:0:0:0:
182,192,51195,1,0,0:0:0:0:
402,192,51195,1,0,0:0:0:0:
352,192,51195,1,0,0:0:0:0:
480,192,51195,1,0,0:0:0:0:
480,192,51278,1,0,0:0:0:0:
256,192,51361,1,0,0:0:0:0:
224,192,51361,1,0,0:0:0:0:
36,192,51528,1,0,0:0:0:0:
182,192,51528,1,0,0:0:0:0:
475,192,51528,1,0,0:0:0:0:
96,192,51528,1,0,0:0:0:0:
416,192,51528,1,0,0:0:0:0:
329,192,51695,1,0,0:0:0:0:
288,192,51695,1,0,0:0:0:0:
109,192,51861,1,0,0:0:0:0:
256,192,51861,1,0,0:0:0:0:
160,192,51861,1,0,0:0:0:0:
224,192,51861,1,0,0:0:0:0:
32,192,51861,1,0,0:0:0:0:
402,192,52028,1,0,0:0:0:0:
160,192,52028,1,0,0:0:0:0:
329,192,52195,1,0,0:0:0:0:
109,192,52195,1,0,0:0:0:0:
475,192,52195,1,0,0:0:0:0:
32,192,52195,1,0,0:0:0:0:
224,192,52195,1,0,0:0:0:0:
288,192,52195,1,0,0:0:0:0:
182,192,52361,1,0,0:0:0:0:
416,192,52361,1,0,0:0:0:0:
480,192,52445,1,0,0:0:0:0:
109,192,52528,1,0,0:0:0:0:
36,192,52528,1,0,0:0:0:0:
256,192,52528,1,0,0:0:0:0:
402,192,52528,1,0,0:0:0:0:
329,192,52695,1,0,0:0:0:0:
288,192,52695,1,0,0:0:0:0:
475,192,52861,1,0,0:0:0:0:
36,192,52861,1,0,0:0:0:0:
256,192,52861,1,0,0:0:0:0:
352,192,52861,1,0,0:0:0:0:
182,192,53028,1,0,0:0:0:0:
402,192,53028,1,0,0:0:0:0:
352,192,53028,1,0,0:0:0:0:
329,192,53195,1,0,0:0:0:0:
475,192,53195,1,0,0:0:0:0:
288,192,53195,1,0,0:0:0:0:
224,192,53195,1,0,0:0:0:0:
96,192,53195,1,0,0:0:0:0:
182,192,53361,1,0,0:0:0:0:
96,192,53361,1,0,0:0:0:0:
224,192,53445,1,0,0:0:0:0:
256,192,53528,1,0,0:0:0:0:
109,192,53528,1,0,0:0:0:0:
402,192,53528,1,0,0:0:0:0:
475,192,53528,1,0,0:0:0:0:
36,192,53528,1,0,0:0:0:0:
329,192,53695,1,0,0:0:0:0:
416,192,53695,1,0,0:0:0:0:
182,192,53861,1,0,0:0:0:0:
402,192,53861,1,0,0:0:0:0:
288,192,53861,1,0,0:0:0:0:
224,192,53861,1,0,0:0:0:0:
32,192,53861,1,0,0:0:0:0:
96,192,53861,1,0,0:0:0:0:
256,192,54028,1,0,0:0:0:0:
352,192,54028,1,0,0:0:0:0:
480,192,54028,1,0,0:0:0:0:
36,192,54195,1,0,0:0:0:0:
182,192,54195,1,0,0:0:0:0:
475,192,54195,1,0,0:0:0:0:
352,192,54195,1,0,0:0:0:0:
416,192,54195,1,0,0:0:0:0:
329,192,54361,1,0,0:0:0:0:
288,192,54361,1,0,0:0:0:0:
224,192,54361,1,0,0:0:0:0:
109,192,54528,1,0,0:0:0:0:
402,192,54528,1,0,0:0:0:0:
224,192,54528,1,0,0:0:0:0:
352,192,54528,1,0,0:0:0:0:
288,192,54528,1,0,0:0:0:0:
256,192,54695,1,0,0:0:0:0:
416,192,54695,1,0,0:0:0:0:
36,192,54861,1,0,0:0:0:0:
182,192,54861,1,0,0:0:0:0:
329,192,54861,1,0,0:0:0:0:
416,192,54861,1,0,0:0:0:0:
475,192,55028,1,0,0:0:0:0:
224,192,55028,1,0,0:0:0:0:
352,192,55028,1,0,0:0:0:0:
182,192,55195,1,0,0:0:0:0:
256,192,55195,1,0,0:0:0:0:
109,192,55195,1,0,0:0:0:0:
36,192,55195,1,0,0:0:0:0:
402,192,55195,1,0,0:0:0:0:
329,192,55195,1,0,0:0:0:0:
475,192,55361,1,0,0:0:0:0:
224,192,55361,1,0,0:0:0:0:
402,192,55528,1,0,0:0:0:0:
256,192,55528,1,0,0:0:0:0:
329,192,55528,1,0,0:0:0:0:
96,192,55528,1,0,0:0:0:0:
32,192,55528,1,0,0:0:0:0:
182,192,55695,1,0,0:0:0:0:
109,192,55695,1,0,0:0:0:0:
475,192,55695,1,0,0:0:0:0:
224,192,55695,1,0,0:0:0:0:
256,192,55861,1,0,0:0:0:0:
402,192,55861,1,0,0:0:0:0:
352,192,55861,1,0,0:0:0:0:
32,192,55861,1,0,0:0:0:0:
224,192,55945,1,0,0:0:0:0:
109,192,56028,1,0,0:0:0:0:
182,192,56195,1,0,0:0:0:0:
329,192,56195,1,0,0:0:0:0:
475,192,56195,1,0,0:0:0:0:
224,192,56195,1,0,0:0:0:0:
288,192,56195,1,0,0:0:0:0:
36,192,56361,1,0,0:0:0:0:
160,192,56361,1,0,0:0:0:0:
109,192,56528,1,0,0:0:0:0:
402,192,56528,1,0,0:0:0:0:
160,192,56528,1,0,0:0:0:0:
224,192,56528,1,0,0:0:0:0:
256,192,56695,1,0,0:0:0:0:
416,192,56695,1,0,0:0:0:0:
329,192,56861,1,0,0:0:0:0:
36,192,56861,1,0,0:0:0:0:
475,192,56861,1,0,0:0:0:0:
288,192,56861,1,0,0:0:0:0:
96,192,56861,1,0,0:0:0:0:
160,192,56861,1,0,0:0:0:0:
182,192,57028,1,0,0:0:0:0:
224,192,57028,1,0,0:0:0:0:
416,192,57028,1,0,0:0:0:0:
36,192,57195,1,0,0:0:0:0:
402,192,57195,1,0,0:0:0:0:
288,192,57195,1,0,0:0:0:0:
352,192,57195,1,0,0:0:0:0:
256,192,57361,1,0,0:0:0:0:
224,192,57361,1,0,0:0:0:0:
109,192,57528,1,0,0:0:0:0:
329,192,57528,1,0,0:0:0:0:
475,192,57528,1,0,0:0:0:0:
224,192,57528,1,0,0:0:0:0:
288,192,57528,1,0,0:0:0:0:
402,192,57695,1,0,0:0:0:0:
36,192,57695,1,0,0:0:0:0:
352,192,57695,1,0,0:0:0:0:
288,192,57695,1,0,0:0:0:0:
36,192,57861,1,0,0:0:0:0:
109,192,57861,1,0,0:0:0:0:
329,192,57861,1,0,0:0:0:0:
475,192,57861,1,0,0:0:0:0:
224,192,57861,1,0,0:0:0:0:
182,192,58028,1,0,0:0:0:0:
402,192,58028,1,0,0:0:0:0:
352,192,58028,1,0,0:0:0:0:
256,192,58195,1,0,0:0:0:0:
109,192,58195,1,0,0:0:0:0:
36,192,58195,1,0,0:0:0:0:
475,192,58195,1,0,0:0:0:0:
329,192,58195,1,0,0:0:0:0:
182,192,58361,1,0,0:0:0:0:
329,192,58361,1,0,0:0:0:0:
402,192,58361,1,0,0:0:0:0:
256,192,58528,1,0,0:0:0:0:
475,192,58528,1,0,0:0:0:0:
224,192,58528,1,0,0:0:0:0:
32,192,58528,1,0,0:0:0:0:
96,192,58528,1,0,0:0:0:0:
109,192,58695,1,0,0:0:0:0:
160,192,58695,1,0,0:0:0:0:
182,192,58861,1,0,0:0:0:0:
329,192,58861,1,0,0:0:0:0:
36,192,58861,1,0,0:0:0:0:
224,192,58861,1,0,0:0:0:0:
402,192,59028,1,0,0:0:0:0:
352,192,59028,1,0,0:0:0:0:
160,192,59028,1,0,0:0:0:0:
109,192,59195,1,0,0:0:0:0:
182,192,59195,1,0,0:0:0:0:
329,192,59195,1,0,0:0:0:0:
475,192,59195,1,0,0:0:0:0:
288,192,59195,1,0,0:0:0:0:
256,192,59361,1,0,0:0:0:0:
352,192,59361,1,0,0:0:0:0:
36,192,59528,1,0,0:0:0:0:
182,192,59528,1,0,0:0:0:0:
475,192,59528,1,0,0:0:0:0:
352,192,59528,1,0,0:0:0:0:
288,192,59528,1,0,0:0:0:0:
224,192,59528,1,0,0:0:0:0:
329,192,59695,1,0,0:0:0:0:
109,192,59861,1,0,0:0:0:0:
402,192,59861,1,0,0:0:0:0:
160,192,59861,1,0,0:0:0:0:
224,192,59861,1,0,0:0:0:0:
288,192,59861,1,0,0:0:0:0:
32,192,59861,1,0,0:0:0:0:
352,192,59945,1,0,0:0:0:0:
256,192,60028,1,0,0:0:0:0:
416,192,60028,1,0,0:0:0:0:
182,192,60195,1,0,0:0:0:0:
402,192,60195,1,0,0:0:0:0:
36,192,60195,1,0,0:0:0:0:
224,192,60195,1,0,0:0:0:0:
288,192,60195,1,0,0:0:0:0:
352,192,60195,1,0,0:0:0:0:
109,192,60361,1,0,0:0:0:0:
329,192,60361,1,0,0:0:0:0:
109,192,60528,1,0,0:0:0:0:
36,192,60528,1,0,0:0:0:0:
475,192,60528,1,0,0:0:0:0:
256,192,60528,1,0,0:0:0:0:
224,192,60528,1,0,0:0:0:0:
160,192,60528,1,0,0:0:0:0:
109,192,60695,1,0,0:0:0:0:
402,192,60695,1,0,0:0:0:0:
182,192,60861,1,0,0:0:0:0:
329,192,60861,1,0,0:0:0:0:
475,192,60861,1,0,0:0:0:0:
36,192,60861,1,0,0:0:0:0:
256,192,61028,1,0,0:0:0:0:
36,192,61028,1,0,0:0:0:0:
402,192,61028,1,0,0:0:0:0:
329,192,61195,1,0,0:0:0:0:
182,192,61195,1,0,0:0:0:0:
402,192,61361,1,0,0:0:0:0:
288,192,61361,1,0,0:0:0:0:
224,192,61361,1,0,0:0:0:0:
96,192,61361,1,0,0:0:0:0:
182,192,61528,1,0,0:0:0:0:
109,192,61528,1,0,0:0:0:0:
36,192,61528,1,0,0:0:0:0:
329,192,61528,1,0,0:0:0:0:
256,192,61528,1,0,0:0:0:0:
475,192,61528,1,0,0:0:0:0:
402,192,61695,1,0,0:0:0:0:
224,192,61695,1,0,0:0:0:0:
182,192,61861,1,0,0:0:0:0:
329,192,61861,1,0,0:0:0:0:
288,192,61861,1,0,0:0:0:0:
32,192,61861,1,0,0:0:0:0:
96,192,61861,1,0,0:0:0:0:
224,192,62028,1,0,0:0:0:0:
288,192,62028,1,0,0:0:0:0:
109,192,62195,1,0,0:0:0:0:
256,192,62195,1,0,0:0:0:0:
475,192,62195,1,0,0:0:0:0:
329,192,62361,1,0,0:0:0:0:
182,192,62528,1,0,0:0:0:0:
256,192,62695,1,0,0:0:0:0:
109,192,62861,1,0,0:0:0:0:
329,192,62861,1,0,0:0:0:0:
475,192,62861,1,0,0:0:0:0:
36,192,63028,1,0,0:0:0:0:
402,192,63028,1,0,0:0:0:0:
182,192,63111,1,0,0:0:0:0:
36,192,63195,1,0,0:0:0:0:
109,192,63195,1,0,0:0:0:0:
329,192,63195,1,0,0:0:0:0:
475,192,63195,1,0,0:0:0:0:
182,192,63361,1,0,0:0:0:0:
402,192,63361,1,0,0:0:0:0:
256,192,63528,1,0,0:0:0:0:
109,192,63528,1,0,0:0:0:0:
475,192,63528,1,0,0:0:0:0:
329,192,63528,1,0,0:0:0:0:
36,192,63528,1,0,0:0:0:0:
329,192,63695,1,0,0:0:0:0:
182,192,63695,1,0,0:0:0:0:
402,192,63695,1,0,0:0:0:0:
256,192,63861,1,0,0:0:0:0:
475,192,63861,1,0,0:0:0:0:
329,192,64028,1,0,0:0:0:0:
109,192,64195,1,0,0:0:0:0:
182,192,64195,1,0,0:0:0:0:
36,192,64195,1,0,0:0:0:0:
402,192,64195,1,0,0:0:0:0:
256,192,64195,1,0,0:0:0:0:
475,192,64195,1,0,0:0:0:0:
329,192,64361,1,0,0:0:0:0:
256,192,64528,1,0,0:0:0:0:
36,192,64528,1,0,0:0:0:0:
96,192,65861,128,0,68361:0:0:0:0:
160,192,65861,128,0,66278:0:0:0:0:
288,192,65861,128,0,68695:0:0:0:0:
352,192,65861,128,0,68278:0:0:0:0:
36,192,66028,1,0,0:0:0:0:
475,192,66195,1,0,0:0:0:0:
36,192,66361,1,0,0:0:0:0:
160,192,66361,128,0,68445:0:0:0:0:
416,192,66361,128,0,68361:0:0:0:0:
475,192,66528,1,0,0:0:0:0:
36,192,66695,1,0,0:0:0:0:
475,192,66861,1,0,0:0:0:0:
36,192,67028,1,0,0:0:0:0:
475,192,67195,1,0,0:0:0:0:
36,192,67361,1,0,0:0:0:0:
475,192,67528,1,0,0:0:0:0:
36,192,67695,1,0,0:0:0:0:
475,192,67861,1,0,0:0:0:0:
36,192,68028,1,0,0:0:0:0:
475,192,68195,1,0,0:0:0:0:
36,192,68361,1,0,0:0:0:0:
352,192,68361,1,0,0:0:0:0:
416,192,68445,128,0,69861:0:0:0:0:
475,192,68528,1,0,0:0:0:0:
96,192,68528,128,0,68778:0:0:0:0:
352,192,68528,128,0,68945:0:0:0:0:
36,192,68695,1,0,0:0:0:0:
160,192,68695,128,0,68945:0:0:0:0:
475,192,68861,1,0,0:0:0:0:
256,192,68861,1,0,0:0:0:0:
96,192,68861,128,0,71111:0:0:0:0:
36,192,69028,1,0,0:0:0:0:
352,192,69028,128,0,69861:0:0:0:0:
160,192,69028,128,0,69778:0:0:0:0:
475,192,69195,1,0,0:0:0:0:
36,192,69361,1,0,0:0:0:0:
475,192,69528,1,0,0:0:0:0:
36,192,69695,1,0,0:0:0:0:
475,192,69861,1,0,0:0:0:0:
160,192,69861,128,0,71195:0:0:0:0:
288,192,69861,128,0,71445:0:0:0:0:
36,192,70028,1,0,0:0:0:0:
475,192,70195,1,0,0:0:0:0:
36,192,70361,1,0,0:0:0:0:
475,192,70528,1,0,0:0:0:0:
36,192,70695,1,0,0:0:0:0:
475,192,70861,1,0,0:0:0:0:
36,192,71028,1,0,0:0:0:0:
329,192,71028,1,0,0:0:0:0:
402,192,71111,1,0,0:0:0:0:
475,192,71195,1,0,0:0:0:0:
96,192,71195,128,0,71611:0:0:0:0:
224,192,71195,128,0,72195:0:0:0:0:
36,192,71361,1,0,0:0:0:0:
182,192,71361,1,0,0:0:0:0:
475,192,71528,1,0,0:0:0:0:
256,192,71528,1,0,0:0:0:0:
402,192,71528,1,0,0:0:0:0:
36,192,71695,1,0,0:0:0:0:
329,192,71695,1,0,0:0:0:0:
109,192,71695,1,0,0:0:0:0:
475,192,71861,1,0,0:0:0:0:
36,192,72028,1,0,0:0:0:0:
475,192,72195,1,0,0:0:0:0:
182,192,72195,1,0,0:0:0:0:
329,192,72195,1,0,0:0:0:0:
402,192,72195,1,0,0:0:0:0:
36,192,72361,1,0,0:0:0:0:
475,192,72528,1,0,0:0:0:0:
36,192,72695,1,0,0:0:0:0:
475,192,72861,1,0,0:0:0:0:
36,192,73028,1,0,0:0:0:0:
475,192,73195,1,0,0:0:0:0:
36,192,73361,1,0,0:0:0:0:
475,192,73528,1,0,0:0:0:0:
36,192,73695,1,0,0:0:0:0:
160,192,73861,128,0,74778:0:0:0:0:
352,192,73861,128,0,74861:0:0:0:0:
416,192,74361,128,0,74861:0:0:0:0:
475,192,74861,1,0,0:0:0:0:
329,192,79028,1,0,0:0:0:0:
475,192,79111,1,0,0:0:0:0:
329,192,79195,1,0,0:0:0:0:
36,192,79195,1,0,0:0:0:0:
109,192,79361,1,0,0:0:0:0:
182,192,79528,1,0,0:0:0:0:
402,192,79528,1,0,0:0:0:0:
256,192,79695,1,0,0:0:0:0:
475,192,79695,1,0,0:0:0:0:
109,192,80528,1,0,0:0:0:0:
402,192,81695,1,0,0:0:0:0:
475,192,81778,1,0,0:0:0:0:
402,192,81861,1,0,0:0:0:0:
109,192,81861,1,0,0:0:0:0:
182,192,82028,1,0,0:0:0:0:
256,192,82195,1,0,0:0:0:0:
329,192,82361,1,0,0:0:0:0:
109,192,82361,1,0,0:0:0:0:
182,192,82861,1,0,0:0:0:0:
36,192,82861,1,0,0:0:0:0:
402,192,82861,1,0,0:0:0:0:
329,192,84361,1,0,0:0:0:0:
402,192,84445,1,0,0:0:0:0:
329,192,84528,1,0,0:0:0:0:
36,192,84528,1,0,0:0:0:0:
109,192,84695,1,0,0:0:0:0:
182,192,84861,1,0,0:0:0:0:
256,192,85028,1,0,0:0:0:0:
402,192,85028,1,0,0:0:0:0:
475,192,85028,1,0,0:0:0:0:
402,192,85528,1,0,0:0:0:0:
329,192,85528,1,0,0:0:0:0:
109,192,85528,1,0,0:0:0:0:
224,192,87195,128,0,103361:0:0:0:0:
256,192,87195,128,0,103361:0:0:0:0:
402,192,87195,128,0,90028:0:0:0:0:
109,192,87195,128,0,90028:0:0:0:0:
32,192,87195,128,0,90028:0:0:0:0:
182,192,90028,128,0,92695:0:0:0:0:
329,192,90028,128,0,92695:0:0:0:0:
96,192,92695,128,0,98028:0:0:0:0:
416,192,92695,128,0,98028:0:0:0:0:
475,192,92695,128,0,98028:0:0:0:0:
36,192,92695,128,0,98028:0:0:0:0:
329,192,98028,128,0,100695:0:0:0:0:
182,192,98028,128,0,100695:0:0:0:0:
109,192,100695,128,0,103361:0:0:0:0:
402,192,100695,128,0,103361:0:0:0:0:
36,192,103361,128,0,108528:0:0:0:0:
475,192,103361,128,0,108528:0:0:0:0:
182,192,108528,5,0,0:0:0:0:
329,192,108528,1,0,0:0:0:0:
256,192,108528,128,0,108695:0:0:0:0:
352,192,108695,128,0,108861:0:0:0:0:
224,192,108695,128,0,108861:0:0:0:0:
416,192,108861,128,0,109028:0:0:0:0:
288,192,108861,128,0,109028:0:0:0:0:
352,192,109028,128,0,109195:0:0:0:0:
480,192,109028,128,0,109195:0:0:0:0:
416,192,109195,128,0,109361:0:0:0:0:
288,192,109195,128,0,109361:0:0:0:0:
224,192,109361,128,0,109528:0:0:0:0:
96,192,109361,128,0,109528:0:0:0:0:
160,192,109528,128,0,109695:0:0:0:0:
32,192,109528,128,0,109695:0:0:0:0:
96,192,109695,128,0,109861:0:0:0:0:
224,192,109695,128,0,109861:0:0:0:0:
160,192,109861,128,0,110028:0:0:0:0:
288,192,109861,128,0,110028:0:0:0:0:
224,192,110028,128,0,110195:0:0:0:0:
352,192,110028,128,0,110195:0:0:0:0:
288,192,110195,128,0,110361:0:0:0:0:
160,192,110195,128,0,110361:0:0:0:0:
224,192,110361,128,0,110528:0:0:0:0:
352,192,110361,128,0,110528:0:0:0:0:
256,192,110528,128,0,110695:0:0:0:0:
160,192,110528,128,0,110695:0:0:0:0:
224,192,110695,128,0,110861:0:0:0:0:
96,192,110695,128,0,110861:0:0:0:0:
160,192,110861,128,0,111028:0:0:0:0:
32,192,110861,128,0,111028:0:0:0:0:
96,192,111028,128,0,111195:0:0:0:0:
224,192,111028,128,0,111195:0:0:0:0:
160,192,111195,128,0,111361:0:0:0:0:
32,192,111195,128,0,111361:0:0:0:0:
96,192,111361,128,0,111528:0:0:0:0:
224,192,111361,128,0,111528:0:0:0:0:
160,192,111528,128,0,111695:0:0:0:0:
288,192,111528,128,0,111695:0:0:0:0:
224,192,111695,128,0,111861:0:0:0:0:
475,192,111861,128,0,112028:0:0:0:0:
352,192,111861,128,0,112028:0:0:0:0:
96,192,111861,128,0,112028:0:0:0:0:
402,192,112028,128,0,112195:0:0:0:0:
288,192,112028,128,0,112195:0:0:0:0:
160,192,112028,128,0,112195:0:0:0:0:
224,192,112195,128,0,112361:0:0:0:0:
352,192,112195,128,0,112361:0:0:0:0:
480,192,112195,128,0,112361:0:0:0:0:
96,192,112195,128,0,112361:0:0:0:0:
160,192,112361,128,0,112528:0:0:0:0:
288,192,112361,128,0,112528:0:0:0:0:
416,192,112361,128,0,112528:0:0:0:0:
224,192,112528,128,0,112695:0:0:0:0:
256,192,112695,128,0,112861:0:0:0:0:
109,192,112861,128,0,113028:0:0:0:0:
329,192,113028,128,0,113195:0:0:0:0:
182,192,113195,128,0,113361:0:0:0:0:
402,192,113361,128,0,113528:0:0:0:0:
256,192,113528,128,0,113695:0:0:0:0:
475,192,113695,128,0,113861:0:0:0:0:
36,192,113861,5,0,0:0:0:0:
329,192,113861,128,0,114028:0:0:0:0:
109,192,113945,1,0,0:0:0:0:
256,192,114028,1,0,0:0:0:0:
402,192,114028,128,0,114195:0:0:0:0:
160,192,114028,1,0,0:0:0:0:
36,192,114111,1,0,0:0:0:0:
224,192,114111,1,0,0:0:0:0:
182,192,114195,1,0,0:0:0:0:
475,192,114195,128,0,114361:0:0:0:0:
256,192,114278,1,0,0:0:0:0:
96,192,114278,1,0,0:0:0:0:
36,192,114361,1,0,0:0:0:0:
402,192,114361,128,0,114528:0:0:0:0:
160,192,114361,1,0,0:0:0:0:
109,192,114445,1,0,0:0:0:0:
224,192,114445,1,0,0:0:0:0:
182,192,114528,1,0,0:0:0:0:
329,192,114528,128,0,114695:0:0:0:0:
475,192,114611,1,0,0:0:0:0:
96,192,114611,1,0,0:0:0:0:
36,192,114695,1,0,0:0:0:0:
256,192,114695,128,0,114861:0:0:0:0:
160,192,114695,1,0,0:0:0:0:
224,192,114778,1,0,0:0:0:0:
402,192,114861,1,0,0:0:0:0:
329,192,114861,128,0,115028:0:0:0:0:
160,192,114861,1,0,0:0:0:0:
36,192,114945,1,0,0:0:0:0:
96,192,114945,1,0,0:0:0:0:
402,192,115028,128,0,115111:0:0:0:0:
160,192,115028,1,0,0:0:0:0:
256,192,115111,1,0,0:0:0:0:
475,192,115111,128,0,115361:0:0:0:0:
224,192,115111,1,0,0:0:0:0:
36,192,115195,1,0,0:0:0:0:
160,192,115195,1,0,0:0:0:0:
256,192,115361,1,0,0:0:0:0:
402,192,115361,128,0,115528:0:0:0:0:
96,192,115361,1,0,0:0:0:0:
36,192,115445,1,0,0:0:0:0:
160,192,115445,1,0,0:0:0:0:
109,192,115528,1,0,0:0:0:0:
329,192,115528,128,0,115695:0:0:0:0:
224,192,115528,1,0,0:0:0:0:
475,192,115611,1,0,0:0:0:0:
36,192,115695,1,0,0:0:0:0:
256,192,115695,128,0,115861:0:0:0:0:
160,192,115695,1,0,0:0:0:0:
96,192,115778,1,0,0:0:0:0:
475,192,115861,1,0,0:0:0:0:
329,192,115861,128,0,116028:0:0:0:0:
160,192,115861,1,0,0:0:0:0:
224,192,115945,1,0,0:0:0:0:
256,192,116028,1,0,0:0:0:0:
402,192,116028,128,0,116195:0:0:0:0:
160,192,116028,1,0,0:0:0:0:
36,192,116111,1,0,0:0:0:0:
96,192,116111,1,0,0:0:0:0:
182,192,116195,1,0,0:0:0:0:
475,192,116195,128,0,116361:0:0:0:0:
256,192,116278,1,0,0:0:0:0:
224,192,116278,1,0,0:0:0:0:
329,192,116361,1,0,0:0:0:0:
402,192,116361,128,0,116528:0:0:0:0:
160,192,116361,1,0,0:0:0:0:
36,192,116445,1,0,0:0:0:0:
96,192,116445,1,0,0:0:0:0:
256,192,116528,128,0,116695:0:0:0:0:
160,192,116528,1,0,0:0:0:0:
475,192,116611,1,0,0:0:0:0:
224,192,116611,1,0,0:0:0:0:
109,192,116695,1,0,0:0:0:0:
329,192,116695,128,0,116861:0:0:0:0:
160,192,116695,1,0,0:0:0:0:
36,192,116861,1,0,0:0:0:0:
402,192,116861,128,0,117028:0:0:0:0:
224,192,116861,1,0,0:0:0:0:
256,192,116945,1,0,0:0:0:0:
160,192,116945,1,0,0:0:0:0:
329,192,117028,1,0,0:0:0:0:
475,192,117028,128,0,117195:0:0:0:0:
96,192,117028,1,0,0:0:0:0:
182,192,117195,1,0,0:0:0:0:
402,192,117195,128,0,117361:0:0:0:0:
256,192,117278,1,0,0:0:0:0:
224,192,117278,1,0,0:0:0:0:
36,192,117361,1,0,0:0:0:0:
329,192,117361,128,0,117528:0:0:0:0:
160,192,117361,1,0,0:0:0:0:
96,192,117445,1,0,0:0:0:0:
475,192,117528,1,0,0:0:0:0:
256,192,117528,128,0,117695:0:0:0:0:
160,192,117528,1,0,0:0:0:0:
109,192,117611,1,0,0:0:0:0:
224,192,117611,1,0,0:0:0:0:
182,192,117695,1,0,0:0:0:0:
329,192,117695,128,0,117861:0:0:0:0:
36,192,117778,1,0,0:0:0:0:
96,192,117778,1,0,0:0:0:0:
256,192,117861,1,0,0:0:0:0:
475,192,117861,128,0,118028:0:0:0:0:
160,192,117861,1,0,0:0:0:0:
109,192,117945,1,0,0:0:0:0:
224,192,117945,1,0,0:0:0:0:
182,192,118028,1,0,0:0:0:0:
402,192,118028,128,0,118195:0:0:0:0:
329,192,118111,1,0,0:0:0:0:
96,192,118111,1,0,0:0:0:0:
36,192,118195,1,0,0:0:0:0:
256,192,118195,128,0,118361:0:0:0:0:
160,192,118195,1,0,0:0:0:0:
109,192,118278,1,0,0:0:0:0:
224,192,118278,1,0,0:0:0:0:
475,192,118361,1,0,0:0:0:0:
329,192,118361,128,0,118528:0:0:0:0:
160,192,118361,1,0,0:0:0:0:
36,192,118445,1,0,0:0:0:0:
96,192,118445,1,0,0:0:0:0:
182,192,118528,1,0,0:0:0:0:
402,192,118528,128,0,118695:0:0:0:0:
256,192,118611,1,0,0:0:0:0:
224,192,118611,1,0,0:0:0:0:
36,192,118695,1,0,0:0:0:0:
475,192,118695,128,0,118861:0:0:0:0:
160,192,118695,1,0,0:0:0:0:
109,192,118778,1,0,0:0:0:0:
402,192,118861,1,0,0:0:0:0:
329,192,118861,128,0,119028:0:0:0:0:
160,192,118861,1,0,0:0:0:0:
36,192,118945,1,0,0:0:0:0:
224,192,118945,1,0,0:0:0:0:
182,192,119028,1,0,0:0:0:0:
256,192,119028,128,0,119195:0:0:0:0:
475,192,119111,1,0,0:0:0:0:
96,192,119111,1,0,0:0:0:0:
329,192,119195,1,0,0:0:0:0:
402,192,119195,1,0,0:0:0:0:
160,192,119195,1,0,0:0:0:0:
224,192,119278,1,0,0:0:0:0:
329,192,119361,1,0,0:0:0:0:
256,192,119361,1,0,0:0:0:0:
160,192,119361,1,0,0:0:0:0:
475,192,119445,1,0,0:0:0:0:
96,192,119445,1,0,0:0:0:0:
36,192,119528,1,0,0:0:0:0:
402,192,119528,1,0,0:0:0:0:
160,192,119528,1,0,0:0:0:0:
109,192,119611,1,0,0:0:0:0:
224,192,119611,1,0,0:0:0:0:
402,192,119695,1,0,0:0:0:0:
256,192,119695,1,0,0:0:0:0:
160,192,119695,1,0,0:0:0:0:
329,192,119861,1,0,0:0:0:0:
224,192,119861,1,0,0:0:0:0:
475,192,119945,1,0,0:0:0:0:
160,192,119945,1,0,0:0:0:0:
109,192,120028,1,0,0:0:0:0:
402,192,120028,1,0,0:0:0:0:
256,192,120111,1,0,0:0:0:0:
160,192,120111,1,0,0:0:0:0:
36,192,120195,1,0,0:0:0:0:
475,192,120195,1,0,0:0:0:0:
224,192,120195,1,0,0:0:0:0:
182,192,120278,1,0,0:0:0:0:
288,192,120278,1,0,0:0:0:0:
402,192,120361,1,0,0:0:0:0:
329,192,120361,1,0,0:0:0:0:
224,192,120361,1,0,0:0:0:0:
475,192,120445,1,0,0:0:0:0:
160,192,120445,1,0,0:0:0:0:
109,192,120528,1,0,0:0:0:0:
224,192,120528,1,0,0:0:0:0:
256,192,120611,1,0,0:0:0:0:
224,192,120611,1,0,0:0:0:0:
329,192,120695,1,0,0:0:0:0:
182,192,120695,1,0,0:0:0:0:
402,192,120778,1,0,0:0:0:0:
96,192,120778,1,0,0:0:0:0:
36,192,120861,1,0,0:0:0:0:
329,192,120861,1,0,0:0:0:0:
160,192,120861,1,0,0:0:0:0:
109,192,120945,1,0,0:0:0:0:
224,192,120945,1,0,0:0:0:0:
256,192,121028,1,0,0:0:0:0:
475,192,121028,1,0,0:0:0:0:
160,192,121028,1,0,0:0:0:0:
329,192,121111,1,0,0:0:0:0:
182,192,121195,1,0,0:0:0:0:
96,192,121195,1,0,0:0:0:0:
402,192,121278,1,0,0:0:0:0:
224,192,121278,1,0,0:0:0:0:
475,192,121361,1,0,0:0:0:0:
329,192,121361,1,0,0:0:0:0:
160,192,121361,1,0,0:0:0:0:
109,192,121445,1,0,0:0:0:0:
224,192,121445,1,0,0:0:0:0:
256,192,121528,1,0,0:0:0:0:
182,192,121528,1,0,0:0:0:0:
402,192,121611,1,0,0:0:0:0:
352,192,121611,1,0,0:0:0:0:
36,192,121695,1,0,0:0:0:0:
475,192,121695,1,0,0:0:0:0:
288,192,121695,1,0,0:0:0:0:
109,192,121778,1,0,0:0:0:0:
224,192,121778,1,0,0:0:0:0:
329,192,121861,1,0,0:0:0:0:
160,192,121861,1,0,0:0:0:0:
475,192,121945,1,0,0:0:0:0:
224,192,121945,1,0,0:0:0:0:
182,192,122028,1,0,0:0:0:0:
36,192,122028,1,0,0:0:0:0:
288,192,122028,1,0,0:0:0:0:
256,192,122111,1,0,0:0:0:0:
402,192,122195,1,0,0:0:0:0:
329,192,122195,1,0,0:0:0:0:
36,192,122278,1,0,0:0:0:0:
182,192,122361,1,0,0:0:0:0:
109,192,122361,1,0,0:0:0:0:
329,192,122445,1,0,0:0:0:0:
402,192,122528,1,0,0:0:0:0:
109,192,122611,1,0,0:0:0:0:
256,192,122695,1,0,0:0:0:0:
475,192,122695,1,0,0:0:0:0:
329,192,122778,1,0,0:0:0:0:
182,192,122861,1,0,0:0:0:0:
36,192,122861,1,0,0:0:0:0:
402,192,122945,1,0,0:0:0:0:
475,192,123028,1,0,0:0:0:0:
256,192,123028,1,0,0:0:0:0:
36,192,123111,1,0,0:0:0:0:
182,192,123195,1,0,0:0:0:0:
329,192,123278,1,0,0:0:0:0:
402,192,123361,1,0,0:0:0:0:
475,192,123361,1,0,0:0:0:0:
109,192,123445,1,0,0:0:0:0:
256,192,123528,1,0,0:0:0:0:
329,192,123528,1,0,0:0:0:0:
475,192,123611,1,0,0:0:0:0:
182,192,123695,1,0,0:0:0:0:
36,192,123695,1,0,0:0:0:0:
329,192,123778,1,0,0:0:0:0:
402,192,123861,1,0,0:0:0:0:
475,192,123945,1,0,0:0:0:0:
36,192,124028,1,0,0:0:0:0:
109,192,124028,1,0,0:0:0:0:
182,192,124111,1,0,0:0:0:0:
256,192,124195,1,0,0:0:0:0:
329,192,124195,1,0,0:0:0:0:
402,192,124278,1,0,0:0:0:0:
109,192,124361,1,0,0:0:0:0:
182,192,124361,1,0,0:0:0:0:
329,192,124445,1,0,0:0:0:0:
402,192,124528,1,0,0:0:0:0:
256,192,124528,1,0,0:0:0:0:
36,192,124570,1,0,0:0:0:0:
182,192,124611,1,0,0:0:0:0:
329,192,124653,1,0,0:0:0:0:
475,192,124695,1,0,0:0:0:0:
402,192,124695,1,0,0:0:0:0:
256,192,124778,1,0,0:0:0:0:
109,192,124861,1,0,0:0:0:0:
36,192,124861,1,0,0:0:0:0:
402,192,124945,1,0,0:0:0:0:
329,192,125028,1,0,0:0:0:0:
256,192,125028,1,0,0:0:0:0:
182,192,125111,1,0,0:0:0:0:
36,192,125195,1,0,0:0:0:0:
402,192,125278,1,0,0:0:0:0:
329,192,125361,1,0,0:0:0:0:
256,192,125361,1,0,0:0:0:0:
182,192,125445,1,0,0:0:0:0:
109,192,125528,1,0,0:0:0:0:
36,192,125528,1,0,0:0:0:0:
475,192,125611,1,0,0:0:0:0:
256,192,125695,1,0,0:0:0:0:
329,192,125695,1,0,0:0:0:0:
182,192,125778,1,0,0:0:0:0:
109,192,125861,1,0,0:0:0:0:
475,192,125861,1,0,0:0:0:0:
402,192,125903,1,0,0:0:0:0:
182,192,125945,1,0,0:0:0:0:
36,192,125986,1,0,0:0:0:0:
329,192,126028,1,0,0:0:0:0:
256,192,126028,1,0,0:0:0:0:
475,192,126111,1,0,0:0:0:0:
109,192,126195,1,0,0:0:0:0:
36,192,126195,1,0,0:0:0:0:
256,192,126278,1,0,0:0:0:0:
402,192,126361,1,0,0:0:0:0:
329,192,126361,1,0,0:0:0:0:
475,192,126445,1,0,0:0:0:0:
36,192,126528,1,0,0:0:0:0:
182,192,126611,1,0,0:0:0:0:
402,192,126695,1,0,0:0:0:0:
329,192,126695,1,0,0:0:0:0:
109,192,126778,1,0,0:0:0:0:
256,192,126861,1,0,0:0:0:0:
182,192,126861,1,0,0:0:0:0:
402,192,126945,1,0,0:0:0:0:
475,192,127028,1,0,0:0:0:0:
329,192,127028,1,0,0:0:0:0:
402,192,127111,1,0,0:0:0:0:
256,192,127195,1,0,0:0:0:0:
475,192,127195,1,0,0:0:0:0:
36,192,127195,1,0,0:0:0:0:
402,192,127236,1,0,0:0:0:0:
182,192,127236,1,0,0:0:0:0:
329,192,127278,1,0,0:0:0:0:
109,192,127278,1,0,0:0:0:0:
256,192,127320,1,0,0:0:0:0:
36,192,127320,1,0,0:0:0:0:
182,192,127361,1,0,0:0:0:0:
475,192,127361,1,0,0:0:0:0:
329,192,127445,1,0,0:0:0:0:
36,192,127445,1,0,0:0:0:0:
475,192,127528,1,0,0:0:0:0:
182,192,127528,1,0,0:0:0:0:
256,192,127528,1,0,0:0:0:0:
329,192,127611,1,0,0:0:0:0:
36,192,127611,1,0,0:0:0:0:
475,192,127695,1,0,0:0:0:0:
182,192,127695,1,0,0:0:0:0:
402,192,127778,1,0,0:0:0:0:
109,192,127778,1,0,0:0:0:0:
256,192,127861,1,0,0:0:0:0:
36,192,127861,1,0,0:0:0:0:
475,192,127861,1,0,0:0:0:0:
109,192,127903,1,0,0:0:0:0:
329,192,127903,1,0,0:0:0:0:
182,192,127945,1,0,0:0:0:0:
402,192,127945,1,0,0:0:0:0:
256,192,127986,1,0,0:0:0:0:
475,192,127986,1,0,0:0:0:0:
36,192,128028,1,0,0:0:0:0:
329,192,128028,1,0,0:0:0:0:
475,192,128111,1,0,0:0:0:0:
182,192,128111,1,0,0:0:0:0:
36,192,128195,1,0,0:0:0:0:
329,192,128195,1,0,0:0:0:0:
256,192,128195,1,0,0:0:0:0:
109,192,128195,1,0,0:0:0:0:
182,192,128278,1,0,0:0:0:0:
475,192,128278,1,0,0:0:0:0:
402,192,128278,1,0,0:0:0:0:
36,192,128361,1,0,0:0:0:0:
329,192,128361,1,0,0:0:0:0:
109,192,128361,1,0,0:0:0:0:
182,192,128445,1,0,0:0:0:0:
475,192,128445,1,0,0:0:0:0:
402,192,128445,1,0,0:0:0:0:
109,192,128528,1,0,0:0:0:0:
256,192,128528,1,0,0:0:0:0:
329,192,128528,1,0,0:0:0:0:
256,192,129528,1,0,0:0:0:0:
256,192,129611,1,0,0:0:0:0:
36,192,129861,128,0,130028:0:0:0:0:
329,192,129861,1,0,0:0:0:0:
475,192,129861,1,0,0:0:0:0:
160,192,129861,1,0,0:0:0:0:
96,192,129861,1,0,0:0:0:0:
288,192,129861,1,0,0:0:0:0:
416,192,129861,1,0,0:0:0:0:
182,192,130028,128,0,130111:0:0:0:0:
402,192,130028,1,0,0:0:0:0:
96,192,130028,1,0,0:0:0:0:
352,192,130028,1,0,0:0:0:0:
329,192,130195,128,0,130361:0:0:0:0:
36,192,130195,1,0,0:0:0:0:
256,192,130195,1,0,0:0:0:0:
224,192,130195,1,0,0:0:0:0:
480,192,130195,1,0,0:0:0:0:
416,192,130195,1,0,0:0:0:0:
402,192,130361,128,0,130445:0:0:0:0:
109,192,130361,1,0,0:0:0:0:
224,192,130361,1,0,0:0:0:0:
160,192,130361,1,0,0:0:0:0:
224,192,130445,128,0,130695:0:0:0:0:
329,192,130528,1,0,0:0:0:0:
475,192,130528,1,0,0:0:0:0:
160,192,130528,1,0,0:0:0:0:
416,192,130528,1,0,0:0:0:0:
96,192,130528,1,0,0:0:0:0:
109,192,130695,128,0,130861:0:0:0:0:
402,192,130695,1,0,0:0:0:0:
352,192,130695,1,0,0:0:0:0:
160,192,130861,128,0,130945:0:0:0:0:
329,192,130861,1,0,0:0:0:0:
475,192,130861,1,0,0:0:0:0:
224,192,130861,1,0,0:0:0:0:
288,192,130861,1,0,0:0:0:0:
32,192,130861,1,0,0:0:0:0:
416,192,130861,128,0,130945:0:0:0:0:
182,192,131028,128,0,131195:0:0:0:0:
256,192,131028,1,0,0:0:0:0:
416,192,131028,1,0,0:0:0:0:
480,192,131028,1,0,0:0:0:0:
329,192,131195,128,0,131361:0:0:0:0:
36,192,131195,1,0,0:0:0:0:
475,192,131195,1,0,0:0:0:0:
224,192,131195,1,0,0:0:0:0:
402,192,131361,128,0,131528:0:0:0:0:
109,192,131361,1,0,0:0:0:0:
160,192,131361,1,0,0:0:0:0:
480,192,131361,1,0,0:0:0:0:
224,192,131361,1,0,0:0:0:0:
352,192,131528,128,0,131695:0:0:0:0:
182,192,131528,1,0,0:0:0:0:
36,192,131528,1,0,0:0:0:0:
224,192,131528,1,0,0:0:0:0:
288,192,131528,1,0,0:0:0:0:
96,192,131528,128,0,131611:0:0:0:0:
109,192,131695,128,0,131861:0:0:0:0:
475,192,131695,1,0,0:0:0:0:
224,192,131695,1,0,0:0:0:0:
288,192,131778,1,0,0:0:0:0:
36,192,131861,128,0,132028:0:0:0:0:
402,192,131861,1,0,0:0:0:0:
256,192,131861,1,0,0:0:0:0:
160,192,131861,1,0,0:0:0:0:
224,192,131861,1,0,0:0:0:0:
352,192,131861,128,0,131945:0:0:0:0:
480,192,131861,1,0,0:0:0:0:
416,192,132028,128,0,132195:0:0:0:0:
475,192,132028,1,0,0:0:0:0:
160,192,132028,1,0,0:0:0:0:
224,192,132028,1,0,0:0:0:0:
160,192,132195,128,0,132278:0:0:0:0:
36,192,132195,1,0,0:0:0:0:
256,192,132195,1,0,0:0:0:0:
96,192,132195,1,0,0:0:0:0:
224,192,132195,1,0,0:0:0:0:
480,192,132195,1,0,0:0:0:0:
352,192,132195,1,0,0:0:0:0:
402,192,132361,128,0,132528:0:0:0:0:
109,192,132361,1,0,0:0:0:0:
224,192,132361,1,0,0:0:0:0:
288,192,132361,1,0,0:0:0:0:
475,192,132528,128,0,132695:0:0:0:0:
182,192,132528,1,0,0:0:0:0:
36,192,132528,1,0,0:0:0:0:
96,192,132528,1,0,0:0:0:0:
288,192,132528,1,0,0:0:0:0:
352,192,132528,1,0,0:0:0:0:
224,192,132528,128,0,132611:0:0:0:0:
329,192,132695,128,0,132778:0:0:0:0:
256,192,132695,1,0,0:0:0:0:
182,192,132861,128,0,133028:0:0:0:0:
402,192,132861,1,0,0:0:0:0:
36,192,132861,1,0,0:0:0:0:
352,192,132861,1,0,0:0:0:0:
480,192,132861,1,0,0:0:0:0:
288,192,132861,1,0,0:0:0:0:
224,192,132861,1,0,0:0:0:0:
96,192,132861,1,0,0:0:0:0:
109,192,133028,128,0,133111:0:0:0:0:
329,192,133028,1,0,0:0:0:0:
416,192,133028,1,0,0:0:0:0:
256,192,133111,128,0,133361:0:0:0:0:
475,192,133195,1,0,0:0:0:0:
352,192,133195,128,0,133278:0:0:0:0:
416,192,133195,1,0,0:0:0:0:
224,192,133195,1,0,0:0:0:0:
160,192,133195,1,0,0:0:0:0:
96,192,133195,1,0,0:0:0:0:
32,192,133195,1,0,0:0:0:0:
402,192,133361,128,0,133528:0:0:0:0:
160,192,133361,1,0,0:0:0:0:
96,192,133361,1,0,0:0:0:0:
475,192,133528,128,0,133611:0:0:0:0:
109,192,133528,1,0,0:0:0:0:
256,192,133528,1,0,0:0:0:0:
32,192,133528,1,0,0:0:0:0:
160,192,133528,1,0,0:0:0:0:
224,192,133528,1,0,0:0:0:0:
352,192,133528,1,0,0:0:0:0:
329,192,133695,128,0,133861:0:0:0:0:
402,192,133695,1,0,0:0:0:0:
224,192,133695,1,0,0:0:0:0:
288,192,133695,1,0,0:0:0:0:
160,192,133695,1,0,0:0:0:0:
182,192,133861,128,0,134028:0:0:0:0:
36,192,133861,1,0,0:0:0:0:
475,192,133861,1,0,0:0:0:0:
288,192,133861,1,0,0:0:0:0:
416,192,133861,1,0,0:0:0:0:
224,192,133861,1,0,0:0:0:0:
96,192,133861,128,0,133945:0:0:0:0:
329,192,134028,128,0,134111:0:0:0:0:
109,192,134028,1,0,0:0:0:0:
416,192,134028,1,0,0:0:0:0:
480,192,134028,1,0,0:0:0:0:
224,192,134028,1,0,0:0:0:0:
256,192,134195,128,0,134361:0:0:0:0:
36,192,134195,1,0,0:0:0:0:
224,192,134195,1,0,0:0:0:0:
160,192,134195,1,0,0:0:0:0:
96,192,134195,1,0,0:0:0:0:
352,192,134195,1,0,0:0:0:0:
416,192,134195,1,0,0:0:0:0:
480,192,134195,1,0,0:0:0:0:
402,192,134361,128,0,134445:0:0:0:0:
182,192,134361,1,0,0:0:0:0:
224,192,134361,1,0,0:0:0:0:
96,192,134361,1,0,0:0:0:0:
329,192,134528,128,0,134695:0:0:0:0:
109,192,134528,1,0,0:0:0:0:
256,192,134528,1,0,0:0:0:0:
32,192,134528,1,0,0:0:0:0:
224,192,134528,1,0,0:0:0:0:
416,192,134528,1,0,0:0:0:0:
480,192,134528,1,0,0:0:0:0:
475,192,134695,128,0,134778:0:0:0:0:
182,192,134695,1,0,0:0:0:0:
224,192,134695,1,0,0:0:0:0:
288,192,134695,1,0,0:0:0:0:
256,192,134861,128,0,135028:0:0:0:0:
36,192,134861,1,0,0:0:0:0:
329,192,134861,1,0,0:0:0:0:
224,192,134861,1,0,0:0:0:0:
160,192,134861,1,0,0:0:0:0:
96,192,134861,128,0,134945:0:0:0:0:
402,192,135028,128,0,135111:0:0:0:0:
109,192,135028,1,0,0:0:0:0:
36,192,135195,128,0,135361:0:0:0:0:
182,192,135195,1,0,0:0:0:0:
475,192,135195,1,0,0:0:0:0:
224,192,135195,1,0,0:0:0:0:
288,192,135195,1,0,0:0:0:0:
96,192,135195,1,0,0:0:0:0:
352,192,135195,1,0,0:0:0:0:
109,192,135361,128,0,135445:0:0:0:0:
329,192,135361,1,0,0:0:0:0:
96,192,135528,128,0,135695:0:0:0:0:
36,192,135528,1,0,0:0:0:0:
475,192,135528,1,0,0:0:0:0:
224,192,135528,1,0,0:0:0:0:
160,192,135528,1,0,0:0:0:0:
288,192,135528,128,0,135611:0:0:0:0:
352,192,135528,1,0,0:0:0:0:
416,192,135528,1,0,0:0:0:0:
402,192,135695,128,0,135778:0:0:0:0:
160,192,135695,1,0,0:0:0:0:
480,192,135695,1,0,0:0:0:0:
329,192,135778,128,0,136028:0:0:0:0:
256,192,135861,1,0,0:0:0:0:
36,192,135861,1,0,0:0:0:0:
416,192,135861,1,0,0:0:0:0:
480,192,135861,1,0,0:0:0:0:
224,192,135861,128,0,135945:0:0:0:0:
96,192,135861,1,0,0:0:0:0:
160,192,135861,1,0,0:0:0:0:
475,192,136028,1,0,0:0:0:0:
160,192,136028,128,0,136195:0:0:0:0:
36,192,136195,128,0,136278:0:0:0:0:
256,192,136195,1,0,0:0:0:0:
402,192,136195,1,0,0:0:0:0:
352,192,136195,1,0,0:0:0:0:
480,192,136195,1,0,0:0:0:0:
96,192,136195,1,0,0:0:0:0:
109,192,136361,128,0,136528:0:0:0:0:
329,192,136361,1,0,0:0:0:0:
224,192,136361,1,0,0:0:0:0:
288,192,136361,1,0,0:0:0:0:
256,192,136528,128,0,136695:0:0:0:0:
182,192,136528,1,0,0:0:0:0:
475,192,136528,1,0,0:0:0:0:
224,192,136528,1,0,0:0:0:0:
352,192,136528,1,0,0:0:0:0:
416,192,136528,1,0,0:0:0:0:
402,192,136695,128,0,136861:0:0:0:0:
36,192,136695,1,0,0:0:0:0:
480,192,136861,128,0,137028:0:0:0:0:
109,192,136861,1,0,0:0:0:0:
160,192,136861,1,0,0:0:0:0:
224,192,136861,1,0,0:0:0:0:
288,192,136861,1,0,0:0:0:0:
352,192,136861,128,0,136945:0:0:0:0:
416,192,137028,128,0,137195:0:0:0:0:
96,192,137028,1,0,0:0:0:0:
36,192,137195,128,0,137361:0:0:0:0:
475,192,137195,1,0,0:0:0:0:
329,192,137195,1,0,0:0:0:0:
224,192,137195,1,0,0:0:0:0:
288,192,137195,1,0,0:0:0:0:
109,192,137361,128,0,137528:0:0:0:0:
402,192,137361,1,0,0:0:0:0:
256,192,137528,128,0,137611:0:0:0:0:
182,192,137528,1,0,0:0:0:0:
475,192,137528,1,0,0:0:0:0:
224,192,137528,1,0,0:0:0:0:
416,192,137528,1,0,0:0:0:0:
329,192,137695,128,0,137861:0:0:0:0:
36,192,137695,1,0,0:0:0:0:
475,192,137861,128,0,138028:0:0:0:0:
109,192,137861,1,0,0:0:0:0:
256,192,137861,1,0,0:0:0:0:
224,192,137861,1,0,0:0:0:0:
160,192,137861,1,0,0:0:0:0:
402,192,138028,128,0,138111:0:0:0:0:
182,192,138028,1,0,0:0:0:0:
96,192,138028,1,0,0:0:0:0:
256,192,138195,128,0,138361:0:0:0:0:
36,192,138195,1,0,0:0:0:0:
329,192,138195,1,0,0:0:0:0:
160,192,138195,1,0,0:0:0:0:
96,192,138195,1,0,0:0:0:0:
160,192,138278,1,0,0:0:0:0:
109,192,138361,128,0,138445:0:0:0:0:
475,192,138361,1,0,0:0:0:0:
224,192,138445,128,0,138695:0:0:0:0:
402,192,138528,1,0,0:0:0:0:
256,192,138528,1,0,0:0:0:0:
32,192,138528,1,0,0:0:0:0:
96,192,138528,1,0,0:0:0:0:
160,192,138528,1,0,0:0:0:0:
480,192,138528,1,0,0:0:0:0:
352,192,138528,128,0,138611:0:0:0:0:
329,192,138695,128,0,138861:0:0:0:0:
475,192,138861,128,0,138945:0:0:0:0:
109,192,138861,1,0,0:0:0:0:
256,192,138861,1,0,0:0:0:0:
224,192,138861,1,0,0:0:0:0:
160,192,138861,1,0,0:0:0:0:
416,192,138861,1,0,0:0:0:0:
32,192,138861,1,0,0:0:0:0:
402,192,139028,128,0,139195:0:0:0:0:
36,192,139028,1,0,0:0:0:0:
256,192,139195,128,0,139361:0:0:0:0:
182,192,139195,1,0,0:0:0:0:
475,192,139195,1,0,0:0:0:0:
224,192,139195,1,0,0:0:0:0:
352,192,139195,1,0,0:0:0:0:
224,192,139278,1,0,0:0:0:0:
109,192,139361,128,0,139445:0:0:0:0:
402,192,139361,1,0,0:0:0:0:
160,192,139361,1,0,0:0:0:0:
224,192,139445,1,0,0:0:0:0:
329,192,139528,128,0,139611:0:0:0:0:
256,192,139528,1,0,0:0:0:0:
36,192,139528,1,0,0:0:0:0:
224,192,139528,1,0,0:0:0:0:
416,192,139528,1,0,0:0:0:0:
480,192,139528,1,0,0:0:0:0:
182,192,139695,128,0,139861:0:0:0:0:
109,192,139695,1,0,0:0:0:0:
402,192,139861,128,0,140028:0:0:0:0:
329,192,139861,1,0,0:0:0:0:
36,192,139861,1,0,0:0:0:0:
224,192,139861,1,0,0:0:0:0:
288,192,139861,1,0,0:0:0:0:
480,192,139861,128,0,139945:0:0:0:0:
96,192,139861,1,0,0:0:0:0:
256,192,140028,128,0,140111:0:0:0:0:
109,192,140028,1,0,0:0:0:0:
160,192,140028,1,0,0:0:0:0:
329,192,140195,128,0,140278:0:0:0:0:
402,192,140195,1,0,0:0:0:0:
36,192,140195,1,0,0:0:0:0:
160,192,140195,1,0,0:0:0:0:
224,192,140195,1,0,0:0:0:0:
288,192,140195,1,0,0:0:0:0:
475,192,140361,128,0,140528:0:0:0:0:
182,192,140361,1,0,0:0:0:0:
36,192,140528,128,0,140695:0:0:0:0:
109,192,140528,1,0,0:0:0:0:
402,192,140528,1,0,0:0:0:0:
224,192,140528,1,0,0:0:0:0:
160,192,140528,1,0,0:0:0:0:
352,192,140528,1,0,0:0:0:0:
288,192,140528,128,0,140611:0:0:0:0:
224,192,140695,128,0,140778:0:0:0:0:
329,192,140695,1,0,0:0:0:0:
32,192,140861,128,0,141028:0:0:0:0:
475,192,140861,1,0,0:0:0:0:
109,192,140861,1,0,0:0:0:0:
352,192,140861,1,0,0:0:0:0:
416,192,140861,1,0,0:0:0:0:
160,192,140861,1,0,0:0:0:0:
288,192,140861,1,0,0:0:0:0:
224,192,140861,1,0,0:0:0:0:
402,192,141028,128,0,141111:0:0:0:0:
480,192,141111,128,0,141361:0:0:0:0:
36,192,141195,1,0,0:0:0:0:
256,192,141195,1,0,0:0:0:0:
224,192,141195,1,0,0:0:0:0:
160,192,141195,1,0,0:0:0:0:
160,192,141361,128,0,141528:0:0:0:0:
288,192,141361,1,0,0:0:0:0:
36,192,141528,128,0,141611:0:0:0:0:
402,192,141528,1,0,0:0:0:0:
256,192,141528,1,0,0:0:0:0:
96,192,141528,128,0,141611:0:0:0:0:
224,192,141528,1,0,0:0:0:0:
352,192,141528,1,0,0:0:0:0:
480,192,141528,1,0,0:0:0:0:
182,192,141695,128,0,141861:0:0:0:0:
329,192,141695,1,0,0:0:0:0:
256,192,141861,128,0,142028:0:0:0:0:
36,192,141861,1,0,0:0:0:0:
475,192,141861,1,0,0:0:0:0:
352,192,141861,1,0,0:0:0:0:
224,192,141861,1,0,0:0:0:0:
480,192,142028,128,0,142195:0:0:0:0:
109,192,142028,1,0,0:0:0:0:
288,192,142111,1,0,0:0:0:0:
288,192,142195,128,0,142361:0:0:0:0:
182,192,142195,1,0,0:0:0:0:
36,192,142195,1,0,0:0:0:0:
224,192,142195,1,0,0:0:0:0:
416,192,142195,128,0,142278:0:0:0:0:
352,192,142195,1,0,0:0:0:0:
109,192,142361,128,0,142528:0:0:0:0:
475,192,142361,1,0,0:0:0:0:
36,192,142528,128,0,142695:0:0:0:0:
256,192,142528,1,0,0:0:0:0:
402,192,142528,1,0,0:0:0:0:
224,192,142528,1,0,0:0:0:0:
160,192,142528,1,0,0:0:0:0:
352,192,142528,128,0,142611:0:0:0:0:
480,192,142528,128,0,142611:0:0:0:0:
182,192,142695,128,0,142861:0:0:0:0:
475,192,142695,1,0,0:0:0:0:
256,192,142861,128,0,142945:0:0:0:0:
329,192,142861,1,0,0:0:0:0:
36,192,142861,1,0,0:0:0:0:
416,192,142861,1,0,0:0:0:0:
480,192,142861,1,0,0:0:0:0:
224,192,142861,1,0,0:0:0:0:
96,192,142861,1,0,0:0:0:0:
402,192,143028,128,0,143195:0:0:0:0:
109,192,143028,1,0,0:0:0:0:
160,192,143111,1,0,0:0:0:0:
475,192,143195,128,0,143361:0:0:0:0:
160,192,143195,1,0,0:0:0:0:
352,192,143195,1,0,0:0:0:0:
224,192,143195,1,0,0:0:0:0:
96,192,143195,128,0,143278:0:0:0:0:
288,192,143195,128,0,143278:0:0:0:0:
32,192,143195,128,0,143278:0:0:0:0:
329,192,143361,128,0,143445:0:0:0:0:
182,192,143361,1,0,0:0:0:0:
36,192,143528,1,0,0:0:0:0:
402,192,143528,1,0,0:0:0:0:
160,192,143528,1,0,0:0:0:0:
96,192,143528,1,0,0:0:0:0:
224,192,143528,128,0,143695:0:0:0:0:
288,192,143528,1,0,0:0:0:0:
352,192,143528,1,0,0:0:0:0:
480,192,143528,128,0,143611:0:0:0:0:
109,192,143695,128,0,143778:0:0:0:0:
475,192,143695,1,0,0:0:0:0:
182,192,143778,128,0,144028:0:0:0:0:
256,192,143861,1,0,0:0:0:0:
36,192,143861,1,0,0:0:0:0:
402,192,144028,128,0,144195:0:0:0:0:
329,192,144028,1,0,0:0:0:0:
475,192,144195,128,0,144278:0:0:0:0:
36,192,144195,1,0,0:0:0:0:
182,192,144195,1,0,0:0:0:0:
224,192,144195,1,0,0:0:0:0:
288,192,144195,1,0,0:0:0:0:
352,192,144195,1,0,0:0:0:0:
416,192,144361,128,0,144528:0:0:0:0:
109,192,144361,1,0,0:0:0:0:
160,192,144361,1,0,0:0:0:0:
224,192,144445,1,0,0:0:0:0:
256,192,144528,128,0,144695:0:0:0:0:
475,192,144528,1,0,0:0:0:0:
182,192,144528,1,0,0:0:0:0:
32,192,144528,1,0,0:0:0:0:
352,192,144528,128,0,144611:0:0:0:0:
224,192,144528,1,0,0:0:0:0:
109,192,144695,128,0,144778:0:0:0:0:
402,192,144695,1,0,0:0:0:0:
329,192,144861,128,0,145028:0:0:0:0:
36,192,144861,1,0,0:0:0:0:
256,192,144861,1,0,0:0:0:0:
224,192,144861,1,0,0:0:0:0:
416,192,144861,1,0,0:0:0:0:
480,192,144861,1,0,0:0:0:0:
182,192,145028,128,0,145111:0:0:0:0:
475,192,145028,1,0,0:0:0:0:
402,192,145195,128,0,145361:0:0:0:0:
329,192,145195,1,0,0:0:0:0:
109,192,145195,1,0,0:0:0:0:
160,192,145195,1,0,0:0:0:0:
224,192,145195,1,0,0:0:0:0:
288,192,145195,128,0,145278:0:0:0:0:
32,192,145195,128,0,145278:0:0:0:0:
480,192,145195,128,0,145278:0:0:0:0:
224,192,145361,128,0,145445:0:0:0:0:
36,192,145361,1,0,0:0:0:0:
475,192,145528,128,0,145695:0:0:0:0:
182,192,145528,1,0,0:0:0:0:
402,192,145528,1,0,0:0:0:0:
288,192,145528,1,0,0:0:0:0:
224,192,145528,1,0,0:0:0:0:
32,192,145528,1,0,0:0:0:0:
352,192,145528,1,0,0:0:0:0:
96,192,145528,1,0,0:0:0:0:
329,192,145695,128,0,145778:0:0:0:0:
109,192,145695,1,0,0:0:0:0:
36,192,145861,128,0,146028:0:0:0:0:
256,192,145861,1,0,0:0:0:0:
475,192,145861,1,0,0:0:0:0:
182,192,145861,1,0,0:0:0:0:
224,192,145861,1,0,0:0:0:0:
352,192,145861,1,0,0:0:0:0:
96,192,145861,1,0,0:0:0:0:
109,192,146028,128,0,146111:0:0:0:0:
402,192,146028,1,0,0:0:0:0:
182,192,146195,128,0,146361:0:0:0:0:
329,192,146195,1,0,0:0:0:0:
36,192,146195,1,0,0:0:0:0:
224,192,146195,1,0,0:0:0:0:
416,192,146195,1,0,0:0:0:0:
480,192,146195,1,0,0:0:0:0:
402,192,146361,128,0,146445:0:0:0:0:
256,192,146361,1,0,0:0:0:0:
329,192,146445,128,0,146695:0:0:0:0:
109,192,146528,1,0,0:0:0:0:
475,192,146528,1,0,0:0:0:0:
224,192,146528,1,0,0:0:0:0:
160,192,146528,1,0,0:0:0:0:
288,192,146528,1,0,0:0:0:0:
416,192,146528,1,0,0:0:0:0:
32,192,146528,1,0,0:0:0:0:
256,192,146695,128,0,146861:0:0:0:0:
402,192,146695,1,0,0:0:0:0:
36,192,146861,128,0,146945:0:0:0:0:
182,192,146861,1,0,0:0:0:0:
329,192,146861,1,0,0:0:0:0:
224,192,146861,1,0,0:0:0:0:
416,192,146861,1,0,0:0:0:0:
480,192,146861,1,0,0:0:0:0:
109,192,147028,128,0,147195:0:0:0:0:
475,192,147028,1,0,0:0:0:0:
256,192,147028,1,0,0:0:0:0:
402,192,147111,1,0,0:0:0:0:
329,192,147111,1,0,0:0:0:0:
182,192,147195,128,0,147361:0:0:0:0:
475,192,147195,1,0,0:0:0:0:
256,192,147195,1,0,0:0:0:0:
36,192,147195,1,0,0:0:0:0:
224,192,147195,1,0,0:0:0:0:
352,192,147195,1,0,0:0:0:0:
416,192,147195,128,0,147278:0:0:0:0:
402,192,147361,128,0,147528:0:0:0:0:
109,192,147361,1,0,0:0:0:0:
329,192,147528,128,0,147695:0:0:0:0:
182,192,147528,1,0,0:0:0:0:
36,192,147528,1,0,0:0:0:0:
224,192,147528,1,0,0:0:0:0:
288,192,147528,1,0,0:0:0:0:
480,192,147528,1,0,0:0:0:0:
224,192,147695,128,0,147861:0:0:0:0:
475,192,147695,1,0,0:0:0:0:
36,192,147861,128,0,148028:0:0:0:0:
182,192,147861,1,0,0:0:0:0:
402,192,147861,1,0,0:0:0:0:
96,192,147861,1,0,0:0:0:0:
480,192,147861,1,0,0:0:0:0:
288,192,147861,1,0,0:0:0:0:
109,192,148028,128,0,148195:0:0:0:0:
329,192,148028,1,0,0:0:0:0:
182,192,148195,128,0,148278:0:0:0:0:
475,192,148195,1,0,0:0:0:0:
256,192,148195,1,0,0:0:0:0:
402,192,148361,128,0,148528:0:0:0:0:
109,192,148361,1,0,0:0:0:0:
329,192,148361,1,0,0:0:0:0:
475,192,148528,128,0,148695:0:0:0:0:
256,192,148528,1,0,0:0:0:0:
36,192,148528,1,0,0:0:0:0:
182,192,148528,1,0,0:0:0:0:
352,192,148528,1,0,0:0:0:0:
224,192,148528,1,0,0:0:0:0:
32,192,148611,1,0,0:0:0:0:
288,192,148695,128,0,148778:0:0:0:0:
109,192,148695,1,0,0:0:0:0:
182,192,148695,1,0,0:0:0:0:
32,192,148695,1,0,0:0:0:0:
32,192,148778,1,0,0:0:0:0:
329,192,148861,128,0,149028:0:0:0:0:
256,192,148861,1,0,0:0:0:0:
475,192,148861,1,0,0:0:0:0:
36,192,148861,1,0,0:0:0:0:
416,192,148861,128,0,148945:0:0:0:0:
160,192,148861,1,0,0:0:0:0:
224,192,148861,1,0,0:0:0:0:
32,192,148945,1,0,0:0:0:0:
109,192,149028,128,0,149111:0:0:0:0:
475,192,149028,1,0,0:0:0:0:
32,192,149028,1,0,0:0:0:0:
182,192,149111,128,0,149361:0:0:0:0:
32,192,149111,1,0,0:0:0:0:
402,192,149195,1,0,0:0:0:0:
329,192,149195,1,0,0:0:0:0:
36,192,149195,1,0,0:0:0:0:
224,192,149195,1,0,0:0:0:0:
288,192,149195,1,0,0:0:0:0:
480,192,149195,1,0,0:0:0:0:
32,192,149278,1,0,0:0:0:0:
256,192,149361,128,0,149528:0:0:0:0:
402,192,149361,1,0,0:0:0:0:
109,192,149361,1,0,0:0:0:0:
32,192,149361,1,0,0:0:0:0:
32,192,149445,1,0,0:0:0:0:
475,192,149528,128,0,149611:0:0:0:0:
182,192,149528,1,0,0:0:0:0:
36,192,149528,1,0,0:0:0:0:
329,192,149528,1,0,0:0:0:0:
256,192,149611,1,0,0:0:0:0:
109,192,149611,1,0,0:0:0:0:
32,192,149611,1,0,0:0:0:0:
402,192,149695,128,0,149861:0:0:0:0:
329,192,149695,1,0,0:0:0:0:
475,192,149695,1,0,0:0:0:0:
256,192,149778,1,0,0:0:0:0:
109,192,149778,1,0,0:0:0:0:
182,192,149861,128,0,150028:0:0:0:0:
36,192,149861,1,0,0:0:0:0:
475,192,149861,1,0,0:0:0:0:
329,192,150028,128,0,150111:0:0:0:0:
402,192,150195,128,0,150278:0:0:0:0:
224,192,150361,128,0,150528:0:0:0:0:
32,192,150528,128,0,150695:0:0:0:0:
475,192,150695,128,0,150778:0:0:0:0:
329,192,150861,128,0,151028:0:0:0:0:
256,192,151028,128,0,151195:0:0:0:0:
36,192,151195,128,0,151361:0:0:0:0:
329,192,151195,1,0,0:0:0:0:
475,192,151195,1,0,0:0:0:0:
224,192,151195,1,0,0:0:0:0:
96,192,151195,1,0,0:0:0:0:
182,192,151361,128,0,151445:0:0:0:0:
402,192,151361,1,0,0:0:0:0:
329,192,151528,128,0,151695:0:0:0:0:
256,192,151528,1,0,0:0:0:0:
36,192,151528,1,0,0:0:0:0:
224,192,151528,1,0,0:0:0:0:
416,192,151528,1,0,0:0:0:0:
480,192,151528,1,0,0:0:0:0:
475,192,151695,128,0,151778:0:0:0:0:
109,192,151695,1,0,0:0:0:0:
402,192,151778,128,0,152028:0:0:0:0:
36,192,151861,1,0,0:0:0:0:
182,192,151861,1,0,0:0:0:0:
224,192,151861,1,0,0:0:0:0:
288,192,151861,1,0,0:0:0:0:
352,192,151861,1,0,0:0:0:0:
256,192,152028,128,0,152195:0:0:0:0:
329,192,152028,1,0,0:0:0:0:
96,192,152028,1,0,0:0:0:0:
36,192,152195,128,0,152278:0:0:0:0:
109,192,152195,1,0,0:0:0:0:
475,192,152195,1,0,0:0:0:0:
416,192,152195,1,0,0:0:0:0:
352,192,152195,1,0,0:0:0:0:
160,192,152195,1,0,0:0:0:0:
182,192,152361,128,0,152528:0:0:0:0:
402,192,152361,1,0,0:0:0:0:
329,192,152528,128,0,152861:0:0:0:0:
256,192,152528,1,0,0:0:0:0:
36,192,152528,1,0,0:0:0:0:
160,192,152611,1,0,0:0:0:0:
416,192,152695,128,0,152861:0:0:0:0:
109,192,152695,1,0,0:0:0:0:
224,192,152695,1,0,0:0:0:0:
480,192,152861,128,0,153028:0:0:0:0:
182,192,152861,1,0,0:0:0:0:
36,192,152861,1,0,0:0:0:0:
288,192,152861,1,0,0:0:0:0:
224,192,152861,1,0,0:0:0:0:
160,192,153028,128,0,153195:0:0:0:0:
224,192,153028,1,0,0:0:0:0:
36,192,153195,128,0,153528:0:0:0:0:
109,192,153195,1,0,0:0:0:0:
475,192,153195,1,0,0:0:0:0:
416,192,153195,1,0,0:0:0:0:
288,192,153195,1,0,0:0:0:0:
352,192,153195,128,0,153278:0:0:0:0:
182,192,153361,128,0,153528:0:0:0:0:
402,192,153361,1,0,0:0:0:0:
256,192,153528,128,0,153861:0:0:0:0:
329,192,153528,1,0,0:0:0:0:
475,192,153528,1,0,0:0:0:0:
224,192,153528,1,0,0:0:0:0:
109,192,153695,128,0,153861:0:0:0:0:
36,192,153695,1,0,0:0:0:0:
475,192,153861,128,0,154028:0:0:0:0:
402,192,153861,1,0,0:0:0:0:
182,192,153861,1,0,0:0:0:0:
329,192,154028,128,0,154111:0:0:0:0:
160,192,154028,1,0,0:0:0:0:
224,192,154028,1,0,0:0:0:0:
182,192,154195,128,0,154361:0:0:0:0:
256,192,154195,1,0,0:0:0:0:
475,192,154195,1,0,0:0:0:0:
224,192,154195,1,0,0:0:0:0:
96,192,154195,1,0,0:0:0:0:
416,192,154195,1,0,0:0:0:0:
36,192,154361,128,0,154445:0:0:0:0:
402,192,154361,1,0,0:0:0:0:
109,192,154445,128,0,154695:0:0:0:0:
329,192,154528,1,0,0:0:0:0:
182,192,154528,1,0,0:0:0:0:
288,192,154528,128,0,154611:0:0:0:0:
224,192,154528,128,0,154611:0:0:0:0:
416,192,154528,1,0,0:0:0:0:
480,192,154528,1,0,0:0:0:0:
256,192,154695,128,0,154861:0:0:0:0:
402,192,154695,1,0,0:0:0:0:
475,192,154861,128,0,154945:0:0:0:0:
36,192,154861,1,0,0:0:0:0:
182,192,154861,1,0,0:0:0:0:
352,192,154861,1,0,0:0:0:0:
416,192,154861,1,0,0:0:0:0:
329,192,155028,128,0,155195:0:0:0:0:
109,192,155028,1,0,0:0:0:0:
182,192,155195,128,0,155445:0:0:0:0:
475,192,155195,1,0,0:0:0:0:
256,192,155195,1,0,0:0:0:0:
416,192,155195,1,0,0:0:0:0:
32,192,155195,1,0,0:0:0:0:
96,192,155195,1,0,0:0:0:0:
36,192,155361,128,0,155445:0:0:0:0:
402,192,155361,1,0,0:0:0:0:
256,192,155528,128,0,155778:0:0:0:0:
329,192,155528,1,0,0:0:0:0:
475,192,155528,1,0,0:0:0:0:
224,192,155528,1,0,0:0:0:0:
109,192,155695,128,0,155778:0:0:0:0:
182,192,155695,1,0,0:0:0:0:
329,192,155861,128,0,156111:0:0:0:0:
402,192,155861,1,0,0:0:0:0:
36,192,155861,1,0,0:0:0:0:
224,192,155861,1,0,0:0:0:0:
182,192,156028,128,0,156111:0:0:0:0:
109,192,156028,1,0,0:0:0:0:
402,192,156195,128,0,156445:0:0:0:0:
36,192,156195,1,0,0:0:0:0:
475,192,156195,1,0,0:0:0:0:
224,192,156195,1,0,0:0:0:0:
288,192,156195,1,0,0:0:0:0:
96,192,156195,1,0,0:0:0:0:
256,192,156361,128,0,156445:0:0:0:0:
182,192,156361,1,0,0:0:0:0:
36,192,156528,128,0,156695:0:0:0:0:
109,192,156528,1,0,0:0:0:0:
329,192,156528,1,0,0:0:0:0:
224,192,156528,1,0,0:0:0:0:
416,192,156528,1,0,0:0:0:0:
480,192,156528,1,0,0:0:0:0:
288,192,156528,128,0,156611:0:0:0:0:
182,192,156695,128,0,156778:0:0:0:0:
475,192,156695,1,0,0:0:0:0:
256,192,156861,128,0,157028:0:0:0:0:
402,192,156861,1,0,0:0:0:0:
36,192,156861,1,0,0:0:0:0:
224,192,156861,1,0,0:0:0:0:
96,192,156861,1,0,0:0:0:0:
352,192,156861,1,0,0:0:0:0:
160,192,156861,128,0,156945:0:0:0:0:
109,192,157028,128,0,157111:0:0:0:0:
475,192,157028,1,0,0:0:0:0:
329,192,157111,128,0,157361:0:0:0:0:
182,192,157195,1,0,0:0:0:0:
36,192,157195,1,0,0:0:0:0:
224,192,157195,1,0,0:0:0:0:
288,192,157195,1,0,0:0:0:0:
416,192,157195,1,0,0:0:0:0:
480,192,157195,1,0,0:0:0:0:
402,192,157361,128,0,157528:0:0:0:0:
256,192,157361,1,0,0:0:0:0:
36,192,157528,128,0,157611:0:0:0:0:
109,192,157528,1,0,0:0:0:0:
329,192,157528,1,0,0:0:0:0:
288,192,157528,1,0,0:0:0:0:
480,192,157528,1,0,0:0:0:0:
224,192,157528,1,0,0:0:0:0:
182,192,157695,128,0,157861:0:0:0:0:
475,192,157695,1,0,0:0:0:0:
256,192,157861,128,0,158028:0:0:0:0:
329,192,157861,1,0,0:0:0:0:
36,192,157861,1,0,0:0:0:0:
480,192,157861,1,0,0:0:0:0:
416,192,157861,1,0,0:0:0:0:
224,192,157861,1,0,0:0:0:0:
96,192,157861,1,0,0:0:0:0:
109,192,158028,128,0,158195:0:0:0:0:
402,192,158028,1,0,0:0:0:0:
329,192,158195,128,0,158361:0:0:0:0:
182,192,158195,1,0,0:0:0:0:
475,192,158195,1,0,0:0:0:0:
224,192,158195,1,0,0:0:0:0:
288,192,158195,1,0,0:0:0:0:
32,192,158195,1,0,0:0:0:0:
402,192,158361,128,0,158528:0:0:0:0:
109,192,158361,1,0,0:0:0:0:
36,192,158528,128,0,158695:0:0:0:0:
256,192,158528,1,0,0:0:0:0:
475,192,158528,1,0,0:0:0:0:
224,192,158528,1,0,0:0:0:0:
96,192,158528,1,0,0:0:0:0:
160,192,158528,1,0,0:0:0:0:
352,192,158528,1,0,0:0:0:0:
182,192,158695,128,0,158861:0:0:0:0:
329,192,158695,1,0,0:0:0:0:
256,192,158861,128,0,158945:0:0:0:0:
36,192,158861,1,0,0:0:0:0:
402,192,158861,1,0,0:0:0:0:
329,192,159028,128,0,159278:0:0:0:0:
109,192,159028,1,0,0:0:0:0:
475,192,159195,128,0,159278:0:0:0:0:
182,192,159195,1,0,0:0:0:0:
36,192,159195,1,0,0:0:0:0:
224,192,159195,1,0,0:0:0:0:
96,192,159195,128,0,159278:0:0:0:0:
416,192,159195,1,0,0:0:0:0:
288,192,159195,1,0,0:0:0:0:
256,192,159361,128,0,159445:0:0:0:0:
109,192,159361,1,0,0:0:0:0:
402,192,159528,128,0,159695:0:0:0:0:
36,192,159528,1,0,0:0:0:0:
475,192,159528,1,0,0:0:0:0:
224,192,159528,1,0,0:0:0:0:
160,192,159528,1,0,0:0:0:0:
352,192,159528,1,0,0:0:0:0:
329,192,159695,128,0,159778:0:0:0:0:
256,192,159695,1,0,0:0:0:0:
224,192,159695,1,0,0:0:0:0:
96,192,159695,1,0,0:0:0:0:
182,192,159778,128,0,160028:0:0:0:0:
109,192,159861,1,0,0:0:0:0:
402,192,159861,1,0,0:0:0:0:
288,192,159861,1,0,0:0:0:0:
352,192,159861,1,0,0:0:0:0:
32,192,159861,1,0,0:0:0:0:
475,192,160028,128,0,160195:0:0:0:0:
329,192,160028,1,0,0:0:0:0:
256,192,160195,128,0,160278:0:0:0:0:
36,192,160195,1,0,0:0:0:0:
182,192,160195,1,0,0:0:0:0:
96,192,160195,1,0,0:0:0:0:
352,192,160195,1,0,0:0:0:0:
416,192,160195,1,0,0:0:0:0:
402,192,160361,128,0,160528:0:0:0:0:
109,192,160361,1,0,0:0:0:0:
329,192,160528,128,0,160695:0:0:0:0:
256,192,160528,1,0,0:0:0:0:
475,192,160528,1,0,0:0:0:0:
224,192,160528,1,0,0:0:0:0:
96,192,160528,1,0,0:0:0:0:
182,192,160695,128,0,160778:0:0:0:0:
36,192,160695,1,0,0:0:0:0:
475,192,160861,128,0,160945:0:0:0:0:
109,192,160861,1,0,0:0:0:0:
329,192,160861,1,0,0:0:0:0:
288,192,160861,1,0,0:0:0:0:
416,192,160861,1,0,0:0:0:0:
224,192,160861,1,0,0:0:0:0:
32,192,160861,1,0,0:0:0:0:
256,192,161028,128,0,161195:0:0:0:0:
182,192,161028,1,0,0:0:0:0:
36,192,161195,128,0,161361:0:0:0:0:
475,192,161195,1,0,0:0:0:0:
329,192,161195,1,0,0:0:0:0:
96,192,161195,1,0,0:0:0:0:
160,192,161195,1,0,0:0:0:0:
224,192,161195,1,0,0:0:0:0:
416,192,161195,1,0,0:0:0:0:
182,192,161361,128,0,161445:0:0:0:0:
402,192,161361,1,0,0:0:0:0:
329,192,161528,128,0,161611:0:0:0:0:
109,192,161528,1,0,0:0:0:0:
475,192,161528,1,0,0:0:0:0:
288,192,161528,1,0,0:0:0:0:
224,192,161528,1,0,0:0:0:0:
32,192,161528,1,0,0:0:0:0:
160,192,161528,1,0,0:0:0:0:
416,192,161528,1,0,0:0:0:0:
402,192,161611,128,0,161695:0:0:0:0:
182,192,161695,128,0,161778:0:0:0:0:
36,192,161695,1,0,0:0:0:0:
256,192,161695,1,0,0:0:0:0:
109,192,161778,128,0,161861:0:0:0:0:
475,192,161861,128,0,162028:0:0:0:0:
256,192,161861,1,0,0:0:0:0:
402,192,161861,1,0,0:0:0:0:
36,192,161861,1,0,0:0:0:0:
182,192,161945,1,0,0:0:0:0:
329,192,162028,128,0,162111:0:0:0:0:
402,192,162028,1,0,0:0:0:0:
224,192,162028,1,0,0:0:0:0:
160,192,162111,1,0,0:0:0:0:
256,192,162195,128,0,162361:0:0:0:0:
109,192,162195,1,0,0:0:0:0:
475,192,162195,1,0,0:0:0:0:
32,192,162195,1,0,0:0:0:0:
416,192,162195,1,0,0:0:0:0:
352,192,162195,1,0,0:0:0:0:
224,192,162195,1,0,0:0:0:0:
160,192,162195,128,0,162278:0:0:0:0:
329,192,162278,1,0,0:0:0:0:
182,192,162361,128,0,162445:0:0:0:0:
402,192,162361,1,0,0:0:0:0:
109,192,162445,128,0,162695:0:0:0:0:
36,192,162445,1,0,0:0:0:0:
256,192,162528,1,0,0:0:0:0:
329,192,162528,1,0,0:0:0:0:
475,192,162611,1,0,0:0:0:0:
402,192,162695,128,0,162861:0:0:0:0:
182,192,162695,1,0,0:0:0:0:
329,192,162778,1,0,0:0:0:0:
256,192,162861,128,0,162945:0:0:0:0:
36,192,162861,1,0,0:0:0:0:
475,192,162861,1,0,0:0:0:0:
109,192,162945,1,0,0:0:0:0:
329,192,163028,128,0,163195:0:0:0:0:
402,192,163028,1,0,0:0:0:0:
36,192,163111,1,0,0:0:0:0:
182,192,163195,128,0,163361:0:0:0:0:
256,192,163195,1,0,0:0:0:0:
475,192,163195,1,0,0:0:0:0:
224,192,163195,1,0,0:0:0:0:
96,192,163195,1,0,0:0:0:0:
402,192,163278,1,0,0:0:0:0:
329,192,163361,128,0,163528:0:0:0:0:
109,192,163445,1,0,0:0:0:0:
224,192,163528,128,0,163695:0:0:0:0:
256,192,163528,1,0,0:0:0:0:
475,192,163528,1,0,0:0:0:0:
160,192,163528,1,0,0:0:0:0:
32,192,163528,1,0,0:0:0:0:
402,192,163611,1,0,0:0:0:0:
109,192,163695,128,0,163861:0:0:0:0:
256,192,163778,1,0,0:0:0:0:
475,192,163861,128,0,164028:0:0:0:0:
402,192,163861,1,0,0:0:0:0:
182,192,163861,1,0,0:0:0:0:
160,192,163945,1,0,0:0:0:0:
329,192,164028,128,0,164195:0:0:0:0:
109,192,164028,1,0,0:0:0:0:
402,192,164111,1,0,0:0:0:0:
256,192,164195,128,0,164278:0:0:0:0:
36,192,164195,1,0,0:0:0:0:
475,192,164195,1,0,0:0:0:0:
109,192,164278,1,0,0:0:0:0:
224,192,164361,128,0,164528:0:0:0:0:
402,192,164361,1,0,0:0:0:0:
256,192,164445,1,0,0:0:0:0:
36,192,164528,128,0,164695:0:0:0:0:
475,192,164528,1,0,0:0:0:0:
329,192,164528,1,0,0:0:0:0:
109,192,164611,1,0,0:0:0:0:
224,192,164695,128,0,164778:0:0:0:0:
402,192,164695,1,0,0:0:0:0:
160,192,164695,1,0,0:0:0:0:
475,192,164778,1,0,0:0:0:0:
256,192,164861,128,0,165028:0:0:0:0:
36,192,164861,1,0,0:0:0:0:
109,192,164861,1,0,0:0:0:0:
224,192,164861,1,0,0:0:0:0:
352,192,164861,1,0,0:0:0:0:
416,192,164861,1,0,0:0:0:0:
182,192,164945,1,0,0:0:0:0:
329,192,165028,128,0,165111:0:0:0:0:
475,192,165028,1,0,0:0:0:0:
224,192,165111,128,0,165361:0:0:0:0:
109,192,165111,1,0,0:0:0:0:
182,192,165195,1,0,0:0:0:0:
256,192,165195,1,0,0:0:0:0:
416,192,165195,1,0,0:0:0:0:
480,192,165195,1,0,0:0:0:0:
329,192,165278,1,0,0:0:0:0:
109,192,165361,128,0,165528:0:0:0:0:
475,192,165361,1,0,0:0:0:0:
36,192,165445,1,0,0:0:0:0:
256,192,165528,128,0,165611:0:0:0:0:
329,192,165528,1,0,0:0:0:0:
402,192,165528,1,0,0:0:0:0:
224,192,165528,1,0,0:0:0:0:
480,192,165528,1,0,0:0:0:0:
475,192,165611,1,0,0:0:0:0:
182,192,165695,128,0,166028:0:0:0:0:
109,192,165695,1,0,0:0:0:0:
402,192,165778,1,0,0:0:0:0:
329,192,165861,128,0,166028:0:0:0:0:
36,192,165861,1,0,0:0:0:0:
475,192,165861,1,0,0:0:0:0:
224,192,165861,1,0,0:0:0:0:
109,192,165945,1,0,0:0:0:0:
256,192,166028,128,0,166111:0:0:0:0:
402,192,166028,1,0,0:0:0:0:
36,192,166111,1,0,0:0:0:0:
182,192,166195,128,0,166361:0:0:0:0:
329,192,166195,1,0,0:0:0:0:
475,192,166195,1,0,0:0:0:0:
224,192,166195,1,0,0:0:0:0:
402,192,166278,1,0,0:0:0:0:
36,192,166361,128,0,166445:0:0:0:0:
109,192,166361,1,0,0:0:0:0:
329,192,166445,1,0,0:0:0:0:
224,192,166528,128,0,166695:0:0:0:0:
475,192,166528,1,0,0:0:0:0:
402,192,166528,1,0,0:0:0:0:
160,192,166528,1,0,0:0:0:0:
96,192,166528,1,0,0:0:0:0:
288,192,166528,1,0,0:0:0:0:
352,192,166528,1,0,0:0:0:0:
36,192,166611,1,0,0:0:0:0:
109,192,166695,128,0,166778:0:0:0:0:
182,192,166695,1,0,0:0:0:0:
402,192,166778,1,0,0:0:0:0:
329,192,166861,128,0,167028:0:0:0:0:
256,192,166861,1,0,0:0:0:0:
36,192,166861,1,0,0:0:0:0:
475,192,166945,1,0,0:0:0:0:
182,192,167028,128,0,167195:0:0:0:0:
109,192,167028,1,0,0:0:0:0:
256,192,167028,1,0,0:0:0:0:
402,192,167111,1,0,0:0:0:0:
475,192,167195,1,0,0:0:0:0:
329,192,167195,1,0,0:0:0:0:
36,192,167195,1,0,0:0:0:0:
256,192,167195,128,0,167361:0:0:0:0:
224,192,167195,1,0,0:0:0:0:
109,192,167236,1,0,0:0:0:0:
402,192,167278,1,0,0:0:0:0:
182,192,167320,1,0,0:0:0:0:
329,192,167361,128,0,167445:0:0:0:0:
475,192,167361,1,0,0:0:0:0:
182,192,167445,1,0,0:0:0:0:
402,192,167528,128,0,167695:0:0:0:0:
36,192,167528,1,0,0:0:0:0:
109,192,167528,1,0,0:0:0:0:
224,192,167528,1,0,0:0:0:0:
329,192,167611,1,0,0:0:0:0:
475,192,167695,128,0,167778:0:0:0:0:
256,192,167695,1,0,0:0:0:0:
182,192,167778,128,0,168028:0:0:0:0:
109,192,167778,1,0,0:0:0:0:
329,192,167861,1,0,0:0:0:0:
402,192,167861,1,0,0:0:0:0:
224,192,167861,1,0,0:0:0:0:
288,192,167861,1,0,0:0:0:0:
256,192,167945,1,0,0:0:0:0:
109,192,168028,128,0,168195:0:0:0:0:
36,192,168028,1,0,0:0:0:0:
475,192,168111,1,0,0:0:0:0:
256,192,168195,128,0,168278:0:0:0:0:
402,192,168195,1,0,0:0:0:0:
329,192,168195,1,0,0:0:0:0:
182,192,168278,1,0,0:0:0:0:
329,192,168361,128,0,168528:0:0:0:0:
36,192,168361,1,0,0:0:0:0:
109,192,168361,1,0,0:0:0:0:
475,192,168445,1,0,0:0:0:0:
182,192,168445,1,0,0:0:0:0:
402,192,168528,128,0,168695:0:0:0:0:
256,192,168528,1,0,0:0:0:0:
109,192,168528,1,0,0:0:0:0:
182,192,168570,1,0,0:0:0:0:
36,192,168611,1,0,0:0:0:0:
329,192,168653,1,0,0:0:0:0:
475,192,168695,128,0,168861:0:0:0:0:
109,192,168695,1,0,0:0:0:0:
256,192,168778,1,0,0:0:0:0:
224,192,168861,128,0,169028:0:0:0:0:
402,192,168861,1,0,0:0:0:0:
329,192,168861,1,0,0:0:0:0:
36,192,168945,1,0,0:0:0:0:
96,192,169028,128,0,169195:0:0:0:0:
329,192,169028,1,0,0:0:0:0:
475,192,169111,1,0,0:0:0:0:
224,192,169195,128,0,169361:0:0:0:0:
182,192,169195,1,0,0:0:0:0:
36,192,169195,1,0,0:0:0:0:
402,192,169278,1,0,0:0:0:0:
288,192,169361,128,0,169528:0:0:0:0:
36,192,169361,1,0,0:0:0:0:
109,192,169445,1,0,0:0:0:0:
402,192,169528,128,0,169611:0:0:0:0:
182,192,169528,1,0,0:0:0:0:
352,192,169528,1,0,0:0:0:0:
480,192,169528,1,0,0:0:0:0:
36,192,169611,1,0,0:0:0:0:
475,192,169695,128,0,169861:0:0:0:0:
182,192,169695,1,0,0:0:0:0:
109,192,169695,1,0,0:0:0:0:
329,192,169778,1,0,0:0:0:0:
109,192,169861,1,0,0:0:0:0:
256,192,169861,1,0,0:0:0:0:
402,192,169861,1,0,0:0:0:0:
182,192,169861,1,0,0:0:0:0:
329,192,169903,1,0,0:0:0:0:
36,192,169945,1,0,0:0:0:0:
224,192,169945,1,0,0:0:0:0:
182,192,169986,1,0,0:0:0:0:
402,192,170028,1,0,0:0:0:0:
256,192,170028,1,0,0:0:0:0:
109,192,170028,1,0,0:0:0:0:
475,192,170111,1,0,0:0:0:0:
352,192,170111,1,0,0:0:0:0:
329,192,170195,1,0,0:0:0:0:
256,192,170195,1,0,0:0:0:0:
36,192,170195,1,0,0:0:0:0:
402,192,170195,1,0,0:0:0:0:
224,192,170195,1,0,0:0:0:0:
182,192,170278,1,0,0:0:0:0:
224,192,170278,1,0,0:0:0:0:
109,192,170361,1,0,0:0:0:0:
329,192,170361,1,0,0:0:0:0:
475,192,170361,1,0,0:0:0:0:
402,192,170445,1,0,0:0:0:0:
224,192,170445,1,0,0:0:0:0:
256,192,170528,1,0,0:0:0:0:
182,192,170528,1,0,0:0:0:0:
36,192,170528,1,0,0:0:0:0:
329,192,170528,1,0,0:0:0:0:
109,192,170570,1,0,0:0:0:0:
475,192,170611,1,0,0:0:0:0:
224,192,170611,1,0,0:0:0:0:
329,192,170653,1,0,0:0:0:0:
36,192,170695,1,0,0:0:0:0:
256,192,170695,1,0,0:0:0:0:
402,192,170695,1,0,0:0:0:0:
182,192,170778,1,0,0:0:0:0:
352,192,170778,1,0,0:0:0:0:
402,192,170861,1,0,0:0:0:0:
329,192,170861,1,0,0:0:0:0:
109,192,170861,1,0,0:0:0:0:
224,192,170861,1,0,0:0:0:0:
256,192,170945,1,0,0:0:0:0:
475,192,170945,1,0,0:0:0:0:
36,192,170945,1,0,0:0:0:0:
329,192,171028,1,0,0:0:0:0:
182,192,171028,1,0,0:0:0:0:
109,192,171028,1,0,0:0:0:0:
475,192,171111,1,0,0:0:0:0:
256,192,171111,1,0,0:0:0:0:
36,192,171111,1,0,0:0:0:0:
224,192,171111,1,0,0:0:0:0:
109,192,171195,1,0,0:0:0:0:
329,192,171195,1,0,0:0:0:0:
402,192,171195,1,0,0:0:0:0:
160,192,171195,1,0,0:0:0:0:
256,192,172195,1,0,0:0:0:0:
256,192,172278,1,0,0:0:0:0:
109,192,172528,1,0,0:0:0:0:
36,192,172528,128,0,193861:0:0:0:0:
475,192,172528,128,0,193861:0:0:0:0:
182,192,173028,1,0,0:0:0:0:
402,192,173028,1,0,0:0:0:0:
329,192,173028,1,0,0:0:0:0:
329,192,175028,1,0,0:0:0:0:
402,192,175111,1,0,0:0:0:0:
109,192,175195,1,0,0:0:0:0:
329,192,175195,1,0,0:0:0:0:
182,192,175361,1,0,0:0:0:0:
256,192,175528,1,0,0:0:0:0:
109,192,175528,1,0,0:0:0:0:
329,192,175695,1,0,0:0:0:0:
182,192,175695,1,0,0:0:0:0:
182,192,176528,1,0,0:0:0:0:
256,192,176528,1,0,0:0:0:0:
329,192,177695,1,0,0:0:0:0:
402,192,177778,1,0,0:0:0:0:
329,192,177861,1,0,0:0:0:0:
109,192,177861,1,0,0:0:0:0:
182,192,178028,1,0,0:0:0:0:
402,192,178195,1,0,0:0:0:0:
256,192,178195,1,0,0:0:0:0:
329,192,178361,1,0,0:0:0:0:
109,192,178361,1,0,0:0:0:0:
182,192,178861,1,0,0:0:0:0:
402,192,178861,1,0,0:0:0:0:
329,192,178861,1,0,0:0:0:0:
256,192,180528,1,0,0:0:0:0:
182,192,180528,1,0,0:0:0:0:
109,192,180528,1,0,0:0:0:0:
329,192,181028,1,0,0:0:0:0:
402,192,181528,1,0,0:0:0:0:
256,192,181528,1,0,0:0:0:0:
182,192,181528,1,0,0:0:0:0:
182,192,183195,1,0,0:0:0:0:
256,192,183695,1,0,0:0:0:0:
402,192,183695,1,0,0:0:0:0:
329,192,183695,1,0,0:0:0:0:
109,192,183695,1,0,0:0:0:0:
329,192,185695,1,0,0:0:0:0:
402,192,185778,1,0,0:0:0:0:
109,192,185861,1,0,0:0:0:0:
329,192,185861,1,0,0:0:0:0:
182,192,186028,1,0,0:0:0:0:
109,192,186195,1,0,0:0:0:0:
256,192,186195,1,0,0:0:0:0:
329,192,186361,1,0,0:0:0:0:
182,192,186361,1,0,0:0:0:0:
109,192,187195,1,0,0:0:0:0:
329,192,188361,1,0,0:0:0:0:
402,192,188445,1,0,0:0:0:0:
109,192,188528,1,0,0:0:0:0:
329,192,188528,1,0,0:0:0:0:
182,192,188695,1,0,0:0:0:0:
256,192,188861,1,0,0:0:0:0:
109,192,189028,1,0,0:0:0:0:
329,192,189028,1,0,0:0:0:0:
182,192,189528,1,0,0:0:0:0:
256,192,189528,1,0,0:0:0:0:
402,192,189528,1,0,0:0:0:0:
329,192,191028,1,0,0:0:0:0:
402,192,191111,1,0,0:0:0:0:
329,192,191195,1,0,0:0:0:0:
109,192,191195,1,0,0:0:0:0:
182,192,191361,1,0,0:0:0:0:
256,192,191528,1,0,0:0:0:0:
182,192,191695,1,0,0:0:0:0:
402,192,191695,1,0,0:0:0:0:
329,192,191695,1,0,0:0:0:0:
256,192,192195,1,0,0:0:0:0:
109,192,192195,1,0,0:0:0:0:
329,192,192195,1,0,0:0:0:0:
256,192,193861,1,0,0:0:0:0:
109,192,193861,1,0,0:0:0:0:
402,192,193861,1,0,0:0:0:0:
182,192,193861,1,0,0:0:0:0:
329,192,193861,1,0,0:0:0:0:
