osu file format v12

[General]
AudioFilename: Starry Presto.mp3
AudioLeadIn: 0
PreviewTime: 23028
Countdown: 0
SampleSet: Soft
StackLeniency: 0.7
Mode: 3
LetterboxInBreaks: 0
SpecialStyle: 0
WidescreenStoryboard: 1

[Editor]
DistanceSpacing: 1.2
BeatDivisor: 4
GridSize: 8
TimelineZoom: 3.699999

[Metadata]
Title:Starry Presto
TitleUnicode:Starry Presto
Artist:Halozy
ArtistUnicode:Halozy
Creator:Entozer
Version:EX
Source:東方
Tags:
BeatmapID:429023
BeatmapSetID:178027

[Difficulty]
HPDrainRate:8
CircleSize:7
OverallDifficulty:8
ApproachRate:5
SliderMultiplier:1.4
SliderTickRate:1

[Events]
//Background and Video events
0,0,"Starry Presto.jpg",0,0
//Break Periods
//Storyboard Layer 0 (Background)
//Storyboard Layer 1 (Fail)
//Storyboard Layer 2 (Pass)
//Storyboard Layer 3 (Foreground)
//Storyboard Sound Samples
//Background Colour Transformations
3,100,163,162,255

[TimingPoints]
1862,333.333333333333,4,2,0,5,1,0

[HitObjects]
256,192,1028,128,0,1861:0:0:0:0:
475,192,1861,128,0,3695:0:0:0:0:
402,192,2028,128,0,3528:0:0:0:0:
329,192,2195,128,0,3361:0:0:0:0:
256,192,2361,128,0,3195:0:0:0:0:
182,192,2528,128,0,3028:0:0:0:0:
109,192,2695,128,0,2861:0:0:0:0:
36,192,2861,128,0,4361:0:0:0:0:
109,192,3028,128,0,4528:0:0:0:0:
182,192,3195,128,0,4695:0:0:0:0:
256,192,3361,128,0,4195:0:0:0:0:
329,192,3528,128,0,4028:0:0:0:0:
402,192,3695,128,0,3861:0:0:0:0:
475,192,3861,128,0,5361:0:0:0:0:
402,192,4028,128,0,5195:0:0:0:0:
329,192,4195,128,0,5028:0:0:0:0:
256,192,4361,128,0,4861:0:0:0:0:
36,192,4528,128,0,5861:0:0:0:0:
109,192,4695,128,0,6195:0:0:0:0:
182,192,4861,128,0,5695:0:0:0:0:
256,192,5028,128,0,6028:0:0:0:0:
329,192,5195,128,0,5528:0:0:0:0:
402,192,5361,128,0,6695:0:0:0:0:
475,192,5528,128,0,7028:0:0:0:0:
329,192,5695,128,0,6361:0:0:0:0:
182,192,5861,128,0,6528:0:0:0:0:
36,192,6028,128,0,8028:0:0:0:0:
256,192,6195,128,0,6861:0:0:0:0:
109,192,6361,128,0,7861:0:0:0:0:
329,192,6528,128,0,7361:0:0:0:0:
182,192,6695,128,0,7695:0:0:0:0:
402,192,6861,128,0,7195:0:0:0:0:
256,192,7028,128,0,7528:0:0:0:0:
475,192,7195,128,0,9028:0:0:0:0:
402,192,7361,128,0,8861:0:0:0:0:
329,192,7528,128,0,8695:0:0:0:0:
256,192,7695,128,0,8528:0:0:0:0:
182,192,7861,128,0,8278:0:0:0:0:
109,192,8028,128,0,8195:0:0:0:0:
36,192,8195,128,0,9695:0:0:0:0:
109,192,8361,128,0,9861:0:0:0:0:
182,192,8445,128,0,10028:0:0:0:0:
256,192,8695,128,0,9528:0:0:0:0:
329,192,8861,128,0,9361:0:0:0:0:
402,192,9028,128,0,9195:0:0:0:0:
475,192,9195,128,0,10695:0:0:0:0:
402,192,9361,128,0,10528:0:0:0:0:
329,192,9528,128,0,10361:0:0:0:0:
256,192,9695,128,0,10195:0:0:0:0:
36,192,9861,128,0,11361:0:0:0:0:
109,192,10028,128,0,12528:0:0:0:0:
182,192,10195,128,0,11528:0:0:0:0:
256,192,10361,128,0,11195:0:0:0:0:
329,192,10528,128,0,11028:0:0:0:0:
402,192,10695,128,0,10861:0:0:0:0:
475,192,10861,128,0,11861:0:0:0:0:
402,192,11028,128,0,12361:0:0:0:0:
329,192,11195,128,0,12028:0:0:0:0:
256,192,11361,128,0,11695:0:0:0:0:
36,192,11528,128,0,12361:0:0:0:0:
182,192,11695,128,0,12361:0:0:0:0:
256,192,11861,128,0,12195:0:0:0:0:
475,192,12028,128,0,12361:0:0:0:0:
329,192,12195,128,0,12528:0:0:0:0:
256,192,12361,128,0,12528:0:0:0:0:
182,192,12528,1,0,0:0:0:0:
36,192,12528,128,0,13028:0:0:0:0:
402,192,12528,1,0,0:0:0:0:
475,192,12528,1,0,0:0:0:0:
329,192,12611,1,0,0:0:0:0:
256,192,12695,1,0,0:0:0:0:
109,192,12695,128,0,13195:0:0:0:0:
475,192,12695,1,0,0:0:0:0:
402,192,12778,1,0,0:0:0:0:
329,192,12861,1,0,0:0:0:0:
182,192,12861,128,0,13361:0:0:0:0:
256,192,12861,1,0,0:0:0:0:
475,192,12945,1,0,0:0:0:0:
402,192,13028,1,0,0:0:0:0:
256,192,13028,128,0,13611:0:0:0:0:
329,192,13028,1,0,0:0:0:0:
36,192,13111,1,0,0:0:0:0:
475,192,13195,1,0,0:0:0:0:
329,192,13195,128,0,13445:0:0:0:0:
109,192,13278,1,0,0:0:0:0:
36,192,13361,1,0,0:0:0:0:
402,192,13361,128,0,13611:0:0:0:0:
475,192,13361,1,0,0:0:0:0:
182,192,13445,1,0,0:0:0:0:
329,192,13528,1,0,0:0:0:0:
475,192,13528,128,0,14028:0:0:0:0:
109,192,13528,1,0,0:0:0:0:
36,192,13528,1,0,0:0:0:0:
182,192,13611,1,0,0:0:0:0:
256,192,13695,1,0,0:0:0:0:
402,192,13695,128,0,14195:0:0:0:0:
36,192,13695,1,0,0:0:0:0:
109,192,13778,1,0,0:0:0:0:
182,192,13861,1,0,0:0:0:0:
329,192,13861,128,0,14278:0:0:0:0:
36,192,13945,1,0,0:0:0:0:
109,192,14028,1,0,0:0:0:0:
256,192,14028,128,0,14528:0:0:0:0:
182,192,14028,1,0,0:0:0:0:
475,192,14111,1,0,0:0:0:0:
36,192,14195,1,0,0:0:0:0:
182,192,14195,128,0,14445:0:0:0:0:
109,192,14195,1,0,0:0:0:0:
402,192,14278,1,0,0:0:0:0:
329,192,14361,1,0,0:0:0:0:
109,192,14361,128,0,14611:0:0:0:0:
36,192,14361,1,0,0:0:0:0:
475,192,14445,1,0,0:0:0:0:
182,192,14528,1,0,0:0:0:0:
36,192,14528,128,0,15528:0:0:0:0:
329,192,14611,1,0,0:0:0:0:
256,192,14695,1,0,0:0:0:0:
475,192,14695,1,0,0:0:0:0:
109,192,14695,128,0,15361:0:0:0:0:
402,192,14778,1,0,0:0:0:0:
329,192,14861,1,0,0:0:0:0:
256,192,14861,1,0,0:0:0:0:
182,192,14861,128,0,15195:0:0:0:0:
475,192,14945,1,0,0:0:0:0:
402,192,15028,1,0,0:0:0:0:
256,192,15028,128,0,15111:0:0:0:0:
329,192,15028,1,0,0:0:0:0:
329,192,15195,1,0,0:0:0:0:
475,192,15195,128,0,15695:0:0:0:0:
182,192,15278,1,0,0:0:0:0:
256,192,15361,1,0,0:0:0:0:
402,192,15361,128,0,15861:0:0:0:0:
329,192,15361,1,0,0:0:0:0:
109,192,15445,1,0,0:0:0:0:
182,192,15528,1,0,0:0:0:0:
329,192,15528,128,0,15945:0:0:0:0:
256,192,15528,1,0,0:0:0:0:
36,192,15611,1,0,0:0:0:0:
109,192,15695,1,0,0:0:0:0:
256,192,15695,128,0,16111:0:0:0:0:
182,192,15695,1,0,0:0:0:0:
475,192,15778,1,0,0:0:0:0:
36,192,15861,1,0,0:0:0:0:
182,192,15861,128,0,16278:0:0:0:0:
402,192,15945,1,0,0:0:0:0:
329,192,16028,1,0,0:0:0:0:
109,192,16028,128,0,16445:0:0:0:0:
36,192,16028,1,0,0:0:0:0:
475,192,16111,1,0,0:0:0:0:
256,192,16195,1,0,0:0:0:0:
36,192,16195,128,0,16611:0:0:0:0:
329,192,16195,1,0,0:0:0:0:
402,192,16278,1,0,0:0:0:0:
329,192,16361,1,0,0:0:0:0:
182,192,16361,128,0,16695:0:0:0:0:
256,192,16361,1,0,0:0:0:0:
475,192,16445,1,0,0:0:0:0:
329,192,16528,128,0,16861:0:0:0:0:
109,192,16528,1,0,0:0:0:0:
256,192,16611,1,0,0:0:0:0:
36,192,16695,1,0,0:0:0:0:
475,192,16695,128,0,17028:0:0:0:0:
402,192,16695,1,0,0:0:0:0:
182,192,16778,1,0,0:0:0:0:
256,192,16861,128,0,17195:0:0:0:0:
109,192,16861,1,0,0:0:0:0:
36,192,16861,1,0,0:0:0:0:
329,192,16945,1,0,0:0:0:0:
402,192,17028,128,0,17278:0:0:0:0:
36,192,17028,1,0,0:0:0:0:
182,192,17028,1,0,0:0:0:0:
475,192,17111,1,0,0:0:0:0:
182,192,17195,128,0,17778:0:0:0:0:
109,192,17195,1,0,0:0:0:0:
256,192,17278,1,0,0:0:0:0:
329,192,17361,128,0,17695:0:0:0:0:
36,192,17361,1,0,0:0:0:0:
402,192,17361,1,0,0:0:0:0:
475,192,17445,1,0,0:0:0:0:
109,192,17528,128,0,17695:0:0:0:0:
256,192,17528,1,0,0:0:0:0:
36,192,17528,1,0,0:0:0:0:
256,192,17695,128,0,17861:0:0:0:0:
402,192,17695,1,0,0:0:0:0:
475,192,17695,1,0,0:0:0:0:
109,192,17778,1,0,0:0:0:0:
182,192,17861,1,0,0:0:0:0:
402,192,17861,1,0,0:0:0:0:
475,192,17861,1,0,0:0:0:0:
36,192,17861,128,0,18278:0:0:0:0:
329,192,17903,1,0,0:0:0:0:
256,192,17945,1,0,0:0:0:0:
475,192,17986,1,0,0:0:0:0:
109,192,18028,128,0,18445:0:0:0:0:
329,192,18028,1,0,0:0:0:0:
182,192,18028,1,0,0:0:0:0:
402,192,18111,1,0,0:0:0:0:
182,192,18195,128,0,18611:0:0:0:0:
256,192,18195,1,0,0:0:0:0:
329,192,18195,1,0,0:0:0:0:
475,192,18278,1,0,0:0:0:0:
256,192,18361,128,0,18778:0:0:0:0:
36,192,18361,1,0,0:0:0:0:
329,192,18361,1,0,0:0:0:0:
402,192,18445,1,0,0:0:0:0:
329,192,18528,128,0,19028:0:0:0:0:
109,192,18528,1,0,0:0:0:0:
475,192,18611,1,0,0:0:0:0:
402,192,18695,128,0,18945:0:0:0:0:
182,192,18695,1,0,0:0:0:0:
109,192,18695,1,0,0:0:0:0:
36,192,18778,1,0,0:0:0:0:
475,192,18861,128,0,19195:0:0:0:0:
256,192,18861,1,0,0:0:0:0:
182,192,18861,1,0,0:0:0:0:
109,192,18945,1,0,0:0:0:0:
36,192,19028,1,0,0:0:0:0:
256,192,19028,1,0,0:0:0:0:
402,192,19028,128,0,19361:0:0:0:0:
329,192,19111,128,0,19445:0:0:0:0:
182,192,19111,1,0,0:0:0:0:
109,192,19195,1,0,0:0:0:0:
256,192,19195,1,0,0:0:0:0:
36,192,19236,1,0,0:0:0:0:
475,192,19278,1,0,0:0:0:0:
182,192,19320,1,0,0:0:0:0:
256,192,19361,128,0,19611:0:0:0:0:
109,192,19361,1,0,0:0:0:0:
36,192,19361,1,0,0:0:0:0:
402,192,19445,1,0,0:0:0:0:
475,192,19445,1,0,0:0:0:0:
182,192,19528,128,0,19778:0:0:0:0:
329,192,19528,1,0,0:0:0:0:
109,192,19528,1,0,0:0:0:0:
36,192,19611,1,0,0:0:0:0:
402,192,19611,1,0,0:0:0:0:
109,192,19695,128,0,19945:0:0:0:0:
329,192,19695,1,0,0:0:0:0:
256,192,19695,1,0,0:0:0:0:
475,192,19778,1,0,0:0:0:0:
402,192,19778,1,0,0:0:0:0:
36,192,19861,128,0,20195:0:0:0:0:
182,192,19861,1,0,0:0:0:0:
329,192,19861,1,0,0:0:0:0:
256,192,19945,1,0,0:0:0:0:
475,192,19945,1,0,0:0:0:0:
109,192,20028,128,0,20361:0:0:0:0:
402,192,20028,1,0,0:0:0:0:
182,192,20028,1,0,0:0:0:0:
329,192,20111,1,0,0:0:0:0:
256,192,20111,1,0,0:0:0:0:
182,192,20195,128,0,20445:0:0:0:0:
475,192,20195,1,0,0:0:0:0:
402,192,20195,1,0,0:0:0:0:
36,192,20278,1,0,0:0:0:0:
329,192,20278,1,0,0:0:0:0:
256,192,20361,128,0,20528:0:0:0:0:
402,192,20361,1,0,0:0:0:0:
475,192,20361,1,0,0:0:0:0:
109,192,20445,1,0,0:0:0:0:
36,192,20445,1,0,0:0:0:0:
475,192,20528,128,0,20695:0:0:0:0:
182,192,20528,1,0,0:0:0:0:
402,192,20528,1,0,0:0:0:0:
329,192,20570,1,0,0:0:0:0:
109,192,20570,1,0,0:0:0:0:
36,192,20611,1,0,0:0:0:0:
182,192,20611,1,0,0:0:0:0:
109,192,20653,1,0,0:0:0:0:
256,192,20653,1,0,0:0:0:0:
402,192,20695,128,0,20861:0:0:0:0:
182,192,20695,1,0,0:0:0:0:
329,192,20695,1,0,0:0:0:0:
256,192,20778,1,0,0:0:0:0:
109,192,20778,1,0,0:0:0:0:
329,192,20861,128,0,21028:0:0:0:0:
36,192,20861,1,0,0:0:0:0:
256,192,20861,1,0,0:0:0:0:
475,192,20861,1,0,0:0:0:0:
402,192,20945,1,0,0:0:0:0:
182,192,20945,1,0,0:0:0:0:
256,192,21028,128,0,21195:0:0:0:0:
109,192,21028,1,0,0:0:0:0:
36,192,21028,1,0,0:0:0:0:
402,192,21111,1,0,0:0:0:0:
475,192,21111,1,0,0:0:0:0:
182,192,21195,128,0,21361:0:0:0:0:
329,192,21195,1,0,0:0:0:0:
109,192,21195,1,0,0:0:0:0:
475,192,21195,1,0,0:0:0:0:
36,192,21236,1,0,0:0:0:0:
402,192,21236,1,0,0:0:0:0:
109,192,21278,1,0,0:0:0:0:
256,192,21278,1,0,0:0:0:0:
402,192,21320,1,0,0:0:0:0:
329,192,21320,1,0,0:0:0:0:
109,192,21361,128,0,21528:0:0:0:0:
475,192,21361,1,0,0:0:0:0:
36,192,21361,1,0,0:0:0:0:
256,192,21445,1,0,0:0:0:0:
402,192,21445,1,0,0:0:0:0:
36,192,21528,128,0,21695:0:0:0:0:
475,192,21528,1,0,0:0:0:0:
182,192,21528,1,0,0:0:0:0:
329,192,21528,1,0,0:0:0:0:
256,192,21611,1,0,0:0:0:0:
402,192,21611,1,0,0:0:0:0:
182,192,21695,128,0,21861:0:0:0:0:
329,192,21695,1,0,0:0:0:0:
475,192,21695,1,0,0:0:0:0:
109,192,21778,1,0,0:0:0:0:
36,192,21778,1,0,0:0:0:0:
329,192,21861,128,0,22028:0:0:0:0:
256,192,21861,1,0,0:0:0:0:
402,192,21861,1,0,0:0:0:0:
475,192,21861,1,0,0:0:0:0:
109,192,21861,1,0,0:0:0:0:
36,192,21861,1,0,0:0:0:0:
475,192,22028,128,0,22195:0:0:0:0:
109,192,22195,128,0,22361:0:0:0:0:
256,192,22361,128,0,22528:0:0:0:0:
402,192,22528,128,0,22695:0:0:0:0:
329,192,22695,128,0,22861:0:0:0:0:
182,192,22861,128,0,23028:0:0:0:0:
109,192,22861,1,0,0:0:0:0:
402,192,22861,1,0,0:0:0:0:
109,192,22945,1,0,0:0:0:0:
402,192,22945,1,0,0:0:0:0:
36,192,23028,128,0,23195:0:0:0:0:
329,192,23195,1,0,0:0:0:0:
182,192,23195,1,0,0:0:0:0:
475,192,23195,128,0,23445:0:0:0:0:
256,192,23195,1,0,0:0:0:0:
109,192,23195,128,0,23278:0:0:0:0:
402,192,23361,128,0,23611:0:0:0:0:
182,192,23361,1,0,0:0:0:0:
36,192,23361,1,0,0:0:0:0:
256,192,23361,128,0,23445:0:0:0:0:
329,192,23528,128,0,23778:0:0:0:0:
182,192,23528,1,0,0:0:0:0:
109,192,23528,1,0,0:0:0:0:
475,192,23528,1,0,0:0:0:0:
36,192,23528,128,0,23611:0:0:0:0:
256,192,23695,128,0,23945:0:0:0:0:
109,192,23695,1,0,0:0:0:0:
475,192,23695,1,0,0:0:0:0:
402,192,23695,128,0,23778:0:0:0:0:
182,192,23861,128,0,24111:0:0:0:0:
329,192,23861,1,0,0:0:0:0:
402,192,23861,1,0,0:0:0:0:
475,192,23861,1,0,0:0:0:0:
36,192,23861,128,0,23945:0:0:0:0:
109,192,24028,128,0,24278:0:0:0:0:
256,192,24028,1,0,0:0:0:0:
36,192,24028,1,0,0:0:0:0:
402,192,24028,128,0,24111:0:0:0:0:
36,192,24195,128,0,24445:0:0:0:0:
256,192,24195,1,0,0:0:0:0:
182,192,24195,1,0,0:0:0:0:
475,192,24195,1,0,0:0:0:0:
329,192,24195,128,0,24278:0:0:0:0:
109,192,24361,128,0,24611:0:0:0:0:
402,192,24361,1,0,0:0:0:0:
329,192,24361,1,0,0:0:0:0:
256,192,24361,128,0,24445:0:0:0:0:
182,192,24528,128,0,24778:0:0:0:0:
329,192,24528,1,0,0:0:0:0:
402,192,24528,1,0,0:0:0:0:
36,192,24528,1,0,0:0:0:0:
475,192,24528,128,0,24611:0:0:0:0:
256,192,24695,128,0,24945:0:0:0:0:
109,192,24695,1,0,0:0:0:0:
36,192,24695,1,0,0:0:0:0:
402,192,24695,128,0,24778:0:0:0:0:
329,192,24861,128,0,25111:0:0:0:0:
182,192,24861,1,0,0:0:0:0:
475,192,24861,1,0,0:0:0:0:
402,192,24861,1,0,0:0:0:0:
36,192,24861,128,0,24945:0:0:0:0:
402,192,25028,128,0,25278:0:0:0:0:
109,192,25028,1,0,0:0:0:0:
256,192,25028,1,0,0:0:0:0:
182,192,25028,128,0,25111:0:0:0:0:
475,192,25195,128,0,25445:0:0:0:0:
36,192,25195,1,0,0:0:0:0:
109,192,25195,1,0,0:0:0:0:
329,192,25195,1,0,0:0:0:0:
256,192,25195,128,0,25278:0:0:0:0:
402,192,25361,128,0,25611:0:0:0:0:
329,192,25361,1,0,0:0:0:0:
36,192,25361,1,0,0:0:0:0:
182,192,25361,128,0,25445:0:0:0:0:
329,192,25528,128,0,25778:0:0:0:0:
182,192,25528,1,0,0:0:0:0:
475,192,25528,1,0,0:0:0:0:
36,192,25528,1,0,0:0:0:0:
109,192,25528,128,0,25611:0:0:0:0:
256,192,25695,128,0,25945:0:0:0:0:
109,192,25695,1,0,0:0:0:0:
182,192,25695,1,0,0:0:0:0:
402,192,25695,128,0,25778:0:0:0:0:
36,192,25861,128,0,26111:0:0:0:0:
182,192,25861,1,0,0:0:0:0:
329,192,25861,1,0,0:0:0:0:
402,192,25861,1,0,0:0:0:0:
475,192,25861,128,0,25945:0:0:0:0:
109,192,26028,128,0,26278:0:0:0:0:
402,192,26028,1,0,0:0:0:0:
256,192,26028,1,0,0:0:0:0:
329,192,26028,128,0,26111:0:0:0:0:
182,192,26195,128,0,26445:0:0:0:0:
329,192,26195,1,0,0:0:0:0:
402,192,26195,1,0,0:0:0:0:
36,192,26195,1,0,0:0:0:0:
475,192,26195,128,0,26278:0:0:0:0:
256,192,26361,128,0,26611:0:0:0:0:
109,192,26361,1,0,0:0:0:0:
402,192,26361,1,0,0:0:0:0:
36,192,26361,128,0,26445:0:0:0:0:
329,192,26528,128,0,26778:0:0:0:0:
182,192,26528,1,0,0:0:0:0:
475,192,26528,1,0,0:0:0:0:
36,192,26528,1,0,0:0:0:0:
109,192,26528,128,0,26611:0:0:0:0:
402,192,26695,128,0,26945:0:0:0:0:
182,192,26695,1,0,0:0:0:0:
36,192,26695,1,0,0:0:0:0:
256,192,26695,128,0,26778:0:0:0:0:
475,192,26861,128,0,27111:0:0:0:0:
109,192,26861,1,0,0:0:0:0:
256,192,26861,1,0,0:0:0:0:
329,192,26861,1,0,0:0:0:0:
182,192,26861,128,0,26945:0:0:0:0:
329,192,27028,128,0,27278:0:0:0:0:
256,192,27028,1,0,0:0:0:0:
36,192,27028,1,0,0:0:0:0:
109,192,27028,128,0,27111:0:0:0:0:
182,192,27195,128,0,27445:0:0:0:0:
109,192,27195,1,0,0:0:0:0:
402,192,27195,1,0,0:0:0:0:
256,192,27195,1,0,0:0:0:0:
475,192,27195,128,0,27278:0:0:0:0:
36,192,27361,128,0,27611:0:0:0:0:
109,192,27361,1,0,0:0:0:0:
402,192,27361,1,0,0:0:0:0:
329,192,27361,128,0,27445:0:0:0:0:
256,192,27528,128,0,27778:0:0:0:0:
182,192,27528,1,0,0:0:0:0:
329,192,27528,1,0,0:0:0:0:
475,192,27528,1,0,0:0:0:0:
402,192,27528,128,0,27611:0:0:0:0:
109,192,27695,128,0,27945:0:0:0:0:
36,192,27695,1,0,0:0:0:0:
402,192,27695,1,0,0:0:0:0:
182,192,27695,128,0,27778:0:0:0:0:
329,192,27861,128,0,28111:0:0:0:0:
256,192,27861,1,0,0:0:0:0:
182,192,27861,1,0,0:0:0:0:
475,192,27861,1,0,0:0:0:0:
36,192,27861,128,0,27945:0:0:0:0:
182,192,28028,128,0,28278:0:0:0:0:
256,192,28028,1,0,0:0:0:0:
109,192,28028,1,0,0:0:0:0:
402,192,28028,128,0,28111:0:0:0:0:
402,192,28195,128,0,28445:0:0:0:0:
36,192,28195,1,0,0:0:0:0:
329,192,28195,1,0,0:0:0:0:
475,192,28195,1,0,0:0:0:0:
256,192,28195,128,0,28278:0:0:0:0:
256,192,28361,128,0,28611:0:0:0:0:
182,192,28361,1,0,0:0:0:0:
329,192,28361,1,0,0:0:0:0:
109,192,28361,128,0,28445:0:0:0:0:
475,192,28528,128,0,28778:0:0:0:0:
182,192,28528,1,0,0:0:0:0:
109,192,28528,1,0,0:0:0:0:
36,192,28528,1,0,0:0:0:0:
402,192,28528,128,0,28611:0:0:0:0:
329,192,28695,128,0,28945:0:0:0:0:
109,192,28695,1,0,0:0:0:0:
402,192,28695,1,0,0:0:0:0:
256,192,28695,128,0,28778:0:0:0:0:
182,192,28861,128,0,29111:0:0:0:0:
256,192,28861,1,0,0:0:0:0:
402,192,28861,1,0,0:0:0:0:
36,192,28861,1,0,0:0:0:0:
475,192,28861,128,0,28945:0:0:0:0:
36,192,29028,128,0,29278:0:0:0:0:
329,192,29028,1,0,0:0:0:0:
402,192,29028,1,0,0:0:0:0:
109,192,29028,128,0,29111:0:0:0:0:
109,192,29195,128,0,29445:0:0:0:0:
329,192,29195,1,0,0:0:0:0:
475,192,29195,1,0,0:0:0:0:
182,192,29195,1,0,0:0:0:0:
256,192,29195,128,0,29278:0:0:0:0:
402,192,29361,128,0,29611:0:0:0:0:
256,192,29361,1,0,0:0:0:0:
36,192,29361,1,0,0:0:0:0:
329,192,29361,128,0,29445:0:0:0:0:
182,192,29528,128,0,29778:0:0:0:0:
256,192,29528,1,0,0:0:0:0:
36,192,29528,1,0,0:0:0:0:
475,192,29528,1,0,0:0:0:0:
109,192,29528,128,0,29611:0:0:0:0:
475,192,29695,128,0,29945:0:0:0:0:
402,192,29695,1,0,0:0:0:0:
36,192,29695,1,0,0:0:0:0:
256,192,29695,128,0,29778:0:0:0:0:
329,192,29778,128,0,30111:0:0:0:0:
402,192,29861,1,0,0:0:0:0:
182,192,29861,1,0,0:0:0:0:
109,192,29861,1,0,0:0:0:0:
36,192,29861,128,0,29945:0:0:0:0:
256,192,30028,128,0,30278:0:0:0:0:
109,192,30028,1,0,0:0:0:0:
475,192,30028,1,0,0:0:0:0:
182,192,30028,128,0,30111:0:0:0:0:
109,192,30195,128,0,30445:0:0:0:0:
329,192,30195,1,0,0:0:0:0:
36,192,30195,1,0,0:0:0:0:
182,192,30195,1,0,0:0:0:0:
402,192,30195,128,0,30278:0:0:0:0:
402,192,30361,128,0,30611:0:0:0:0:
329,192,30361,1,0,0:0:0:0:
475,192,30361,1,0,0:0:0:0:
256,192,30361,128,0,30445:0:0:0:0:
329,192,30528,128,0,30778:0:0:0:0:
475,192,30528,1,0,0:0:0:0:
256,192,30528,1,0,0:0:0:0:
36,192,30528,1,0,0:0:0:0:
109,192,30528,128,0,30611:0:0:0:0:
36,192,30695,128,0,30945:0:0:0:0:
109,192,30695,1,0,0:0:0:0:
182,192,30695,1,0,0:0:0:0:
402,192,30695,128,0,30778:0:0:0:0:
182,192,30861,128,0,31111:0:0:0:0:
475,192,30861,1,0,0:0:0:0:
402,192,30861,1,0,0:0:0:0:
109,192,30861,1,0,0:0:0:0:
256,192,30861,128,0,30945:0:0:0:0:
475,192,31028,128,0,31278:0:0:0:0:
402,192,31028,1,0,0:0:0:0:
36,192,31028,1,0,0:0:0:0:
329,192,31028,128,0,31111:0:0:0:0:
256,192,31195,128,0,31445:0:0:0:0:
182,192,31195,1,0,0:0:0:0:
329,192,31195,1,0,0:0:0:0:
36,192,31195,1,0,0:0:0:0:
109,192,31195,128,0,31278:0:0:0:0:
402,192,31361,128,0,31611:0:0:0:0:
109,192,31361,1,0,0:0:0:0:
475,192,31361,1,0,0:0:0:0:
329,192,31361,128,0,31445:0:0:0:0:
109,192,31528,128,0,31778:0:0:0:0:
329,192,31528,1,0,0:0:0:0:
36,192,31528,1,0,0:0:0:0:
182,192,31528,1,0,0:0:0:0:
256,192,31528,128,0,31611:0:0:0:0:
182,192,31695,128,0,31945:0:0:0:0:
256,192,31695,1,0,0:0:0:0:
475,192,31695,1,0,0:0:0:0:
402,192,31695,128,0,31778:0:0:0:0:
475,192,31861,128,0,32111:0:0:0:0:
402,192,31861,1,0,0:0:0:0:
256,192,31861,1,0,0:0:0:0:
36,192,31861,1,0,0:0:0:0:
109,192,31861,128,0,31945:0:0:0:0:
329,192,32028,128,0,32278:0:0:0:0:
36,192,32028,1,0,0:0:0:0:
402,192,32028,1,0,0:0:0:0:
182,192,32028,128,0,32111:0:0:0:0:
36,192,32195,128,0,32445:0:0:0:0:
182,192,32195,1,0,0:0:0:0:
256,192,32195,1,0,0:0:0:0:
402,192,32195,1,0,0:0:0:0:
475,192,32195,128,0,32278:0:0:0:0:
109,192,32361,128,0,32611:0:0:0:0:
256,192,32361,1,0,0:0:0:0:
329,192,32361,1,0,0:0:0:0:
182,192,32361,128,0,32445:0:0:0:0:
402,192,32528,128,0,32778:0:0:0:0:
182,192,32528,1,0,0:0:0:0:
36,192,32528,1,0,0:0:0:0:
475,192,32528,1,0,0:0:0:0:
329,192,32528,128,0,32611:0:0:0:0:
256,192,32695,128,0,32945:0:0:0:0:
329,192,32695,1,0,0:0:0:0:
182,192,32695,1,0,0:0:0:0:
109,192,32695,128,0,32778:0:0:0:0:
182,192,32861,128,0,33111:0:0:0:0:
36,192,32861,1,0,0:0:0:0:
329,192,32861,1,0,0:0:0:0:
402,192,32861,1,0,0:0:0:0:
475,192,32861,128,0,32945:0:0:0:0:
475,192,33028,128,0,33278:0:0:0:0:
329,192,33028,1,0,0:0:0:0:
402,192,33028,1,0,0:0:0:0:
109,192,33028,128,0,33111:0:0:0:0:
329,192,33195,128,0,33445:0:0:0:0:
109,192,33195,1,0,0:0:0:0:
36,192,33195,1,0,0:0:0:0:
402,192,33195,1,0,0:0:0:0:
182,192,33195,128,0,33278:0:0:0:0:
109,192,33361,128,0,33611:0:0:0:0:
256,192,33361,1,0,0:0:0:0:
475,192,33361,1,0,0:0:0:0:
402,192,33361,128,0,33445:0:0:0:0:
182,192,33528,128,0,33778:0:0:0:0:
36,192,33528,1,0,0:0:0:0:
256,192,33528,1,0,0:0:0:0:
402,192,33528,1,0,0:0:0:0:
329,192,33528,128,0,33611:0:0:0:0:
256,192,33695,128,0,33945:0:0:0:0:
402,192,33695,1,0,0:0:0:0:
475,192,33695,1,0,0:0:0:0:
36,192,33695,1,0,0:0:0:0:
109,192,33695,128,0,33778:0:0:0:0:
402,192,33861,128,0,34111:0:0:0:0:
329,192,33861,1,0,0:0:0:0:
36,192,33861,1,0,0:0:0:0:
109,192,33861,1,0,0:0:0:0:
182,192,33861,128,0,33945:0:0:0:0:
475,192,33945,1,0,0:0:0:0:
109,192,34028,128,0,34278:0:0:0:0:
182,192,34028,1,0,0:0:0:0:
329,192,34028,128,0,34111:0:0:0:0:
36,192,34111,1,0,0:0:0:0:
256,192,34195,128,0,34445:0:0:0:0:
329,192,34195,1,0,0:0:0:0:
475,192,34195,1,0,0:0:0:0:
402,192,34195,128,0,34278:0:0:0:0:
36,192,34278,1,0,0:0:0:0:
182,192,34361,128,0,34611:0:0:0:0:
475,192,34361,1,0,0:0:0:0:
109,192,34361,128,0,34445:0:0:0:0:
402,192,34445,1,0,0:0:0:0:
475,192,34528,128,0,34778:0:0:0:0:
36,192,34528,1,0,0:0:0:0:
329,192,34528,1,0,0:0:0:0:
256,192,34528,128,0,34611:0:0:0:0:
109,192,34611,1,0,0:0:0:0:
329,192,34695,128,0,34945:0:0:0:0:
256,192,34695,1,0,0:0:0:0:
182,192,34695,128,0,34778:0:0:0:0:
402,192,34778,1,0,0:0:0:0:
109,192,34861,128,0,35111:0:0:0:0:
182,192,34861,1,0,0:0:0:0:
36,192,34861,1,0,0:0:0:0:
475,192,34861,128,0,34945:0:0:0:0:
402,192,34945,1,0,0:0:0:0:
182,192,35028,128,0,35278:0:0:0:0:
329,192,35028,1,0,0:0:0:0:
256,192,35028,128,0,35111:0:0:0:0:
36,192,35111,1,0,0:0:0:0:
402,192,35195,128,0,35445:0:0:0:0:
329,192,35195,1,0,0:0:0:0:
475,192,35195,1,0,0:0:0:0:
109,192,35195,128,0,35278:0:0:0:0:
256,192,35278,1,0,0:0:0:0:
36,192,35361,128,0,35611:0:0:0:0:
182,192,35361,1,0,0:0:0:0:
329,192,35361,128,0,35445:0:0:0:0:
475,192,35445,1,0,0:0:0:0:
256,192,35528,128,0,35778:0:0:0:0:
329,192,35528,1,0,0:0:0:0:
402,192,35528,1,0,0:0:0:0:
109,192,35528,128,0,35611:0:0:0:0:
475,192,35611,1,0,0:0:0:0:
182,192,35695,128,0,35945:0:0:0:0:
109,192,35695,1,0,0:0:0:0:
329,192,35695,128,0,35778:0:0:0:0:
36,192,35778,1,0,0:0:0:0:
402,192,35861,128,0,36111:0:0:0:0:
109,192,35861,1,0,0:0:0:0:
256,192,35861,1,0,0:0:0:0:
475,192,35861,128,0,35945:0:0:0:0:
36,192,35945,1,0,0:0:0:0:
329,192,36028,128,0,36278:0:0:0:0:
256,192,36028,1,0,0:0:0:0:
182,192,36028,128,0,36111:0:0:0:0:
475,192,36111,1,0,0:0:0:0:
109,192,36195,128,0,36445:0:0:0:0:
36,192,36195,1,0,0:0:0:0:
256,192,36195,1,0,0:0:0:0:
402,192,36195,128,0,36278:0:0:0:0:
475,192,36278,1,0,0:0:0:0:
256,192,36361,128,0,36611:0:0:0:0:
402,192,36361,1,0,0:0:0:0:
182,192,36361,128,0,36445:0:0:0:0:
36,192,36445,1,0,0:0:0:0:
475,192,36528,128,0,36778:0:0:0:0:
182,192,36528,1,0,0:0:0:0:
329,192,36528,1,0,0:0:0:0:
109,192,36528,128,0,36611:0:0:0:0:
402,192,36611,1,0,0:0:0:0:
329,192,36695,128,0,36945:0:0:0:0:
36,192,36695,1,0,0:0:0:0:
256,192,36695,128,0,36778:0:0:0:0:
182,192,36778,1,0,0:0:0:0:
109,192,36861,128,0,37111:0:0:0:0:
256,192,36861,1,0,0:0:0:0:
36,192,36861,1,0,0:0:0:0:
475,192,36861,128,0,36945:0:0:0:0:
402,192,36945,1,0,0:0:0:0:
36,192,37028,128,0,37278:0:0:0:0:
256,192,37028,1,0,0:0:0:0:
329,192,37028,128,0,37111:0:0:0:0:
475,192,37111,1,0,0:0:0:0:
256,192,37195,128,0,37445:0:0:0:0:
402,192,37195,1,0,0:0:0:0:
109,192,37195,1,0,0:0:0:0:
182,192,37195,128,0,37278:0:0:0:0:
475,192,37278,1,0,0:0:0:0:
402,192,37361,128,0,37611:0:0:0:0:
36,192,37361,1,0,0:0:0:0:
329,192,37361,128,0,37445:0:0:0:0:
109,192,37445,1,0,0:0:0:0:
182,192,37528,128,0,37778:0:0:0:0:
475,192,37528,1,0,0:0:0:0:
256,192,37528,1,0,0:0:0:0:
36,192,37528,128,0,37611:0:0:0:0:
329,192,37611,1,0,0:0:0:0:
475,192,37695,128,0,37945:0:0:0:0:
256,192,37695,1,0,0:0:0:0:
109,192,37695,128,0,37778:0:0:0:0:
36,192,37778,1,0,0:0:0:0:
109,192,37861,128,0,38111:0:0:0:0:
182,192,37861,1,0,0:0:0:0:
256,192,37861,1,0,0:0:0:0:
402,192,37861,128,0,37945:0:0:0:0:
329,192,37945,1,0,0:0:0:0:
182,192,38028,128,0,38278:0:0:0:0:
402,192,38028,1,0,0:0:0:0:
256,192,38028,128,0,38111:0:0:0:0:
475,192,38111,1,0,0:0:0:0:
402,192,38195,128,0,38445:0:0:0:0:
256,192,38195,1,0,0:0:0:0:
36,192,38195,1,0,0:0:0:0:
329,192,38195,128,0,38278:0:0:0:0:
109,192,38278,1,0,0:0:0:0:
256,192,38361,128,0,38611:0:0:0:0:
475,192,38361,1,0,0:0:0:0:
182,192,38361,128,0,38445:0:0:0:0:
36,192,38445,1,0,0:0:0:0:
109,192,38528,128,0,38778:0:0:0:0:
329,192,38528,1,0,0:0:0:0:
182,192,38528,1,0,0:0:0:0:
402,192,38528,128,0,38611:0:0:0:0:
475,192,38611,1,0,0:0:0:0:
329,192,38695,128,0,38945:0:0:0:0:
256,192,38695,1,0,0:0:0:0:
182,192,38695,128,0,38778:0:0:0:0:
402,192,38778,1,0,0:0:0:0:
475,192,38861,128,0,39111:0:0:0:0:
256,192,38861,1,0,0:0:0:0:
182,192,38861,1,0,0:0:0:0:
36,192,38861,128,0,38945:0:0:0:0:
109,192,38861,1,0,0:0:0:0:
402,192,38945,1,0,0:0:0:0:
182,192,39028,128,0,39278:0:0:0:0:
329,192,39028,1,0,0:0:0:0:
256,192,39028,128,0,39111:0:0:0:0:
109,192,39028,1,0,0:0:0:0:
402,192,39111,1,0,0:0:0:0:
36,192,39195,128,0,39445:0:0:0:0:
109,192,39195,1,0,0:0:0:0:
329,192,39195,1,0,0:0:0:0:
475,192,39195,128,0,39278:0:0:0:0:
256,192,39236,1,0,0:0:0:0:
402,192,39278,1,0,0:0:0:0:
109,192,39320,1,0,0:0:0:0:
329,192,39361,128,0,39611:0:0:0:0:
475,192,39361,1,0,0:0:0:0:
182,192,39361,128,0,39445:0:0:0:0:
402,192,39445,1,0,0:0:0:0:
256,192,39528,128,0,39778:0:0:0:0:
36,192,39528,1,0,0:0:0:0:
475,192,39528,1,0,0:0:0:0:
109,192,39528,128,0,39611:0:0:0:0:
182,192,39611,1,0,0:0:0:0:
109,192,39695,128,0,39945:0:0:0:0:
329,192,39695,1,0,0:0:0:0:
475,192,39695,128,0,39778:0:0:0:0:
402,192,39778,1,0,0:0:0:0:
475,192,39861,128,0,40111:0:0:0:0:
329,192,39861,1,0,0:0:0:0:
36,192,39861,1,0,0:0:0:0:
256,192,39861,128,0,39945:0:0:0:0:
182,192,39945,1,0,0:0:0:0:
402,192,40028,128,0,40278:0:0:0:0:
256,192,40028,1,0,0:0:0:0:
36,192,40028,128,0,40111:0:0:0:0:
109,192,40111,1,0,0:0:0:0:
182,192,40195,128,0,40445:0:0:0:0:
36,192,40195,1,0,0:0:0:0:
329,192,40195,128,0,40278:0:0:0:0:
475,192,40278,1,0,0:0:0:0:
256,192,40361,128,0,40611:0:0:0:0:
329,192,40361,1,0,0:0:0:0:
109,192,40361,128,0,40445:0:0:0:0:
402,192,40445,128,0,40778:0:0:0:0:
36,192,40445,1,0,0:0:0:0:
475,192,40445,1,0,0:0:0:0:
109,192,40528,1,0,0:0:0:0:
182,192,40528,1,0,0:0:0:0:
329,192,40528,128,0,40611:0:0:0:0:
36,192,40570,1,0,0:0:0:0:
475,192,40611,1,0,0:0:0:0:
182,192,40653,1,0,0:0:0:0:
109,192,40695,128,0,40945:0:0:0:0:
329,192,40695,1,0,0:0:0:0:
36,192,40695,128,0,40778:0:0:0:0:
256,192,40778,1,0,0:0:0:0:
182,192,40861,128,0,41111:0:0:0:0:
329,192,40861,1,0,0:0:0:0:
402,192,40861,1,0,0:0:0:0:
475,192,40861,128,0,40945:0:0:0:0:
256,192,40945,1,0,0:0:0:0:
36,192,41028,128,0,41278:0:0:0:0:
109,192,41028,1,0,0:0:0:0:
329,192,41028,128,0,41111:0:0:0:0:
402,192,41111,1,0,0:0:0:0:
329,192,41195,128,0,41445:0:0:0:0:
256,192,41195,1,0,0:0:0:0:
475,192,41195,1,0,0:0:0:0:
182,192,41195,128,0,41278:0:0:0:0:
109,192,41278,1,0,0:0:0:0:
402,192,41361,128,0,41611:0:0:0:0:
36,192,41361,1,0,0:0:0:0:
256,192,41361,128,0,41445:0:0:0:0:
109,192,41445,1,0,0:0:0:0:
182,192,41528,128,0,41778:0:0:0:0:
256,192,41528,1,0,0:0:0:0:
475,192,41528,1,0,0:0:0:0:
36,192,41528,128,0,41611:0:0:0:0:
329,192,41611,1,0,0:0:0:0:
475,192,41695,128,0,41945:0:0:0:0:
402,192,41695,1,0,0:0:0:0:
256,192,41695,128,0,41778:0:0:0:0:
36,192,41695,1,0,0:0:0:0:
329,192,41778,1,0,0:0:0:0:
36,192,41861,128,0,42111:0:0:0:0:
402,192,41861,1,0,0:0:0:0:
109,192,41861,1,0,0:0:0:0:
256,192,41861,1,0,0:0:0:0:
182,192,41903,1,0,0:0:0:0:
329,192,41945,1,0,0:0:0:0:
402,192,41986,1,0,0:0:0:0:
109,192,42028,128,0,42278:0:0:0:0:
256,192,42028,1,0,0:0:0:0:
475,192,42028,1,0,0:0:0:0:
182,192,42028,1,0,0:0:0:0:
329,192,42111,1,0,0:0:0:0:
475,192,42195,128,0,42445:0:0:0:0:
182,192,42195,1,0,0:0:0:0:
256,192,42195,1,0,0:0:0:0:
36,192,42195,1,0,0:0:0:0:
402,192,42195,1,0,0:0:0:0:
329,192,42278,1,0,0:0:0:0:
402,192,42361,128,0,42611:0:0:0:0:
109,192,42361,1,0,0:0:0:0:
36,192,42361,1,0,0:0:0:0:
256,192,42361,1,0,0:0:0:0:
182,192,42445,1,0,0:0:0:0:
36,192,42528,128,0,42778:0:0:0:0:
256,192,42528,1,0,0:0:0:0:
109,192,42528,1,0,0:0:0:0:
329,192,42528,1,0,0:0:0:0:
182,192,42570,1,0,0:0:0:0:
475,192,42611,1,0,0:0:0:0:
109,192,42653,1,0,0:0:0:0:
182,192,42695,128,0,42945:0:0:0:0:
329,192,42695,1,0,0:0:0:0:
402,192,42695,1,0,0:0:0:0:
256,192,42695,1,0,0:0:0:0:
109,192,42778,1,0,0:0:0:0:
475,192,42861,128,0,43111:0:0:0:0:
329,192,42861,1,0,0:0:0:0:
36,192,42861,1,0,0:0:0:0:
402,192,42861,1,0,0:0:0:0:
256,192,42861,1,0,0:0:0:0:
109,192,42945,1,0,0:0:0:0:
256,192,42945,1,0,0:0:0:0:
329,192,43028,128,0,43195:0:0:0:0:
36,192,43028,1,0,0:0:0:0:
402,192,43028,1,0,0:0:0:0:
182,192,43028,1,0,0:0:0:0:
256,192,43028,1,0,0:0:0:0:
109,192,43111,1,0,0:0:0:0:
256,192,43111,1,0,0:0:0:0:
256,192,43195,1,0,0:0:0:0:
109,192,43236,1,0,0:0:0:0:
475,192,43236,1,0,0:0:0:0:
182,192,43278,1,0,0:0:0:0:
402,192,43278,1,0,0:0:0:0:
329,192,43320,1,0,0:0:0:0:
36,192,43320,1,0,0:0:0:0:
256,192,43361,1,0,0:0:0:0:
475,192,43361,1,0,0:0:0:0:
109,192,43403,1,0,0:0:0:0:
329,192,43403,1,0,0:0:0:0:
182,192,43445,1,0,0:0:0:0:
402,192,43445,1,0,0:0:0:0:
36,192,43486,1,0,0:0:0:0:
256,192,43486,1,0,0:0:0:0:
329,192,43528,1,0,0:0:0:0:
109,192,43528,1,0,0:0:0:0:
182,192,43570,1,0,0:0:0:0:
475,192,43570,1,0,0:0:0:0:
402,192,43611,1,0,0:0:0:0:
256,192,43611,1,0,0:0:0:0:
36,192,43653,1,0,0:0:0:0:
329,192,43653,1,0,0:0:0:0:
182,192,43695,1,0,0:0:0:0:
402,192,43695,1,0,0:0:0:0:
475,192,43736,1,0,0:0:0:0:
109,192,43736,1,0,0:0:0:0:
256,192,43778,1,0,0:0:0:0:
402,192,43778,1,0,0:0:0:0:
36,192,43820,1,0,0:0:0:0:
329,192,43820,1,0,0:0:0:0:
182,192,43861,1,0,0:0:0:0:
475,192,43861,1,0,0:0:0:0:
109,192,43903,1,0,0:0:0:0:
402,192,43903,1,0,0:0:0:0:
329,192,43945,1,0,0:0:0:0:
256,192,43945,1,0,0:0:0:0:
182,192,43986,1,0,0:0:0:0:
36,192,43986,1,0,0:0:0:0:
329,192,44028,1,0,0:0:0:0:
475,192,44028,1,0,0:0:0:0:
256,192,44070,1,0,0:0:0:0:
109,192,44070,1,0,0:0:0:0:
402,192,44111,1,0,0:0:0:0:
182,192,44111,1,0,0:0:0:0:
36,192,44153,1,0,0:0:0:0:
475,192,44153,1,0,0:0:0:0:
329,192,44195,1,0,0:0:0:0:
109,192,44195,1,0,0:0:0:0:
109,192,44278,1,0,0:0:0:0:
329,192,44278,1,0,0:0:0:0:
256,192,44528,128,0,44653:0:0:0:0:
182,192,44528,128,0,44611:0:0:0:0:
36,192,44528,128,0,44611:0:0:0:0:
109,192,44528,128,0,44549:0:0:0:0:
329,192,44528,128,0,44549:0:0:0:0:
402,192,44528,128,0,44549:0:0:0:0:
475,192,44528,128,0,44549:0:0:0:0:
109,192,44695,128,0,44820:0:0:0:0:
402,192,44695,128,0,44716:0:0:0:0:
256,192,44695,128,0,44716:0:0:0:0:
182,192,44695,128,0,44716:0:0:0:0:
329,192,44861,128,0,44986:0:0:0:0:
182,192,44861,128,0,44882:0:0:0:0:
109,192,44861,128,0,44882:0:0:0:0:
36,192,44861,128,0,44882:0:0:0:0:
475,192,44861,128,0,44882:0:0:0:0:
475,192,45028,128,0,45153:0:0:0:0:
109,192,45028,128,0,45111:0:0:0:0:
36,192,45028,128,0,45111:0:0:0:0:
182,192,45028,128,0,45111:0:0:0:0:
402,192,45028,128,0,45049:0:0:0:0:
329,192,45028,128,0,45049:0:0:0:0:
256,192,45028,128,0,45049:0:0:0:0:
256,192,45195,128,0,45320:0:0:0:0:
109,192,45195,128,0,45216:0:0:0:0:
182,192,45195,128,0,45216:0:0:0:0:
475,192,45195,128,0,45216:0:0:0:0:
402,192,45195,128,0,45216:0:0:0:0:
402,192,45361,128,0,45486:0:0:0:0:
329,192,45361,128,0,45382:0:0:0:0:
256,192,45361,128,0,45382:0:0:0:0:
36,192,45361,128,0,45382:0:0:0:0:
109,192,45528,128,0,45653:0:0:0:0:
182,192,45528,128,0,45549:0:0:0:0:
256,192,45528,128,0,45549:0:0:0:0:
329,192,45528,128,0,45549:0:0:0:0:
475,192,45528,128,0,45549:0:0:0:0:
256,192,45695,128,0,45820:0:0:0:0:
402,192,45695,128,0,45716:0:0:0:0:
109,192,45695,128,0,45716:0:0:0:0:
36,192,45695,128,0,45716:0:0:0:0:
182,192,45861,128,0,45986:0:0:0:0:
329,192,45861,128,0,45882:0:0:0:0:
256,192,45861,128,0,45882:0:0:0:0:
475,192,45861,128,0,45882:0:0:0:0:
109,192,45861,128,0,45882:0:0:0:0:
36,192,46028,128,0,46153:0:0:0:0:
182,192,46028,128,0,46049:0:0:0:0:
256,192,46028,128,0,46049:0:0:0:0:
329,192,46028,128,0,46049:0:0:0:0:
402,192,46195,128,0,46320:0:0:0:0:
109,192,46195,128,0,46216:0:0:0:0:
36,192,46195,128,0,46216:0:0:0:0:
475,192,46195,128,0,46216:0:0:0:0:
256,192,46195,128,0,46216:0:0:0:0:
182,192,46361,128,0,46486:0:0:0:0:
109,192,46361,128,0,46382:0:0:0:0:
329,192,46361,128,0,46382:0:0:0:0:
402,192,46361,128,0,46382:0:0:0:0:
329,192,46528,128,0,46653:0:0:0:0:
36,192,46528,128,0,46549:0:0:0:0:
256,192,46528,128,0,46549:0:0:0:0:
475,192,46528,128,0,46549:0:0:0:0:
402,192,46528,128,0,46549:0:0:0:0:
109,192,46695,128,0,46820:0:0:0:0:
182,192,46695,128,0,46716:0:0:0:0:
256,192,46695,128,0,46716:0:0:0:0:
402,192,46695,128,0,46716:0:0:0:0:
475,192,46861,128,0,46986:0:0:0:0:
329,192,46861,128,0,46882:0:0:0:0:
256,192,46861,128,0,46882:0:0:0:0:
109,192,46861,128,0,46882:0:0:0:0:
36,192,46861,128,0,46882:0:0:0:0:
182,192,47028,128,0,47153:0:0:0:0:
329,192,47028,128,0,47111:0:0:0:0:
36,192,47028,128,0,47111:0:0:0:0:
256,192,47028,128,0,47049:0:0:0:0:
402,192,47028,128,0,47049:0:0:0:0:
475,192,47028,128,0,47049:0:0:0:0:
109,192,47111,128,0,47195:0:0:0:0:
402,192,47111,128,0,47195:0:0:0:0:
36,192,47195,128,0,47320:0:0:0:0:
256,192,47195,128,0,47278:0:0:0:0:
475,192,47195,128,0,47278:0:0:0:0:
329,192,47195,128,0,47216:0:0:0:0:
182,192,47195,128,0,47216:0:0:0:0:
329,192,47361,128,0,47486:0:0:0:0:
109,192,47361,128,0,47445:0:0:0:0:
182,192,47361,128,0,47382:0:0:0:0:
256,192,47361,128,0,47382:0:0:0:0:
402,192,47361,128,0,47382:0:0:0:0:
182,192,47528,128,0,47653:0:0:0:0:
402,192,47528,128,0,47611:0:0:0:0:
36,192,47528,128,0,47611:0:0:0:0:
109,192,47528,128,0,47549:0:0:0:0:
256,192,47528,128,0,47549:0:0:0:0:
329,192,47528,128,0,47549:0:0:0:0:
475,192,47528,128,0,47549:0:0:0:0:
475,192,47695,128,0,47820:0:0:0:0:
329,192,47695,128,0,47778:0:0:0:0:
109,192,47695,128,0,47778:0:0:0:0:
402,192,47695,128,0,47716:0:0:0:0:
256,192,47695,128,0,47716:0:0:0:0:
182,192,47695,128,0,47716:0:0:0:0:
256,192,47861,128,0,47986:0:0:0:0:
182,192,47861,128,0,47882:0:0:0:0:
329,192,47861,128,0,47882:0:0:0:0:
402,192,47861,128,0,47882:0:0:0:0:
36,192,47861,128,0,47882:0:0:0:0:
402,192,48028,128,0,48153:0:0:0:0:
182,192,48028,128,0,48049:0:0:0:0:
256,192,48028,128,0,48049:0:0:0:0:
475,192,48028,128,0,48049:0:0:0:0:
109,192,48195,128,0,48320:0:0:0:0:
256,192,48195,128,0,48216:0:0:0:0:
329,192,48195,128,0,48216:0:0:0:0:
475,192,48195,128,0,48216:0:0:0:0:
36,192,48195,128,0,48216:0:0:0:0:
256,192,48361,128,0,48486:0:0:0:0:
109,192,48361,128,0,48382:0:0:0:0:
329,192,48361,128,0,48382:0:0:0:0:
402,192,48361,128,0,48382:0:0:0:0:
36,192,48528,128,0,48653:0:0:0:0:
109,192,48528,128,0,48611:0:0:0:0:
475,192,48528,128,0,48611:0:0:0:0:
182,192,48528,128,0,48549:0:0:0:0:
256,192,48528,128,0,48549:0:0:0:0:
329,192,48528,128,0,48549:0:0:0:0:
402,192,48528,128,0,48549:0:0:0:0:
182,192,48695,128,0,48820:0:0:0:0:
329,192,48695,128,0,48716:0:0:0:0:
402,192,48695,128,0,48716:0:0:0:0:
36,192,48695,128,0,48716:0:0:0:0:
475,192,48861,128,0,48986:0:0:0:0:
256,192,48861,128,0,48882:0:0:0:0:
182,192,48861,128,0,48882:0:0:0:0:
109,192,48861,128,0,48882:0:0:0:0:
402,192,48861,128,0,48882:0:0:0:0:
329,192,49028,128,0,49153:0:0:0:0:
402,192,49028,128,0,49049:0:0:0:0:
256,192,49028,128,0,49049:0:0:0:0:
36,192,49028,128,0,49049:0:0:0:0:
109,192,49195,128,0,49320:0:0:0:0:
182,192,49195,128,0,49216:0:0:0:0:
256,192,49195,128,0,49216:0:0:0:0:
329,192,49195,128,0,49216:0:0:0:0:
475,192,49195,128,0,49216:0:0:0:0:
402,192,49361,128,0,49486:0:0:0:0:
256,192,49361,128,0,49382:0:0:0:0:
109,192,49361,128,0,49382:0:0:0:0:
36,192,49361,128,0,49382:0:0:0:0:
182,192,49528,128,0,49653:0:0:0:0:
256,192,49528,128,0,49549:0:0:0:0:
329,192,49528,128,0,49549:0:0:0:0:
402,192,49528,128,0,49549:0:0:0:0:
475,192,49528,128,0,49549:0:0:0:0:
329,192,49695,128,0,49820:0:0:0:0:
36,192,49695,128,0,49778:0:0:0:0:
256,192,49695,128,0,49778:0:0:0:0:
402,192,49695,128,0,49716:0:0:0:0:
109,192,49695,128,0,49716:0:0:0:0:
475,192,49778,128,0,49861:0:0:0:0:
182,192,49778,128,0,49861:0:0:0:0:
109,192,49861,128,0,49986:0:0:0:0:
402,192,49861,128,0,49945:0:0:0:0:
36,192,49861,128,0,49945:0:0:0:0:
256,192,49861,128,0,49882:0:0:0:0:
329,192,49861,128,0,49882:0:0:0:0:
256,192,50028,128,0,50153:0:0:0:0:
329,192,50028,128,0,50111:0:0:0:0:
475,192,50028,128,0,50049:0:0:0:0:
182,192,50028,128,0,50049:0:0:0:0:
109,192,50028,128,0,50049:0:0:0:0:
402,192,50195,128,0,50320:0:0:0:0:
109,192,50195,128,0,50278:0:0:0:0:
475,192,50195,128,0,50278:0:0:0:0:
329,192,50195,128,0,50216:0:0:0:0:
256,192,50195,128,0,50216:0:0:0:0:
182,192,50195,128,0,50216:0:0:0:0:
36,192,50195,128,0,50216:0:0:0:0:
182,192,50361,128,0,50486:0:0:0:0:
329,192,50361,128,0,50445:0:0:0:0:
36,192,50361,128,0,50445:0:0:0:0:
109,192,50361,128,0,50382:0:0:0:0:
256,192,50361,128,0,50382:0:0:0:0:
475,192,50361,128,0,50382:0:0:0:0:
475,192,50528,128,0,50653:0:0:0:0:
402,192,50528,128,0,50549:0:0:0:0:
329,192,50528,128,0,50549:0:0:0:0:
182,192,50528,128,0,50549:0:0:0:0:
109,192,50528,128,0,50549:0:0:0:0:
36,192,50695,128,0,50820:0:0:0:0:
402,192,50695,128,0,50716:0:0:0:0:
256,192,50695,128,0,50716:0:0:0:0:
182,192,50695,128,0,50716:0:0:0:0:
256,192,50861,128,0,50986:0:0:0:0:
329,192,50861,128,0,50945:0:0:0:0:
109,192,50861,128,0,50945:0:0:0:0:
475,192,50861,128,0,50945:0:0:0:0:
182,192,50861,128,0,50882:0:0:0:0:
36,192,50861,128,0,50882:0:0:0:0:
402,192,50861,128,0,50882:0:0:0:0:
402,192,51028,128,0,51153:0:0:0:0:
256,192,51028,128,0,51049:0:0:0:0:
329,192,51028,128,0,51049:0:0:0:0:
109,192,51028,128,0,51049:0:0:0:0:
109,192,51195,128,0,51320:0:0:0:0:
256,192,51195,128,0,51216:0:0:0:0:
402,192,51195,128,0,51216:0:0:0:0:
475,192,51195,128,0,51216:0:0:0:0:
36,192,51195,128,0,51216:0:0:0:0:
329,192,51361,128,0,51486:0:0:0:0:
109,192,51361,128,0,51382:0:0:0:0:
256,192,51361,128,0,51382:0:0:0:0:
475,192,51361,128,0,51382:0:0:0:0:
182,192,51528,128,0,51653:0:0:0:0:
329,192,51528,128,0,51549:0:0:0:0:
402,192,51528,128,0,51549:0:0:0:0:
109,192,51528,128,0,51549:0:0:0:0:
36,192,51528,128,0,51549:0:0:0:0:
475,192,51695,128,0,51820:0:0:0:0:
109,192,51695,128,0,51716:0:0:0:0:
256,192,51695,128,0,51716:0:0:0:0:
329,192,51695,128,0,51716:0:0:0:0:
256,192,51861,128,0,51986:0:0:0:0:
182,192,51861,128,0,51882:0:0:0:0:
329,192,51861,128,0,51882:0:0:0:0:
475,192,51861,128,0,51882:0:0:0:0:
402,192,51861,128,0,51882:0:0:0:0:
109,192,52028,128,0,52153:0:0:0:0:
329,192,52028,128,0,52049:0:0:0:0:
256,192,52028,128,0,52049:0:0:0:0:
36,192,52028,128,0,52049:0:0:0:0:
329,192,52195,128,0,52320:0:0:0:0:
109,192,52195,128,0,52216:0:0:0:0:
182,192,52195,128,0,52216:0:0:0:0:
402,192,52195,128,0,52216:0:0:0:0:
475,192,52195,128,0,52216:0:0:0:0:
475,192,52361,128,0,52382:0:0:0:0:
182,192,52361,128,0,52486:0:0:0:0:
256,192,52361,128,0,52382:0:0:0:0:
36,192,52361,128,0,52382:0:0:0:0:
402,192,52528,128,0,52653:0:0:0:0:
109,192,52528,128,0,52611:0:0:0:0:
256,192,52528,128,0,52611:0:0:0:0:
36,192,52528,128,0,52549:0:0:0:0:
182,192,52528,128,0,52549:0:0:0:0:
329,192,52528,128,0,52549:0:0:0:0:
475,192,52528,128,0,52549:0:0:0:0:
36,192,52695,128,0,52820:0:0:0:0:
402,192,52695,128,0,52716:0:0:0:0:
256,192,52695,128,0,52716:0:0:0:0:
182,192,52695,128,0,52716:0:0:0:0:
256,192,52861,128,0,52986:0:0:0:0:
182,192,52861,128,0,52882:0:0:0:0:
109,192,52861,128,0,52882:0:0:0:0:
329,192,52861,128,0,52882:0:0:0:0:
475,192,52861,128,0,52882:0:0:0:0:
329,192,53028,128,0,53153:0:0:0:0:
182,192,53028,128,0,53111:0:0:0:0:
36,192,53028,128,0,53111:0:0:0:0:
402,192,53028,128,0,53049:0:0:0:0:
256,192,53028,128,0,53049:0:0:0:0:
109,192,53028,128,0,53049:0:0:0:0:
475,192,53195,128,0,53320:0:0:0:0:
36,192,53195,128,0,53216:0:0:0:0:
182,192,53195,128,0,53216:0:0:0:0:
256,192,53195,128,0,53216:0:0:0:0:
329,192,53195,128,0,53216:0:0:0:0:
182,192,53361,128,0,53486:0:0:0:0:
402,192,53361,128,0,53382:0:0:0:0:
475,192,53361,128,0,53382:0:0:0:0:
109,192,53361,128,0,53382:0:0:0:0:
402,192,53528,128,0,53653:0:0:0:0:
329,192,53528,128,0,53611:0:0:0:0:
475,192,53528,128,0,53611:0:0:0:0:
256,192,53528,128,0,53611:0:0:0:0:
182,192,53528,128,0,53549:0:0:0:0:
109,192,53528,128,0,53549:0:0:0:0:
36,192,53528,128,0,53549:0:0:0:0:
109,192,53695,128,0,53820:0:0:0:0:
182,192,53695,128,0,53716:0:0:0:0:
329,192,53695,128,0,53716:0:0:0:0:
402,192,53695,128,0,53716:0:0:0:0:
182,192,53861,128,0,53986:0:0:0:0:
402,192,53861,128,0,53882:0:0:0:0:
329,192,53861,128,0,53882:0:0:0:0:
475,192,53861,128,0,53882:0:0:0:0:
109,192,53861,128,0,53882:0:0:0:0:
36,192,54028,128,0,54153:0:0:0:0:
182,192,54028,128,0,54049:0:0:0:0:
329,192,54028,128,0,54049:0:0:0:0:
475,192,54028,128,0,54049:0:0:0:0:
256,192,54195,128,0,54320:0:0:0:0:
109,192,54195,128,0,54216:0:0:0:0:
182,192,54195,128,0,54216:0:0:0:0:
402,192,54195,128,0,54216:0:0:0:0:
475,192,54195,128,0,54216:0:0:0:0:
402,192,54361,128,0,54486:0:0:0:0:
329,192,54361,128,0,54382:0:0:0:0:
182,192,54361,128,0,54382:0:0:0:0:
36,192,54361,128,0,54382:0:0:0:0:
182,192,54528,128,0,54653:0:0:0:0:
109,192,54528,128,0,54549:0:0:0:0:
256,192,54528,128,0,54549:0:0:0:0:
475,192,54528,128,0,54549:0:0:0:0:
402,192,54528,128,0,54549:0:0:0:0:
329,192,54695,128,0,54820:0:0:0:0:
256,192,54695,128,0,54716:0:0:0:0:
182,192,54695,128,0,54716:0:0:0:0:
36,192,54695,128,0,54716:0:0:0:0:
475,192,54861,128,0,54986:0:0:0:0:
109,192,54861,128,0,54882:0:0:0:0:
182,192,54861,128,0,54882:0:0:0:0:
329,192,54861,128,0,54882:0:0:0:0:
402,192,54861,128,0,54882:0:0:0:0:
256,192,55028,128,0,55153:0:0:0:0:
402,192,55028,128,0,55049:0:0:0:0:
182,192,55028,128,0,55049:0:0:0:0:
36,192,55028,128,0,55049:0:0:0:0:
402,192,55195,128,0,55320:0:0:0:0:
109,192,55195,128,0,55278:0:0:0:0:
329,192,55195,128,0,55278:0:0:0:0:
36,192,55195,128,0,55216:0:0:0:0:
182,192,55195,128,0,55216:0:0:0:0:
256,192,55195,128,0,55216:0:0:0:0:
475,192,55195,128,0,55216:0:0:0:0:
182,192,55361,128,0,55486:0:0:0:0:
402,192,55361,128,0,55382:0:0:0:0:
329,192,55361,128,0,55382:0:0:0:0:
109,192,55361,128,0,55382:0:0:0:0:
109,192,55528,128,0,55653:0:0:0:0:
36,192,55528,128,0,55549:0:0:0:0:
256,192,55528,128,0,55549:0:0:0:0:
402,192,55528,128,0,55549:0:0:0:0:
475,192,55528,128,0,55549:0:0:0:0:
256,192,55695,128,0,55820:0:0:0:0:
182,192,55695,128,0,55778:0:0:0:0:
402,192,55695,128,0,55778:0:0:0:0:
475,192,55695,128,0,55778:0:0:0:0:
329,192,55695,128,0,55716:0:0:0:0:
109,192,55695,128,0,55716:0:0:0:0:
36,192,55695,128,0,55716:0:0:0:0:
329,192,55861,128,0,55986:0:0:0:0:
109,192,55861,128,0,55882:0:0:0:0:
182,192,55861,128,0,55882:0:0:0:0:
256,192,55861,128,0,55882:0:0:0:0:
475,192,55861,128,0,55882:0:0:0:0:
36,192,56028,128,0,56153:0:0:0:0:
402,192,56028,128,0,56049:0:0:0:0:
256,192,56028,128,0,56049:0:0:0:0:
182,192,56028,128,0,56049:0:0:0:0:
256,192,56195,128,0,56320:0:0:0:0:
329,192,56195,128,0,56216:0:0:0:0:
475,192,56195,128,0,56216:0:0:0:0:
109,192,56195,128,0,56216:0:0:0:0:
36,192,56195,128,0,56216:0:0:0:0:
402,192,56361,128,0,56486:0:0:0:0:
36,192,56361,128,0,56382:0:0:0:0:
182,192,56361,128,0,56382:0:0:0:0:
329,192,56361,128,0,56382:0:0:0:0:
109,192,56528,128,0,56653:0:0:0:0:
256,192,56528,128,0,56549:0:0:0:0:
329,192,56528,128,0,56549:0:0:0:0:
475,192,56528,128,0,56549:0:0:0:0:
36,192,56528,128,0,56549:0:0:0:0:
329,192,56695,128,0,56820:0:0:0:0:
182,192,56695,128,0,56716:0:0:0:0:
402,192,56695,128,0,56716:0:0:0:0:
256,192,56695,128,0,56716:0:0:0:0:
182,192,56861,128,0,56986:0:0:0:0:
329,192,56861,128,0,56882:0:0:0:0:
475,192,56861,128,0,56882:0:0:0:0:
109,192,56861,128,0,56882:0:0:0:0:
36,192,56861,128,0,56882:0:0:0:0:
402,192,57028,128,0,57153:0:0:0:0:
109,192,57028,128,0,57049:0:0:0:0:
256,192,57028,128,0,57049:0:0:0:0:
329,192,57028,128,0,57049:0:0:0:0:
256,192,57195,128,0,57320:0:0:0:0:
182,192,57195,128,0,57216:0:0:0:0:
329,192,57195,128,0,57216:0:0:0:0:
475,192,57195,128,0,57216:0:0:0:0:
36,192,57195,128,0,57216:0:0:0:0:
36,192,57361,128,0,57486:0:0:0:0:
182,192,57361,128,0,57382:0:0:0:0:
329,192,57361,128,0,57382:0:0:0:0:
402,192,57361,128,0,57382:0:0:0:0:
475,192,57528,128,0,57653:0:0:0:0:
109,192,57528,128,0,57549:0:0:0:0:
182,192,57528,128,0,57549:0:0:0:0:
329,192,57528,128,0,57549:0:0:0:0:
402,192,57528,128,0,57549:0:0:0:0:
182,192,57695,128,0,57820:0:0:0:0:
329,192,57695,128,0,57778:0:0:0:0:
109,192,57695,128,0,57778:0:0:0:0:
402,192,57695,128,0,57716:0:0:0:0:
36,192,57695,128,0,57716:0:0:0:0:
256,192,57778,128,0,57861:0:0:0:0:
475,192,57778,128,0,57861:0:0:0:0:
402,192,57861,128,0,57986:0:0:0:0:
36,192,57861,128,0,57945:0:0:0:0:
329,192,57861,128,0,57945:0:0:0:0:
109,192,57861,128,0,57882:0:0:0:0:
182,192,57861,128,0,57882:0:0:0:0:
109,192,58028,128,0,58153:0:0:0:0:
182,192,58028,128,0,58111:0:0:0:0:
256,192,58028,128,0,58049:0:0:0:0:
329,192,58028,128,0,58049:0:0:0:0:
475,192,58028,128,0,58049:0:0:0:0:
256,192,58195,128,0,58320:0:0:0:0:
402,192,58195,128,0,58278:0:0:0:0:
36,192,58195,128,0,58278:0:0:0:0:
475,192,58195,128,0,58216:0:0:0:0:
329,192,58195,128,0,58216:0:0:0:0:
182,192,58195,128,0,58216:0:0:0:0:
109,192,58195,128,0,58216:0:0:0:0:
475,192,58361,128,0,58486:0:0:0:0:
109,192,58361,128,0,58445:0:0:0:0:
329,192,58361,128,0,58445:0:0:0:0:
256,192,58361,128,0,58382:0:0:0:0:
36,192,58361,128,0,58382:0:0:0:0:
402,192,58361,128,0,58382:0:0:0:0:
182,192,58528,128,0,58653:0:0:0:0:
402,192,58528,128,0,58549:0:0:0:0:
329,192,58528,128,0,58549:0:0:0:0:
109,192,58528,128,0,58549:0:0:0:0:
36,192,58528,128,0,58549:0:0:0:0:
36,192,58695,128,0,58820:0:0:0:0:
256,192,58695,128,0,58716:0:0:0:0:
402,192,58695,128,0,58716:0:0:0:0:
475,192,58695,128,0,58716:0:0:0:0:
329,192,58861,128,0,58986:0:0:0:0:
475,192,58861,128,0,58882:0:0:0:0:
402,192,58861,128,0,58882:0:0:0:0:
182,192,58861,128,0,58882:0:0:0:0:
109,192,58861,128,0,58882:0:0:0:0:
182,192,59028,128,0,59153:0:0:0:0:
36,192,59028,128,0,59049:0:0:0:0:
329,192,59028,128,0,59049:0:0:0:0:
402,192,59028,128,0,59049:0:0:0:0:
402,192,59195,128,0,59320:0:0:0:0:
329,192,59195,128,0,59278:0:0:0:0:
475,192,59195,128,0,59216:0:0:0:0:
182,192,59195,128,0,59216:0:0:0:0:
109,192,59195,128,0,59216:0:0:0:0:
36,192,59195,128,0,59216:0:0:0:0:
109,192,59361,128,0,59486:0:0:0:0:
36,192,59361,128,0,59382:0:0:0:0:
256,192,59361,128,0,59382:0:0:0:0:
402,192,59361,128,0,59382:0:0:0:0:
256,192,59528,128,0,59653:0:0:0:0:
329,192,59528,128,0,59549:0:0:0:0:
475,192,59528,128,0,59549:0:0:0:0:
182,192,59528,128,0,59549:0:0:0:0:
109,192,59528,128,0,59549:0:0:0:0:
329,192,59695,128,0,59820:0:0:0:0:
182,192,59695,128,0,59716:0:0:0:0:
109,192,59695,128,0,59716:0:0:0:0:
36,192,59695,128,0,59716:0:0:0:0:
36,192,59861,128,0,59986:0:0:0:0:
109,192,59861,128,0,59882:0:0:0:0:
182,192,59861,128,0,59882:0:0:0:0:
256,192,59861,128,0,59882:0:0:0:0:
402,192,59861,128,0,59882:0:0:0:0:
475,192,60028,128,0,60153:0:0:0:0:
402,192,60028,128,0,60049:0:0:0:0:
256,192,60028,128,0,60049:0:0:0:0:
109,192,60028,128,0,60049:0:0:0:0:
182,192,60195,128,0,60320:0:0:0:0:
109,192,60195,128,0,60216:0:0:0:0:
475,192,60195,128,0,60216:0:0:0:0:
329,192,60195,128,0,60216:0:0:0:0:
36,192,60195,128,0,60216:0:0:0:0:
402,192,60361,128,0,60486:0:0:0:0:
182,192,60361,128,0,60445:0:0:0:0:
329,192,60361,128,0,60445:0:0:0:0:
109,192,60361,128,0,60382:0:0:0:0:
36,192,60361,128,0,60382:0:0:0:0:
475,192,60445,128,0,60528:0:0:0:0:
256,192,60445,128,0,60528:0:0:0:0:
109,192,60528,128,0,60653:0:0:0:0:
329,192,60528,128,0,60611:0:0:0:0:
182,192,60528,128,0,60611:0:0:0:0:
36,192,60528,128,0,60549:0:0:0:0:
402,192,60528,128,0,60549:0:0:0:0:
256,192,60695,128,0,60820:0:0:0:0:
36,192,60695,128,0,60778:0:0:0:0:
402,192,60695,128,0,60716:0:0:0:0:
475,192,60695,128,0,60716:0:0:0:0:
182,192,60695,128,0,60716:0:0:0:0:
329,192,60861,128,0,60986:0:0:0:0:
109,192,60861,128,0,60945:0:0:0:0:
402,192,60861,128,0,60945:0:0:0:0:
182,192,60861,128,0,60882:0:0:0:0:
256,192,60861,128,0,60882:0:0:0:0:
475,192,60861,128,0,60882:0:0:0:0:
36,192,60861,128,0,60882:0:0:0:0:
182,192,61028,128,0,61153:0:0:0:0:
475,192,61028,128,0,61111:0:0:0:0:
256,192,61028,128,0,61111:0:0:0:0:
109,192,61028,128,0,61049:0:0:0:0:
36,192,61028,128,0,61049:0:0:0:0:
329,192,61028,128,0,61049:0:0:0:0:
36,192,61195,128,0,61320:0:0:0:0:
329,192,61195,128,0,61216:0:0:0:0:
402,192,61195,128,0,61216:0:0:0:0:
256,192,61195,128,0,61216:0:0:0:0:
109,192,61195,128,0,61216:0:0:0:0:
402,192,61361,128,0,61486:0:0:0:0:
182,192,61361,128,0,61382:0:0:0:0:
256,192,61361,128,0,61382:0:0:0:0:
36,192,61361,128,0,61382:0:0:0:0:
182,192,61528,128,0,61653:0:0:0:0:
329,192,61528,128,0,61611:0:0:0:0:
475,192,61528,128,0,61611:0:0:0:0:
109,192,61528,128,0,61611:0:0:0:0:
36,192,61528,128,0,61549:0:0:0:0:
256,192,61528,128,0,61549:0:0:0:0:
402,192,61528,128,0,61549:0:0:0:0:
256,192,61695,128,0,61820:0:0:0:0:
329,192,61695,128,0,61716:0:0:0:0:
475,192,61695,128,0,61716:0:0:0:0:
36,192,61695,128,0,61716:0:0:0:0:
475,192,61861,128,0,61986:0:0:0:0:
109,192,61861,128,0,61882:0:0:0:0:
256,192,61861,128,0,61882:0:0:0:0:
402,192,61861,128,0,61882:0:0:0:0:
36,192,61861,128,0,61882:0:0:0:0:
109,192,62028,128,0,62153:0:0:0:0:
182,192,62028,128,0,62049:0:0:0:0:
329,192,62028,128,0,62049:0:0:0:0:
256,192,62028,128,0,62049:0:0:0:0:
402,192,62195,128,0,62320:0:0:0:0:
475,192,62195,128,0,62216:0:0:0:0:
182,192,62195,128,0,62216:0:0:0:0:
109,192,62195,128,0,62216:0:0:0:0:
36,192,62195,128,0,62216:0:0:0:0:
329,192,62361,128,0,62486:0:0:0:0:
109,192,62361,128,0,62382:0:0:0:0:
256,192,62361,128,0,62382:0:0:0:0:
402,192,62361,128,0,62382:0:0:0:0:
182,192,62528,128,0,62653:0:0:0:0:
256,192,62528,128,0,62549:0:0:0:0:
475,192,62528,128,0,62549:0:0:0:0:
109,192,62528,128,0,62549:0:0:0:0:
36,192,62528,128,0,62549:0:0:0:0:
402,192,62695,128,0,62820:0:0:0:0:
109,192,62695,128,0,62716:0:0:0:0:
329,192,62695,128,0,62716:0:0:0:0:
475,192,62695,128,0,62716:0:0:0:0:
182,192,62695,128,0,62716:0:0:0:0:
36,192,62861,128,0,62986:0:0:0:0:
109,192,62861,128,0,62882:0:0:0:0:
182,192,62861,128,0,62882:0:0:0:0:
256,192,62861,128,0,62882:0:0:0:0:
402,192,62861,128,0,62882:0:0:0:0:
182,192,63028,128,0,63153:0:0:0:0:
329,192,63028,128,0,63111:0:0:0:0:
109,192,63028,128,0,63111:0:0:0:0:
475,192,63028,128,0,63049:0:0:0:0:
36,192,63028,128,0,63049:0:0:0:0:
402,192,63111,128,0,63195:0:0:0:0:
256,192,63111,128,0,63195:0:0:0:0:
475,192,63195,128,0,63320:0:0:0:0:
109,192,63195,128,0,63278:0:0:0:0:
329,192,63195,128,0,63278:0:0:0:0:
36,192,63195,128,0,63216:0:0:0:0:
182,192,63195,128,0,63216:0:0:0:0:
256,192,63361,128,0,63486:0:0:0:0:
182,192,63361,128,0,63445:0:0:0:0:
329,192,63361,128,0,63382:0:0:0:0:
402,192,63361,128,0,63382:0:0:0:0:
109,192,63361,128,0,63382:0:0:0:0:
402,192,63528,128,0,63653:0:0:0:0:
475,192,63528,128,0,63611:0:0:0:0:
36,192,63528,128,0,63611:0:0:0:0:
109,192,63528,128,0,63549:0:0:0:0:
182,192,63528,128,0,63549:0:0:0:0:
329,192,63528,128,0,63549:0:0:0:0:
256,192,63528,128,0,63549:0:0:0:0:
109,192,63695,128,0,63820:0:0:0:0:
256,192,63695,128,0,63778:0:0:0:0:
402,192,63695,128,0,63778:0:0:0:0:
182,192,63695,128,0,63716:0:0:0:0:
36,192,63695,128,0,63716:0:0:0:0:
475,192,63695,128,0,63716:0:0:0:0:
329,192,63861,128,0,63986:0:0:0:0:
475,192,63861,128,0,63882:0:0:0:0:
256,192,63861,128,0,63882:0:0:0:0:
36,192,63861,128,0,63882:0:0:0:0:
182,192,63861,128,0,63882:0:0:0:0:
182,192,64028,128,0,64153:0:0:0:0:
402,192,64028,128,0,64049:0:0:0:0:
256,192,64028,128,0,64049:0:0:0:0:
36,192,64028,128,0,64049:0:0:0:0:
475,192,64195,128,0,64320:0:0:0:0:
329,192,64195,128,0,64278:0:0:0:0:
402,192,64195,128,0,64278:0:0:0:0:
36,192,64195,128,0,64278:0:0:0:0:
109,192,64195,128,0,64216:0:0:0:0:
182,192,64195,128,0,64216:0:0:0:0:
256,192,64195,128,0,64216:0:0:0:0:
109,192,64361,128,0,64486:0:0:0:0:
182,192,64361,128,0,64382:0:0:0:0:
329,192,64361,128,0,64382:0:0:0:0:
402,192,64361,128,0,64382:0:0:0:0:
329,192,64528,128,0,64653:0:0:0:0:
402,192,64528,128,0,64549:0:0:0:0:
475,192,64528,128,0,64549:0:0:0:0:
256,192,64528,128,0,64549:0:0:0:0:
36,192,64528,128,0,64549:0:0:0:0:
109,192,64528,128,0,64549:0:0:0:0:
182,192,64695,128,0,64820:0:0:0:0:
402,192,64861,128,0,64986:0:0:0:0:
109,192,65028,128,0,65153:0:0:0:0:
329,192,65195,128,0,65320:0:0:0:0:
182,192,65361,128,0,65486:0:0:0:0:
402,192,65528,128,0,65653:0:0:0:0:
256,192,65695,128,0,65820:0:0:0:0:
402,192,65861,128,0,65945:0:0:0:0:
475,192,65861,128,0,65945:0:0:0:0:
256,192,65861,128,0,66278:0:0:0:0:
36,192,65861,128,0,66278:0:0:0:0:
109,192,66028,128,0,66278:0:0:0:0:
329,192,66028,128,0,66611:0:0:0:0:
182,192,66195,128,0,66445:0:0:0:0:
402,192,66195,128,0,66445:0:0:0:0:
109,192,66361,128,0,66445:0:0:0:0:
36,192,66361,128,0,66445:0:0:0:0:
475,192,66361,128,0,67278:0:0:0:0:
256,192,66361,128,0,66778:0:0:0:0:
402,192,66528,128,0,67111:0:0:0:0:
182,192,66528,128,0,67111:0:0:0:0:
329,192,66695,128,0,66945:0:0:0:0:
109,192,66695,128,0,66945:0:0:0:0:
36,192,66861,128,0,67778:0:0:0:0:
256,192,66861,128,0,67278:0:0:0:0:
109,192,67028,128,0,67611:0:0:0:0:
329,192,67028,128,0,67611:0:0:0:0:
182,192,67195,128,0,67445:0:0:0:0:
402,192,67195,128,0,67445:0:0:0:0:
256,192,67361,128,0,67778:0:0:0:0:
475,192,67361,128,0,68278:0:0:0:0:
402,192,67528,128,0,68111:0:0:0:0:
182,192,67528,128,0,68111:0:0:0:0:
329,192,67695,128,0,67945:0:0:0:0:
109,192,67695,128,0,67945:0:0:0:0:
256,192,67861,128,0,68278:0:0:0:0:
36,192,67861,128,0,68445:0:0:0:0:
329,192,68028,128,0,68278:0:0:0:0:
109,192,68028,128,0,68278:0:0:0:0:
402,192,68195,128,0,68361:0:0:0:0:
182,192,68195,128,0,68361:0:0:0:0:
109,192,68361,128,0,68445:0:0:0:0:
329,192,68361,128,0,68445:0:0:0:0:
256,192,68361,128,0,68445:0:0:0:0:
475,192,68361,128,0,68778:0:0:0:0:
182,192,68445,128,0,68528:0:0:0:0:
402,192,68445,128,0,68528:0:0:0:0:
256,192,68528,128,0,68611:0:0:0:0:
109,192,68528,128,0,68611:0:0:0:0:
329,192,68528,128,0,68778:0:0:0:0:
36,192,68528,128,0,68778:0:0:0:0:
256,192,68695,128,0,68778:0:0:0:0:
402,192,68695,128,0,68945:0:0:0:0:
109,192,68695,128,0,68945:0:0:0:0:
329,192,68861,128,0,68945:0:0:0:0:
36,192,68861,128,0,68945:0:0:0:0:
475,192,68861,128,0,68945:0:0:0:0:
182,192,68861,128,0,69445:0:0:0:0:
256,192,69028,128,0,69111:0:0:0:0:
475,192,69028,128,0,69111:0:0:0:0:
402,192,69028,128,0,69611:0:0:0:0:
109,192,69028,128,0,69278:0:0:0:0:
329,192,69195,128,0,69445:0:0:0:0:
36,192,69195,128,0,70445:0:0:0:0:
109,192,69361,128,0,69778:0:0:0:0:
256,192,69361,128,0,69611:0:0:0:0:
182,192,69528,128,0,69778:0:0:0:0:
329,192,69528,128,0,69778:0:0:0:0:
402,192,69695,128,0,69945:0:0:0:0:
256,192,69695,128,0,69945:0:0:0:0:
182,192,69861,128,0,69945:0:0:0:0:
109,192,69861,128,0,69945:0:0:0:0:
475,192,69861,128,0,70528:0:0:0:0:
329,192,69861,128,0,70111:0:0:0:0:
402,192,70028,128,0,70611:0:0:0:0:
256,192,70028,128,0,70278:0:0:0:0:
329,192,70195,128,0,70445:0:0:0:0:
182,192,70195,128,0,70778:0:0:0:0:
109,192,70361,128,0,70611:0:0:0:0:
256,192,70361,128,0,71111:0:0:0:0:
329,192,70528,128,0,70945:0:0:0:0:
36,192,70528,128,0,70945:0:0:0:0:
402,192,70695,128,0,70945:0:0:0:0:
109,192,70695,128,0,70945:0:0:0:0:
475,192,70861,128,0,71028:0:0:0:0:
182,192,70861,128,0,71028:0:0:0:0:
329,192,71028,128,0,71111:0:0:0:0:
36,192,71028,128,0,71111:0:0:0:0:
402,192,71028,128,0,71111:0:0:0:0:
109,192,71028,128,0,71111:0:0:0:0:
475,192,71111,128,0,71195:0:0:0:0:
182,192,71111,128,0,71195:0:0:0:0:
109,192,71195,128,0,71278:0:0:0:0:
402,192,71195,128,0,71278:0:0:0:0:
256,192,71195,128,0,71278:0:0:0:0:
36,192,71195,128,0,71445:0:0:0:0:
256,192,71361,128,0,71445:0:0:0:0:
329,192,71361,128,0,71445:0:0:0:0:
109,192,71361,128,0,71611:0:0:0:0:
36,192,71528,128,0,71611:0:0:0:0:
329,192,71528,128,0,71611:0:0:0:0:
182,192,71528,128,0,71778:0:0:0:0:
402,192,71528,128,0,71611:0:0:0:0:
109,192,71695,128,0,71778:0:0:0:0:
402,192,71695,128,0,71778:0:0:0:0:
475,192,71695,128,0,72111:0:0:0:0:
256,192,71695,128,0,72111:0:0:0:0:
402,192,71861,128,0,72111:0:0:0:0:
182,192,71861,128,0,72111:0:0:0:0:
329,192,72028,128,0,72278:0:0:0:0:
109,192,72028,128,0,72278:0:0:0:0:
182,192,72195,128,0,72278:0:0:0:0:
402,192,72195,128,0,72278:0:0:0:0:
475,192,72195,128,0,72278:0:0:0:0:
36,192,72195,128,0,73111:0:0:0:0:
256,192,72195,128,0,72611:0:0:0:0:
109,192,72361,128,0,72945:0:0:0:0:
329,192,72361,128,0,72945:0:0:0:0:
182,192,72445,128,0,72778:0:0:0:0:
402,192,72445,128,0,72778:0:0:0:0:
475,192,72695,128,0,73611:0:0:0:0:
256,192,72695,128,0,73111:0:0:0:0:
402,192,72861,128,0,73445:0:0:0:0:
182,192,72861,128,0,73445:0:0:0:0:
329,192,73028,128,0,73278:0:0:0:0:
109,192,73028,128,0,73278:0:0:0:0:
36,192,73195,128,0,73778:0:0:0:0:
256,192,73195,128,0,73611:0:0:0:0:
109,192,73361,128,0,73778:0:0:0:0:
329,192,73361,128,0,73778:0:0:0:0:
182,192,73528,128,0,73778:0:0:0:0:
402,192,73528,128,0,73778:0:0:0:0:
256,192,73695,128,0,74278:0:0:0:0:
475,192,73695,128,0,74111:0:0:0:0:
182,192,73861,128,0,73945:0:0:0:0:
402,192,73861,128,0,73945:0:0:0:0:
109,192,73861,128,0,73945:0:0:0:0:
329,192,73861,128,0,74445:0:0:0:0:
36,192,73861,128,0,74278:0:0:0:0:
402,192,74028,128,0,74278:0:0:0:0:
109,192,74028,128,0,74278:0:0:0:0:
475,192,74195,128,0,74778:0:0:0:0:
182,192,74195,128,0,74445:0:0:0:0:
109,192,74361,128,0,74445:0:0:0:0:
36,192,74361,128,0,74445:0:0:0:0:
402,192,74361,128,0,74778:0:0:0:0:
256,192,74361,128,0,74611:0:0:0:0:
329,192,74528,128,0,74778:0:0:0:0:
182,192,74528,128,0,74778:0:0:0:0:
109,192,74695,128,0,74945:0:0:0:0:
256,192,74695,128,0,75278:0:0:0:0:
182,192,74861,128,0,74945:0:0:0:0:
475,192,74861,128,0,74945:0:0:0:0:
402,192,74861,128,0,74945:0:0:0:0:
36,192,74861,128,0,75778:0:0:0:0:
329,192,74861,128,0,75445:0:0:0:0:
402,192,75028,128,0,75278:0:0:0:0:
109,192,75028,128,0,75611:0:0:0:0:
475,192,75195,128,0,76111:0:0:0:0:
182,192,75195,128,0,75445:0:0:0:0:
256,192,75361,128,0,75611:0:0:0:0:
402,192,75361,128,0,75945:0:0:0:0:
329,192,75528,128,0,75778:0:0:0:0:
182,192,75528,128,0,76111:0:0:0:0:
109,192,75695,128,0,75945:0:0:0:0:
256,192,75695,128,0,76445:0:0:0:0:
36,192,75861,128,0,76445:0:0:0:0:
329,192,75861,128,0,76445:0:0:0:0:
109,192,76028,128,0,76278:0:0:0:0:
402,192,76028,128,0,76278:0:0:0:0:
182,192,76195,128,0,76445:0:0:0:0:
475,192,76195,128,0,76945:0:0:0:0:
109,192,76361,128,0,76611:0:0:0:0:
402,192,76361,128,0,76778:0:0:0:0:
182,192,76528,128,0,76611:0:0:0:0:
329,192,76528,128,0,76611:0:0:0:0:
256,192,76528,128,0,76945:0:0:0:0:
36,192,76528,128,0,76945:0:0:0:0:
329,192,76695,128,0,77278:0:0:0:0:
109,192,76695,128,0,77278:0:0:0:0:
402,192,76861,128,0,76945:0:0:0:0:
182,192,76861,128,0,76945:0:0:0:0:
182,192,77028,128,0,77111:0:0:0:0:
36,192,77028,128,0,77111:0:0:0:0:
402,192,77028,128,0,77111:0:0:0:0:
256,192,77028,128,0,77445:0:0:0:0:
475,192,77028,128,0,77945:0:0:0:0:
402,192,77195,128,0,77778:0:0:0:0:
182,192,77195,128,0,77778:0:0:0:0:
329,192,77361,128,0,77611:0:0:0:0:
109,192,77361,128,0,77611:0:0:0:0:
36,192,77528,128,0,78445:0:0:0:0:
256,192,77528,128,0,77945:0:0:0:0:
109,192,77695,128,0,78278:0:0:0:0:
329,192,77695,128,0,78278:0:0:0:0:
182,192,77861,128,0,78111:0:0:0:0:
402,192,77861,128,0,78111:0:0:0:0:
475,192,78028,128,0,78945:0:0:0:0:
256,192,78028,128,0,78445:0:0:0:0:
402,192,78195,128,0,78778:0:0:0:0:
182,192,78195,128,0,78778:0:0:0:0:
329,192,78361,128,0,78611:0:0:0:0:
109,192,78361,128,0,78611:0:0:0:0:
36,192,78528,128,0,79111:0:0:0:0:
256,192,78528,128,0,78945:0:0:0:0:
109,192,78695,128,0,78945:0:0:0:0:
329,192,78695,128,0,78945:0:0:0:0:
182,192,78861,128,0,79028:0:0:0:0:
402,192,78861,128,0,79028:0:0:0:0:
109,192,79028,128,0,79111:0:0:0:0:
329,192,79028,128,0,79111:0:0:0:0:
475,192,79028,128,0,79445:0:0:0:0:
256,192,79028,128,0,79111:0:0:0:0:
402,192,79111,128,0,79195:0:0:0:0:
182,192,79111,128,0,79195:0:0:0:0:
256,192,79195,128,0,79278:0:0:0:0:
109,192,79195,128,0,79278:0:0:0:0:
329,192,79195,128,0,79278:0:0:0:0:
36,192,79195,128,0,79611:0:0:0:0:
329,192,79361,128,0,79445:0:0:0:0:
402,192,79361,128,0,79445:0:0:0:0:
109,192,79361,128,0,79445:0:0:0:0:
109,192,79528,128,0,79611:0:0:0:0:
402,192,79528,128,0,79611:0:0:0:0:
475,192,79528,128,0,79611:0:0:0:0:
182,192,79528,128,0,79778:0:0:0:0:
36,192,79695,128,0,79778:0:0:0:0:
475,192,79695,128,0,79778:0:0:0:0:
256,192,79695,128,0,79945:0:0:0:0:
402,192,79695,128,0,80278:0:0:0:0:
329,192,79861,128,0,80111:0:0:0:0:
182,192,79861,128,0,80445:0:0:0:0:
109,192,80028,128,0,80278:0:0:0:0:
256,192,80028,128,0,80611:0:0:0:0:
36,192,80195,128,0,80445:0:0:0:0:
329,192,80195,128,0,80445:0:0:0:0:
402,192,80361,128,0,80611:0:0:0:0:
109,192,80361,128,0,80945:0:0:0:0:
329,192,80528,128,0,80611:0:0:0:0:
36,192,80528,128,0,80611:0:0:0:0:
182,192,80528,128,0,80778:0:0:0:0:
475,192,80528,128,0,81445:0:0:0:0:
256,192,80695,128,0,80945:0:0:0:0:
402,192,80695,128,0,81278:0:0:0:0:
329,192,80861,128,0,81111:0:0:0:0:
182,192,80861,128,0,81445:0:0:0:0:
109,192,81028,128,0,81278:0:0:0:0:
256,192,81028,128,0,81778:0:0:0:0:
329,192,81195,128,0,81611:0:0:0:0:
36,192,81195,128,0,81611:0:0:0:0:
402,192,81361,128,0,81611:0:0:0:0:
109,192,81361,128,0,81611:0:0:0:0:
475,192,81528,128,0,81695:0:0:0:0:
182,192,81528,128,0,81695:0:0:0:0:
329,192,81695,128,0,81778:0:0:0:0:
36,192,81695,128,0,81778:0:0:0:0:
402,192,81695,128,0,81778:0:0:0:0:
109,192,81695,128,0,81778:0:0:0:0:
475,192,81778,128,0,81861:0:0:0:0:
182,192,81778,128,0,81861:0:0:0:0:
402,192,81861,128,0,81945:0:0:0:0:
109,192,81861,128,0,81945:0:0:0:0:
36,192,81861,128,0,82278:0:0:0:0:
256,192,81861,128,0,82278:0:0:0:0:
182,192,82028,128,0,82111:0:0:0:0:
109,192,82028,128,0,82611:0:0:0:0:
329,192,82028,128,0,82111:0:0:0:0:
402,192,82195,128,0,82278:0:0:0:0:
329,192,82195,128,0,82278:0:0:0:0:
182,192,82195,128,0,82445:0:0:0:0:
36,192,82361,128,0,82445:0:0:0:0:
402,192,82361,128,0,82445:0:0:0:0:
475,192,82361,128,0,83278:0:0:0:0:
256,192,82361,128,0,82778:0:0:0:0:
402,192,82528,128,0,82778:0:0:0:0:
182,192,82528,128,0,82778:0:0:0:0:
329,192,82695,128,0,82945:0:0:0:0:
109,192,82695,128,0,82778:0:0:0:0:
182,192,82861,128,0,82945:0:0:0:0:
402,192,82861,128,0,82945:0:0:0:0:
109,192,82861,128,0,82945:0:0:0:0:
36,192,82861,128,0,83778:0:0:0:0:
256,192,82861,128,0,83278:0:0:0:0:
329,192,83028,128,0,83611:0:0:0:0:
109,192,83028,128,0,83611:0:0:0:0:
402,192,83195,128,0,83445:0:0:0:0:
182,192,83195,128,0,83445:0:0:0:0:
256,192,83361,128,0,83778:0:0:0:0:
475,192,83361,128,0,84278:0:0:0:0:
182,192,83528,128,0,84111:0:0:0:0:
402,192,83528,128,0,84111:0:0:0:0:
109,192,83695,128,0,83945:0:0:0:0:
329,192,83695,128,0,83945:0:0:0:0:
256,192,83861,128,0,84278:0:0:0:0:
36,192,83861,128,0,84445:0:0:0:0:
329,192,84028,128,0,84278:0:0:0:0:
109,192,84028,128,0,84278:0:0:0:0:
402,192,84195,128,0,84361:0:0:0:0:
182,192,84195,128,0,84361:0:0:0:0:
109,192,84361,128,0,84445:0:0:0:0:
329,192,84361,128,0,84445:0:0:0:0:
256,192,84361,128,0,84445:0:0:0:0:
475,192,84361,128,0,84778:0:0:0:0:
402,192,84445,128,0,84528:0:0:0:0:
182,192,84445,128,0,84528:0:0:0:0:
256,192,84528,128,0,84611:0:0:0:0:
109,192,84528,128,0,84611:0:0:0:0:
329,192,84528,128,0,84611:0:0:0:0:
36,192,84528,128,0,84778:0:0:0:0:
329,192,84695,128,0,84778:0:0:0:0:
402,192,84695,128,0,84778:0:0:0:0:
109,192,84695,128,0,84945:0:0:0:0:
36,192,84861,128,0,84945:0:0:0:0:
402,192,84861,128,0,84945:0:0:0:0:
182,192,84861,128,0,85111:0:0:0:0:
475,192,84861,128,0,84945:0:0:0:0:
109,192,85028,128,0,85111:0:0:0:0:
475,192,85028,128,0,85111:0:0:0:0:
329,192,85028,128,0,85111:0:0:0:0:
256,192,85028,128,0,85278:0:0:0:0:
402,192,85028,128,0,85445:0:0:0:0:
329,192,85195,128,0,85445:0:0:0:0:
182,192,85195,128,0,85445:0:0:0:0:
256,192,85361,128,0,85945:0:0:0:0:
109,192,85361,128,0,85611:0:0:0:0:
182,192,85528,128,0,85611:0:0:0:0:
475,192,85528,128,0,85611:0:0:0:0:
402,192,85528,128,0,85611:0:0:0:0:
36,192,85528,128,0,86445:0:0:0:0:
329,192,85528,128,0,86111:0:0:0:0:
109,192,85695,128,0,86278:0:0:0:0:
402,192,85695,128,0,85945:0:0:0:0:
182,192,85861,128,0,86111:0:0:0:0:
475,192,85861,128,0,86778:0:0:0:0:
402,192,86028,128,0,86611:0:0:0:0:
256,192,86028,128,0,86278:0:0:0:0:
329,192,86195,128,0,86445:0:0:0:0:
182,192,86195,128,0,86778:0:0:0:0:
109,192,86361,128,0,86611:0:0:0:0:
256,192,86361,128,0,87111:0:0:0:0:
36,192,86528,128,0,87111:0:0:0:0:
329,192,86528,128,0,87111:0:0:0:0:
109,192,86695,128,0,86945:0:0:0:0:
402,192,86695,128,0,86945:0:0:0:0:
182,192,86861,128,0,87111:0:0:0:0:
475,192,86861,128,0,87111:0:0:0:0:
402,192,87028,128,0,87111:0:0:0:0:
109,192,87028,128,0,87111:0:0:0:0:
475,192,87195,128,0,89986:0:0:0:0:
402,192,87195,128,0,89966:0:0:0:0:
329,192,87195,128,0,89986:0:0:0:0:
256,192,87195,128,0,90007:0:0:0:0:
182,192,87195,128,0,92674:0:0:0:0:
109,192,87195,128,0,90028:0:0:0:0:
36,192,87195,128,0,89986:0:0:0:0:
402,192,90007,128,0,92632:0:0:0:0:
475,192,90028,128,0,92611:0:0:0:0:
329,192,90028,128,0,98153:0:0:0:0:
36,192,90028,128,0,92695:0:0:0:0:
256,192,90049,128,0,92653:0:0:0:0:
109,192,90070,128,0,92653:0:0:0:0:
475,192,92653,128,0,100632:0:0:0:0:
402,192,92674,128,0,98195:0:0:0:0:
256,192,92695,128,0,98174:0:0:0:0:
109,192,92695,128,0,98111:0:0:0:0:
182,192,92716,128,0,98153:0:0:0:0:
36,192,92736,128,0,98132:0:0:0:0:
109,192,98153,128,0,100716:0:0:0:0:
36,192,98174,128,0,100653:0:0:0:0:
329,192,98195,128,0,100653:0:0:0:0:
182,192,98195,128,0,100611:0:0:0:0:
256,192,98216,128,0,103320:0:0:0:0:
402,192,98236,128,0,100674:0:0:0:0:
182,192,100653,128,0,103341:0:0:0:0:
475,192,100674,128,0,103320:0:0:0:0:
329,192,100695,128,0,103361:0:0:0:0:
36,192,100695,128,0,107528:0:0:0:0:
402,192,100716,128,0,103278:0:0:0:0:
109,192,100757,128,0,103299:0:0:0:0:
402,192,103320,128,0,109195:0:0:0:0:
109,192,103341,128,0,108528:0:0:0:0:
475,192,103361,128,0,109361:0:0:0:0:
256,192,103361,128,0,108861:0:0:0:0:
182,192,103382,128,0,108695:0:0:0:0:
329,192,103403,128,0,109028:0:0:0:0:
36,192,107695,128,0,108445:0:0:0:0:
36,192,108528,128,0,110361:0:0:0:0:
109,192,108695,128,0,110195:0:0:0:0:
182,192,108861,128,0,110028:0:0:0:0:
256,192,109028,128,0,109861:0:0:0:0:
329,192,109195,128,0,109695:0:0:0:0:
402,192,109361,128,0,109528:0:0:0:0:
475,192,109528,128,0,112028:0:0:0:0:
402,192,109695,128,0,111861:0:0:0:0:
329,192,109861,128,0,111695:0:0:0:0:
256,192,110028,128,0,110861:0:0:0:0:
182,192,110195,128,0,110695:0:0:0:0:
109,192,110361,128,0,110528:0:0:0:0:
36,192,110528,128,0,111028:0:0:0:0:
109,192,110695,128,0,111195:0:0:0:0:
182,192,110861,128,0,111361:0:0:0:0:
256,192,111028,128,0,111528:0:0:0:0:
36,192,111195,128,0,112861:0:0:0:0:
109,192,111361,128,0,113195:0:0:0:0:
182,192,111528,128,0,112695:0:0:0:0:
256,192,111695,128,0,112528:0:0:0:0:
329,192,111861,128,0,112361:0:0:0:0:
402,192,112028,128,0,112195:0:0:0:0:
475,192,112195,128,0,113695:0:0:0:0:
402,192,112361,128,0,113861:0:0:0:0:
329,192,112528,128,0,113361:0:0:0:0:
256,192,112695,128,0,113028:0:0:0:0:
182,192,112861,128,0,113528:0:0:0:0:
36,192,113028,128,0,114695:0:0:0:0:
256,192,113195,128,0,114195:0:0:0:0:
109,192,113361,128,0,114528:0:0:0:0:
329,192,113528,128,0,114028:0:0:0:0:
182,192,113695,128,0,114361:0:0:0:0:
475,192,113861,128,0,115695:0:0:0:0:
402,192,114028,128,0,115528:0:0:0:0:
329,192,114195,128,0,115361:0:0:0:0:
256,192,114361,128,0,115195:0:0:0:0:
182,192,114528,128,0,114945:0:0:0:0:
109,192,114695,128,0,114861:0:0:0:0:
36,192,114861,128,0,116361:0:0:0:0:
109,192,115028,128,0,116528:0:0:0:0:
182,192,115111,128,0,116695:0:0:0:0:
256,192,115361,128,0,116195:0:0:0:0:
329,192,115528,128,0,116028:0:0:0:0:
402,192,115695,128,0,115861:0:0:0:0:
475,192,115861,128,0,117361:0:0:0:0:
402,192,116028,128,0,117195:0:0:0:0:
329,192,116195,128,0,117028:0:0:0:0:
256,192,116361,128,0,116861:0:0:0:0:
36,192,116528,128,0,118028:0:0:0:0:
109,192,116695,128,0,118361:0:0:0:0:
182,192,116861,128,0,117861:0:0:0:0:
256,192,117028,128,0,118195:0:0:0:0:
329,192,117195,128,0,117695:0:0:0:0:
402,192,117361,128,0,117528:0:0:0:0:
475,192,117528,128,0,119028:0:0:0:0:
402,192,117695,128,0,118861:0:0:0:0:
329,192,117861,128,0,118528:0:0:0:0:
182,192,118028,128,0,118695:0:0:0:0:
36,192,118195,128,0,119028:0:0:0:0:
256,192,118361,128,0,119195:0:0:0:0:
109,192,118528,128,0,119028:0:0:0:0:
329,192,118695,128,0,119028:0:0:0:0:
182,192,118861,128,0,119195:0:0:0:0:
402,192,119028,128,0,119195:0:0:0:0:
329,192,119195,1,0,0:0:0:0:
475,192,119195,128,0,119695:0:0:0:0:
109,192,119195,1,0,0:0:0:0:
36,192,119195,1,0,0:0:0:0:
182,192,119278,1,0,0:0:0:0:
256,192,119361,1,0,0:0:0:0:
402,192,119361,128,0,119778:0:0:0:0:
36,192,119361,1,0,0:0:0:0:
109,192,119445,1,0,0:0:0:0:
182,192,119528,1,0,0:0:0:0:
329,192,119528,128,0,119945:0:0:0:0:
256,192,119528,1,0,0:0:0:0:
36,192,119611,1,0,0:0:0:0:
109,192,119695,1,0,0:0:0:0:
256,192,119695,128,0,120111:0:0:0:0:
182,192,119695,1,0,0:0:0:0:
475,192,119778,1,0,0:0:0:0:
402,192,119861,1,0,0:0:0:0:
182,192,119861,128,0,120111:0:0:0:0:
36,192,119945,1,0,0:0:0:0:
329,192,120028,1,0,0:0:0:0:
109,192,120028,128,0,120278:0:0:0:0:
402,192,120028,1,0,0:0:0:0:
475,192,120111,1,0,0:0:0:0:
256,192,120195,1,0,0:0:0:0:
36,192,120195,128,0,120528:0:0:0:0:
182,192,120195,1,0,0:0:0:0:
402,192,120278,1,0,0:0:0:0:
329,192,120361,1,0,0:0:0:0:
109,192,120361,128,0,120695:0:0:0:0:
256,192,120361,1,0,0:0:0:0:
475,192,120445,1,0,0:0:0:0:
402,192,120528,1,0,0:0:0:0:
182,192,120528,128,0,120861:0:0:0:0:
36,192,120611,1,0,0:0:0:0:
475,192,120695,1,0,0:0:0:0:
256,192,120695,128,0,121028:0:0:0:0:
402,192,120695,1,0,0:0:0:0:
109,192,120778,1,0,0:0:0:0:
36,192,120861,1,0,0:0:0:0:
329,192,120861,128,0,121195:0:0:0:0:
475,192,120861,1,0,0:0:0:0:
182,192,120945,1,0,0:0:0:0:
109,192,121028,1,0,0:0:0:0:
402,192,121028,128,0,121278:0:0:0:0:
36,192,121028,1,0,0:0:0:0:
256,192,121111,1,0,0:0:0:0:
182,192,121195,1,0,0:0:0:0:
475,192,121195,128,0,121611:0:0:0:0:
329,192,121278,1,0,0:0:0:0:
256,192,121361,1,0,0:0:0:0:
402,192,121361,128,0,121695:0:0:0:0:
36,192,121361,1,0,0:0:0:0:
109,192,121445,1,0,0:0:0:0:
182,192,121528,1,0,0:0:0:0:
329,192,121528,128,0,121778:0:0:0:0:
256,192,121528,1,0,0:0:0:0:
36,192,121611,1,0,0:0:0:0:
109,192,121695,1,0,0:0:0:0:
256,192,121695,128,0,121945:0:0:0:0:
475,192,121695,1,0,0:0:0:0:
402,192,121778,1,0,0:0:0:0:
329,192,121861,1,0,0:0:0:0:
475,192,121861,128,0,122361:0:0:0:0:
182,192,121945,1,0,0:0:0:0:
256,192,122028,1,0,0:0:0:0:
402,192,122028,128,0,122528:0:0:0:0:
36,192,122028,1,0,0:0:0:0:
109,192,122111,1,0,0:0:0:0:
182,192,122195,1,0,0:0:0:0:
329,192,122195,128,0,122695:0:0:0:0:
256,192,122195,1,0,0:0:0:0:
36,192,122278,1,0,0:0:0:0:
109,192,122361,1,0,0:0:0:0:
256,192,122361,128,0,122611:0:0:0:0:
182,192,122361,1,0,0:0:0:0:
475,192,122445,1,0,0:0:0:0:
36,192,122528,1,0,0:0:0:0:
182,192,122528,128,0,122778:0:0:0:0:
402,192,122611,1,0,0:0:0:0:
475,192,122695,1,0,0:0:0:0:
109,192,122695,128,0,122945:0:0:0:0:
256,192,122695,1,0,0:0:0:0:
329,192,122778,1,0,0:0:0:0:
402,192,122861,1,0,0:0:0:0:
36,192,122861,128,0,123111:0:0:0:0:
182,192,122861,1,0,0:0:0:0:
256,192,122945,1,0,0:0:0:0:
475,192,123028,1,0,0:0:0:0:
109,192,123028,128,0,123278:0:0:0:0:
402,192,123028,1,0,0:0:0:0:
329,192,123111,1,0,0:0:0:0:
36,192,123195,1,0,0:0:0:0:
182,192,123195,128,0,123528:0:0:0:0:
402,192,123278,1,0,0:0:0:0:
109,192,123361,1,0,0:0:0:0:
329,192,123361,128,0,123778:0:0:0:0:
256,192,123361,1,0,0:0:0:0:
475,192,123445,1,0,0:0:0:0:
36,192,123528,1,0,0:0:0:0:
256,192,123528,128,0,123695:0:0:0:0:
402,192,123528,1,0,0:0:0:0:
182,192,123611,1,0,0:0:0:0:
109,192,123695,1,0,0:0:0:0:
402,192,123695,128,0,124111:0:0:0:0:
36,192,123695,1,0,0:0:0:0:
256,192,123778,1,0,0:0:0:0:
182,192,123861,1,0,0:0:0:0:
329,192,123861,128,0,124278:0:0:0:0:
36,192,123945,1,0,0:0:0:0:
256,192,124028,1,0,0:0:0:0:
475,192,124028,128,0,124445:0:0:0:0:
182,192,124028,1,0,0:0:0:0:
109,192,124111,1,0,0:0:0:0:
256,192,124195,128,0,124445:0:0:0:0:
182,192,124195,1,0,0:0:0:0:
402,192,124195,1,0,0:0:0:0:
36,192,124278,1,0,0:0:0:0:
402,192,124361,128,0,124611:0:0:0:0:
329,192,124361,1,0,0:0:0:0:
182,192,124361,1,0,0:0:0:0:
109,192,124445,1,0,0:0:0:0:
329,192,124528,1,0,0:0:0:0:
475,192,124528,128,0,125028:0:0:0:0:
36,192,124528,1,0,0:0:0:0:
256,192,124528,1,0,0:0:0:0:
182,192,124611,1,0,0:0:0:0:
256,192,124695,1,0,0:0:0:0:
402,192,124695,128,0,125195:0:0:0:0:
36,192,124695,1,0,0:0:0:0:
109,192,124778,1,0,0:0:0:0:
182,192,124861,1,0,0:0:0:0:
329,192,124861,128,0,125361:0:0:0:0:
256,192,124861,1,0,0:0:0:0:
36,192,124945,1,0,0:0:0:0:
109,192,125028,1,0,0:0:0:0:
256,192,125028,128,0,125278:0:0:0:0:
182,192,125028,1,0,0:0:0:0:
475,192,125111,1,0,0:0:0:0:
36,192,125195,1,0,0:0:0:0:
182,192,125195,128,0,125695:0:0:0:0:
402,192,125278,1,0,0:0:0:0:
475,192,125361,1,0,0:0:0:0:
109,192,125361,128,0,125611:0:0:0:0:
256,192,125361,1,0,0:0:0:0:
329,192,125445,1,0,0:0:0:0:
402,192,125528,1,0,0:0:0:0:
36,192,125528,128,0,125861:0:0:0:0:
475,192,125528,1,0,0:0:0:0:
256,192,125611,1,0,0:0:0:0:
329,192,125695,1,0,0:0:0:0:
109,192,125695,128,0,126028:0:0:0:0:
402,192,125695,1,0,0:0:0:0:
475,192,125778,1,0,0:0:0:0:
182,192,125778,128,0,126111:0:0:0:0:
402,192,125861,1,0,0:0:0:0:
329,192,125861,1,0,0:0:0:0:
256,192,125861,1,0,0:0:0:0:
36,192,125945,1,0,0:0:0:0:
475,192,126028,1,0,0:0:0:0:
256,192,126028,128,0,126278:0:0:0:0:
402,192,126028,1,0,0:0:0:0:
109,192,126111,1,0,0:0:0:0:
182,192,126195,1,0,0:0:0:0:
475,192,126195,1,0,0:0:0:0:
329,192,126195,128,0,126445:0:0:0:0:
36,192,126278,1,0,0:0:0:0:
256,192,126361,1,0,0:0:0:0:
402,192,126361,128,0,126611:0:0:0:0:
182,192,126361,1,0,0:0:0:0:
109,192,126445,1,0,0:0:0:0:
329,192,126528,1,0,0:0:0:0:
475,192,126528,128,0,127111:0:0:0:0:
182,192,126611,1,0,0:0:0:0:
256,192,126695,1,0,0:0:0:0:
402,192,126695,128,0,127028:0:0:0:0:
36,192,126695,1,0,0:0:0:0:
109,192,126778,1,0,0:0:0:0:
182,192,126861,1,0,0:0:0:0:
329,192,126861,128,0,127111:0:0:0:0:
256,192,126861,1,0,0:0:0:0:
36,192,126945,1,0,0:0:0:0:
109,192,127028,1,0,0:0:0:0:
256,192,127028,128,0,127195:0:0:0:0:
182,192,127028,1,0,0:0:0:0:
402,192,127111,1,0,0:0:0:0:
475,192,127195,128,0,127445:0:0:0:0:
36,192,127195,1,0,0:0:0:0:
182,192,127195,1,0,0:0:0:0:
329,192,127195,1,0,0:0:0:0:
109,192,127278,1,0,0:0:0:0:
256,192,127278,1,0,0:0:0:0:
402,192,127361,128,0,127528:0:0:0:0:
36,192,127361,1,0,0:0:0:0:
329,192,127361,1,0,0:0:0:0:
256,192,127445,1,0,0:0:0:0:
109,192,127445,1,0,0:0:0:0:
329,192,127528,128,0,127695:0:0:0:0:
182,192,127528,1,0,0:0:0:0:
36,192,127528,1,0,0:0:0:0:
475,192,127528,1,0,0:0:0:0:
109,192,127611,1,0,0:0:0:0:
402,192,127611,1,0,0:0:0:0:
256,192,127695,128,0,127945:0:0:0:0:
182,192,127695,1,0,0:0:0:0:
475,192,127695,1,0,0:0:0:0:
36,192,127778,1,0,0:0:0:0:
329,192,127778,1,0,0:0:0:0:
182,192,127861,128,0,128111:0:0:0:0:
402,192,127861,1,0,0:0:0:0:
109,192,127861,1,0,0:0:0:0:
475,192,127861,1,0,0:0:0:0:
329,192,127945,1,0,0:0:0:0:
109,192,128028,128,0,128278:0:0:0:0:
475,192,128028,1,0,0:0:0:0:
256,192,128028,1,0,0:0:0:0:
329,192,128111,1,0,0:0:0:0:
402,192,128111,1,0,0:0:0:0:
36,192,128195,128,0,128445:0:0:0:0:
256,192,128195,1,0,0:0:0:0:
475,192,128195,1,0,0:0:0:0:
182,192,128195,1,0,0:0:0:0:
329,192,128278,1,0,0:0:0:0:
402,192,128278,1,0,0:0:0:0:
109,192,128361,128,0,129361:0:0:0:0:
182,192,128361,1,0,0:0:0:0:
475,192,128361,1,0,0:0:0:0:
256,192,128445,1,0,0:0:0:0:
402,192,128445,1,0,0:0:0:0:
182,192,128528,128,0,129028:0:0:0:0:
36,192,128528,1,0,0:0:0:0:
329,192,128528,1,0,0:0:0:0:
475,192,128528,1,0,0:0:0:0:
329,192,128695,128,0,129195:0:0:0:0:
256,192,128861,128,0,129528:0:0:0:0:
402,192,129028,128,0,129695:0:0:0:0:
182,192,129195,128,0,129695:0:0:0:0:
329,192,129361,128,0,129695:0:0:0:0:
109,192,129528,128,0,129695:0:0:0:0:
36,192,129528,1,0,0:0:0:0:
475,192,129528,1,0,0:0:0:0:
475,192,129611,1,0,0:0:0:0:
36,192,129611,1,0,0:0:0:0:
256,192,129695,128,0,129861:0:0:0:0:
36,192,129861,128,0,130111:0:0:0:0:
475,192,129861,128,0,130111:0:0:0:0:
109,192,129861,1,0,0:0:0:0:
329,192,129861,1,0,0:0:0:0:
402,192,129861,1,0,0:0:0:0:
182,192,129861,128,0,129945:0:0:0:0:
182,192,130028,128,0,130111:0:0:0:0:
329,192,130028,128,0,130111:0:0:0:0:
109,192,130028,1,0,0:0:0:0:
256,192,130028,128,0,130111:0:0:0:0:
109,192,130195,128,0,130445:0:0:0:0:
402,192,130195,128,0,130445:0:0:0:0:
36,192,130195,1,0,0:0:0:0:
256,192,130195,1,0,0:0:0:0:
329,192,130195,128,0,130278:0:0:0:0:
182,192,130361,128,0,130528:0:0:0:0:
475,192,130361,128,0,130528:0:0:0:0:
256,192,130361,128,0,130445:0:0:0:0:
36,192,130445,128,0,130778:0:0:0:0:
329,192,130445,128,0,130778:0:0:0:0:
256,192,130528,1,0,0:0:0:0:
402,192,130528,1,0,0:0:0:0:
109,192,130528,128,0,130611:0:0:0:0:
256,192,130695,128,0,130945:0:0:0:0:
402,192,130695,128,0,130945:0:0:0:0:
475,192,130695,1,0,0:0:0:0:
182,192,130695,128,0,130778:0:0:0:0:
109,192,130861,128,0,130945:0:0:0:0:
475,192,130861,128,0,130945:0:0:0:0:
329,192,130861,1,0,0:0:0:0:
182,192,130861,1,0,0:0:0:0:
36,192,130861,128,0,130945:0:0:0:0:
182,192,131028,128,0,131278:0:0:0:0:
329,192,131028,128,0,131278:0:0:0:0:
256,192,131028,1,0,0:0:0:0:
109,192,131028,128,0,131111:0:0:0:0:
109,192,131195,128,0,131445:0:0:0:0:
475,192,131195,128,0,131445:0:0:0:0:
256,192,131195,1,0,0:0:0:0:
36,192,131195,1,0,0:0:0:0:
402,192,131195,128,0,131278:0:0:0:0:
36,192,131361,128,0,131611:0:0:0:0:
402,192,131361,128,0,131611:0:0:0:0:
329,192,131361,1,0,0:0:0:0:
182,192,131361,128,0,131445:0:0:0:0:
256,192,131528,128,0,131778:0:0:0:0:
329,192,131528,128,0,131778:0:0:0:0:
109,192,131528,1,0,0:0:0:0:
182,192,131528,1,0,0:0:0:0:
475,192,131528,128,0,131611:0:0:0:0:
182,192,131695,128,0,131945:0:0:0:0:
475,192,131695,128,0,131945:0:0:0:0:
402,192,131695,1,0,0:0:0:0:
36,192,131695,128,0,131778:0:0:0:0:
109,192,131861,1,0,0:0:0:0:
36,192,131861,128,0,132111:0:0:0:0:
402,192,131861,128,0,132111:0:0:0:0:
329,192,131861,1,0,0:0:0:0:
256,192,131861,128,0,131945:0:0:0:0:
109,192,132028,128,0,132278:0:0:0:0:
329,192,132028,128,0,132278:0:0:0:0:
475,192,132028,1,0,0:0:0:0:
182,192,132028,128,0,132111:0:0:0:0:
256,192,132195,1,0,0:0:0:0:
182,192,132195,128,0,132278:0:0:0:0:
475,192,132195,128,0,132278:0:0:0:0:
36,192,132195,1,0,0:0:0:0:
402,192,132195,128,0,132278:0:0:0:0:
256,192,132361,128,0,132611:0:0:0:0:
402,192,132361,128,0,132611:0:0:0:0:
475,192,132361,1,0,0:0:0:0:
109,192,132361,128,0,132445:0:0:0:0:
109,192,132528,1,0,0:0:0:0:
36,192,132528,128,0,132778:0:0:0:0:
329,192,132528,128,0,132778:0:0:0:0:
475,192,132528,1,0,0:0:0:0:
182,192,132528,128,0,132611:0:0:0:0:
182,192,132695,128,0,132778:0:0:0:0:
402,192,132695,128,0,132778:0:0:0:0:
256,192,132695,1,0,0:0:0:0:
475,192,132695,128,0,132778:0:0:0:0:
182,192,132861,1,0,0:0:0:0:
109,192,132861,128,0,133111:0:0:0:0:
475,192,132861,128,0,133111:0:0:0:0:
329,192,132861,1,0,0:0:0:0:
256,192,132861,128,0,132945:0:0:0:0:
182,192,133028,128,0,133195:0:0:0:0:
329,192,133028,128,0,133195:0:0:0:0:
36,192,133028,128,0,133111:0:0:0:0:
256,192,133111,128,0,133445:0:0:0:0:
402,192,133111,128,0,133445:0:0:0:0:
36,192,133195,1,0,0:0:0:0:
475,192,133195,1,0,0:0:0:0:
109,192,133195,128,0,133278:0:0:0:0:
182,192,133361,128,0,133611:0:0:0:0:
475,192,133361,128,0,133611:0:0:0:0:
109,192,133361,1,0,0:0:0:0:
36,192,133361,128,0,133445:0:0:0:0:
36,192,133528,128,0,133611:0:0:0:0:
329,192,133528,128,0,133611:0:0:0:0:
402,192,133528,1,0,0:0:0:0:
109,192,133528,1,0,0:0:0:0:
256,192,133528,128,0,133611:0:0:0:0:
109,192,133695,128,0,133945:0:0:0:0:
402,192,133695,128,0,133945:0:0:0:0:
256,192,133695,1,0,0:0:0:0:
329,192,133695,128,0,133778:0:0:0:0:
182,192,133861,128,0,134111:0:0:0:0:
475,192,133861,128,0,134111:0:0:0:0:
329,192,133861,1,0,0:0:0:0:
256,192,133861,1,0,0:0:0:0:
36,192,133861,128,0,133945:0:0:0:0:
256,192,134028,128,0,134111:0:0:0:0:
329,192,134028,128,0,134111:0:0:0:0:
402,192,134028,1,0,0:0:0:0:
109,192,134028,128,0,134111:0:0:0:0:
36,192,134195,128,0,134445:0:0:0:0:
329,192,134195,128,0,134445:0:0:0:0:
475,192,134195,1,0,0:0:0:0:
256,192,134195,1,0,0:0:0:0:
182,192,134195,128,0,134278:0:0:0:0:
109,192,134361,128,0,134445:0:0:0:0:
402,192,134361,128,0,134445:0:0:0:0:
182,192,134361,1,0,0:0:0:0:
475,192,134361,128,0,134445:0:0:0:0:
182,192,134528,128,0,134778:0:0:0:0:
475,192,134528,128,0,134778:0:0:0:0:
36,192,134528,1,0,0:0:0:0:
109,192,134528,1,0,0:0:0:0:
329,192,134528,128,0,134611:0:0:0:0:
256,192,134695,128,0,134778:0:0:0:0:
402,192,134695,128,0,134778:0:0:0:0:
329,192,134695,1,0,0:0:0:0:
36,192,134695,128,0,134778:0:0:0:0:
109,192,134861,128,0,135111:0:0:0:0:
329,192,134861,128,0,135111:0:0:0:0:
182,192,134861,1,0,0:0:0:0:
256,192,134861,1,0,0:0:0:0:
475,192,134861,128,0,134945:0:0:0:0:
182,192,135028,128,0,135111:0:0:0:0:
402,192,135028,128,0,135111:0:0:0:0:
475,192,135028,1,0,0:0:0:0:
36,192,135028,128,0,135111:0:0:0:0:
256,192,135195,128,0,135445:0:0:0:0:
475,192,135195,128,0,135445:0:0:0:0:
329,192,135195,1,0,0:0:0:0:
36,192,135195,1,0,0:0:0:0:
109,192,135195,128,0,135278:0:0:0:0:
182,192,135361,128,0,135445:0:0:0:0:
329,192,135361,128,0,135445:0:0:0:0:
402,192,135361,1,0,0:0:0:0:
36,192,135361,128,0,135445:0:0:0:0:
36,192,135528,128,0,135778:0:0:0:0:
402,192,135528,128,0,135778:0:0:0:0:
329,192,135528,1,0,0:0:0:0:
256,192,135528,1,0,0:0:0:0:
109,192,135528,128,0,135611:0:0:0:0:
182,192,135695,128,0,135861:0:0:0:0:
329,192,135695,128,0,135861:0:0:0:0:
256,192,135695,128,0,135778:0:0:0:0:
109,192,135778,128,0,136111:0:0:0:0:
475,192,135778,128,0,136111:0:0:0:0:
36,192,135861,1,0,0:0:0:0:
256,192,135861,1,0,0:0:0:0:
402,192,135861,128,0,135945:0:0:0:0:
182,192,136028,128,0,136278:0:0:0:0:
402,192,136028,128,0,136278:0:0:0:0:
329,192,136028,1,0,0:0:0:0:
256,192,136028,128,0,136111:0:0:0:0:
36,192,136195,128,0,136278:0:0:0:0:
329,192,136195,128,0,136278:0:0:0:0:
109,192,136195,1,0,0:0:0:0:
256,192,136195,1,0,0:0:0:0:
475,192,136195,128,0,136278:0:0:0:0:
109,192,136361,128,0,136611:0:0:0:0:
475,192,136361,128,0,136611:0:0:0:0:
329,192,136361,1,0,0:0:0:0:
402,192,136361,128,0,136445:0:0:0:0:
182,192,136528,128,0,136778:0:0:0:0:
329,192,136528,128,0,136778:0:0:0:0:
256,192,136528,1,0,0:0:0:0:
402,192,136528,1,0,0:0:0:0:
36,192,136528,128,0,136611:0:0:0:0:
256,192,136695,128,0,136945:0:0:0:0:
402,192,136695,128,0,136945:0:0:0:0:
36,192,136695,1,0,0:0:0:0:
109,192,136695,128,0,136778:0:0:0:0:
109,192,136861,128,0,137111:0:0:0:0:
475,192,136861,128,0,137111:0:0:0:0:
329,192,136861,1,0,0:0:0:0:
182,192,136861,1,0,0:0:0:0:
36,192,136861,128,0,136945:0:0:0:0:
182,192,137028,128,0,137278:0:0:0:0:
329,192,137028,128,0,137278:0:0:0:0:
402,192,137028,1,0,0:0:0:0:
256,192,137028,128,0,137111:0:0:0:0:
36,192,137195,128,0,137445:0:0:0:0:
402,192,137195,128,0,137445:0:0:0:0:
109,192,137195,1,0,0:0:0:0:
256,192,137195,1,0,0:0:0:0:
475,192,137195,128,0,137278:0:0:0:0:
256,192,137361,128,0,137611:0:0:0:0:
329,192,137361,128,0,137611:0:0:0:0:
475,192,137361,1,0,0:0:0:0:
182,192,137361,128,0,137445:0:0:0:0:
182,192,137528,128,0,137611:0:0:0:0:
475,192,137528,128,0,137611:0:0:0:0:
109,192,137528,1,0,0:0:0:0:
402,192,137528,1,0,0:0:0:0:
36,192,137528,128,0,137611:0:0:0:0:
109,192,137695,128,0,137945:0:0:0:0:
402,192,137695,128,0,137945:0:0:0:0:
329,192,137695,1,0,0:0:0:0:
256,192,137695,128,0,137778:0:0:0:0:
36,192,137861,128,0,138111:0:0:0:0:
329,192,137861,128,0,138111:0:0:0:0:
475,192,137861,1,0,0:0:0:0:
256,192,137861,1,0,0:0:0:0:
182,192,137861,128,0,137945:0:0:0:0:
182,192,138028,128,0,138111:0:0:0:0:
475,192,138028,128,0,138111:0:0:0:0:
256,192,138028,1,0,0:0:0:0:
402,192,138028,128,0,138111:0:0:0:0:
256,192,138195,128,0,138445:0:0:0:0:
402,192,138195,128,0,138445:0:0:0:0:
182,192,138195,1,0,0:0:0:0:
36,192,138195,1,0,0:0:0:0:
109,192,138195,128,0,138278:0:0:0:0:
182,192,138361,128,0,138528:0:0:0:0:
329,192,138361,128,0,138528:0:0:0:0:
36,192,138361,128,0,138445:0:0:0:0:
109,192,138445,128,0,138778:0:0:0:0:
475,192,138445,128,0,138778:0:0:0:0:
402,192,138528,1,0,0:0:0:0:
36,192,138528,1,0,0:0:0:0:
256,192,138528,128,0,138611:0:0:0:0:
36,192,138695,128,0,138945:0:0:0:0:
256,192,138695,128,0,138945:0:0:0:0:
329,192,138695,1,0,0:0:0:0:
182,192,138695,128,0,138778:0:0:0:0:
182,192,138861,128,0,138945:0:0:0:0:
402,192,138861,128,0,138945:0:0:0:0:
329,192,138861,1,0,0:0:0:0:
109,192,138861,1,0,0:0:0:0:
475,192,138861,128,0,138945:0:0:0:0:
36,192,139028,128,0,139278:0:0:0:0:
329,192,139028,128,0,139278:0:0:0:0:
402,192,139028,1,0,0:0:0:0:
182,192,139028,128,0,139111:0:0:0:0:
109,192,139195,128,0,139445:0:0:0:0:
475,192,139195,128,0,139445:0:0:0:0:
182,192,139195,1,0,0:0:0:0:
402,192,139195,1,0,0:0:0:0:
256,192,139195,128,0,139278:0:0:0:0:
182,192,139361,128,0,139611:0:0:0:0:
402,192,139361,128,0,139611:0:0:0:0:
329,192,139361,1,0,0:0:0:0:
36,192,139361,128,0,139445:0:0:0:0:
109,192,139528,128,0,139611:0:0:0:0:
329,192,139528,128,0,139611:0:0:0:0:
475,192,139528,1,0,0:0:0:0:
36,192,139528,1,0,0:0:0:0:
256,192,139528,128,0,139611:0:0:0:0:
256,192,139695,128,0,139945:0:0:0:0:
475,192,139695,128,0,139945:0:0:0:0:
329,192,139695,1,0,0:0:0:0:
109,192,139695,128,0,139778:0:0:0:0:
182,192,139861,128,0,140111:0:0:0:0:
329,192,139861,128,0,140111:0:0:0:0:
109,192,139861,1,0,0:0:0:0:
402,192,139861,1,0,0:0:0:0:
36,192,139861,128,0,139945:0:0:0:0:
402,192,140028,128,0,140111:0:0:0:0:
36,192,140028,128,0,140111:0:0:0:0:
256,192,140028,1,0,0:0:0:0:
475,192,140028,128,0,140111:0:0:0:0:
109,192,140195,128,0,140278:0:0:0:0:
475,192,140195,128,0,140278:0:0:0:0:
402,192,140195,1,0,0:0:0:0:
36,192,140195,1,0,0:0:0:0:
256,192,140195,128,0,140278:0:0:0:0:
182,192,140361,128,0,140445:0:0:0:0:
329,192,140361,128,0,140445:0:0:0:0:
256,192,140361,1,0,0:0:0:0:
109,192,140361,128,0,140445:0:0:0:0:
36,192,140528,128,0,140778:0:0:0:0:
402,192,140528,128,0,140778:0:0:0:0:
256,192,140528,1,0,0:0:0:0:
475,192,140528,1,0,0:0:0:0:
109,192,140528,1,0,0:0:0:0:
182,192,140528,128,0,140611:0:0:0:0:
109,192,140695,128,0,140778:0:0:0:0:
329,192,140695,128,0,140778:0:0:0:0:
182,192,140695,1,0,0:0:0:0:
256,192,140695,128,0,140778:0:0:0:0:
256,192,140861,128,0,141111:0:0:0:0:
475,192,140861,128,0,141111:0:0:0:0:
36,192,140861,1,0,0:0:0:0:
402,192,140861,1,0,0:0:0:0:
182,192,140861,128,0,140945:0:0:0:0:
182,192,141028,128,0,141195:0:0:0:0:
329,192,141028,128,0,141195:0:0:0:0:
36,192,141028,128,0,141111:0:0:0:0:
109,192,141111,128,0,141445:0:0:0:0:
402,192,141111,128,0,141445:0:0:0:0:
475,192,141195,1,0,0:0:0:0:
36,192,141195,1,0,0:0:0:0:
256,192,141195,128,0,141278:0:0:0:0:
36,192,141361,128,0,141611:0:0:0:0:
329,192,141361,128,0,141611:0:0:0:0:
256,192,141361,1,0,0:0:0:0:
182,192,141361,128,0,141445:0:0:0:0:
182,192,141528,128,0,141611:0:0:0:0:
402,192,141528,128,0,141611:0:0:0:0:
256,192,141528,1,0,0:0:0:0:
109,192,141528,1,0,0:0:0:0:
475,192,141528,128,0,141611:0:0:0:0:
256,192,141695,128,0,141945:0:0:0:0:
475,192,141695,128,0,141945:0:0:0:0:
402,192,141695,1,0,0:0:0:0:
182,192,141695,128,0,141778:0:0:0:0:
109,192,141861,128,0,142111:0:0:0:0:
329,192,141861,128,0,142111:0:0:0:0:
182,192,141861,1,0,0:0:0:0:
402,192,141861,1,0,0:0:0:0:
36,192,141861,128,0,141945:0:0:0:0:
182,192,142028,128,0,142278:0:0:0:0:
402,192,142028,128,0,142278:0:0:0:0:
475,192,142028,1,0,0:0:0:0:
256,192,142028,128,0,142111:0:0:0:0:
36,192,142195,128,0,142445:0:0:0:0:
329,192,142195,128,0,142445:0:0:0:0:
256,192,142195,1,0,0:0:0:0:
475,192,142195,1,0,0:0:0:0:
109,192,142195,128,0,142278:0:0:0:0:
109,192,142361,128,0,142611:0:0:0:0:
475,192,142361,128,0,142611:0:0:0:0:
182,192,142361,1,0,0:0:0:0:
402,192,142361,128,0,142445:0:0:0:0:
256,192,142528,128,0,142778:0:0:0:0:
402,192,142528,128,0,142778:0:0:0:0:
329,192,142528,1,0,0:0:0:0:
36,192,142528,1,0,0:0:0:0:
182,192,142528,128,0,142611:0:0:0:0:
182,192,142695,128,0,142945:0:0:0:0:
329,192,142695,128,0,142945:0:0:0:0:
109,192,142695,1,0,0:0:0:0:
36,192,142695,128,0,142778:0:0:0:0:
36,192,142861,128,0,142945:0:0:0:0:
475,192,142861,128,0,142945:0:0:0:0:
256,192,142861,1,0,0:0:0:0:
402,192,142861,1,0,0:0:0:0:
109,192,142861,128,0,142945:0:0:0:0:
109,192,143028,128,0,143278:0:0:0:0:
402,192,143028,128,0,143278:0:0:0:0:
475,192,143028,1,0,0:0:0:0:
329,192,143028,128,0,143111:0:0:0:0:
256,192,143195,128,0,143445:0:0:0:0:
329,192,143195,128,0,143445:0:0:0:0:
475,192,143195,1,0,0:0:0:0:
182,192,143195,1,0,0:0:0:0:
36,192,143195,128,0,143278:0:0:0:0:
182,192,143361,128,0,143445:0:0:0:0:
475,192,143361,128,0,143445:0:0:0:0:
402,192,143361,1,0,0:0:0:0:
109,192,143361,128,0,143445:0:0:0:0:
109,192,143528,128,0,143778:0:0:0:0:
402,192,143528,128,0,143778:0:0:0:0:
36,192,143528,1,0,0:0:0:0:
256,192,143528,1,0,0:0:0:0:
329,192,143528,128,0,143611:0:0:0:0:
36,192,143695,128,0,143861:0:0:0:0:
475,192,143695,128,0,143861:0:0:0:0:
256,192,143695,128,0,143778:0:0:0:0:
182,192,143778,128,0,144111:0:0:0:0:
329,192,143778,128,0,144111:0:0:0:0:
256,192,143861,1,0,0:0:0:0:
402,192,143861,1,0,0:0:0:0:
109,192,143861,128,0,143945:0:0:0:0:
109,192,144028,128,0,144278:0:0:0:0:
475,192,144028,128,0,144278:0:0:0:0:
36,192,144028,1,0,0:0:0:0:
402,192,144028,128,0,144111:0:0:0:0:
256,192,144195,128,0,144278:0:0:0:0:
402,192,144195,128,0,144278:0:0:0:0:
182,192,144195,1,0,0:0:0:0:
329,192,144195,1,0,0:0:0:0:
36,192,144195,128,0,144278:0:0:0:0:
182,192,144361,128,0,144611:0:0:0:0:
329,192,144361,128,0,144611:0:0:0:0:
402,192,144361,1,0,0:0:0:0:
109,192,144361,128,0,144445:0:0:0:0:
109,192,144528,128,0,144778:0:0:0:0:
475,192,144528,128,0,144778:0:0:0:0:
256,192,144528,1,0,0:0:0:0:
36,192,144528,1,0,0:0:0:0:
402,192,144528,128,0,144611:0:0:0:0:
256,192,144695,128,0,144778:0:0:0:0:
402,192,144695,128,0,144778:0:0:0:0:
182,192,144695,1,0,0:0:0:0:
329,192,144695,128,0,144778:0:0:0:0:
182,192,144861,128,0,145111:0:0:0:0:
329,192,144861,128,0,145111:0:0:0:0:
475,192,144861,1,0,0:0:0:0:
36,192,144861,1,0,0:0:0:0:
109,192,144861,128,0,144945:0:0:0:0:
36,192,145028,128,0,145111:0:0:0:0:
402,192,145028,128,0,145111:0:0:0:0:
475,192,145028,1,0,0:0:0:0:
256,192,145028,128,0,145111:0:0:0:0:
109,192,145195,128,0,145445:0:0:0:0:
475,192,145195,128,0,145445:0:0:0:0:
182,192,145195,1,0,0:0:0:0:
36,192,145195,1,0,0:0:0:0:
329,192,145195,128,0,145278:0:0:0:0:
256,192,145361,128,0,145445:0:0:0:0:
402,192,145361,128,0,145445:0:0:0:0:
329,192,145361,1,0,0:0:0:0:
182,192,145361,128,0,145445:0:0:0:0:
182,192,145528,128,0,145778:0:0:0:0:
329,192,145528,128,0,145778:0:0:0:0:
36,192,145528,1,0,0:0:0:0:
256,192,145528,1,0,0:0:0:0:
402,192,145528,128,0,145611:0:0:0:0:
109,192,145695,128,0,145778:0:0:0:0:
256,192,145695,128,0,145778:0:0:0:0:
402,192,145695,1,0,0:0:0:0:
36,192,145695,1,0,0:0:0:0:
475,192,145695,128,0,145778:0:0:0:0:
36,192,145861,128,0,146111:0:0:0:0:
402,192,145861,128,0,146111:0:0:0:0:
329,192,145861,1,0,0:0:0:0:
256,192,145861,1,0,0:0:0:0:
109,192,145861,1,0,0:0:0:0:
182,192,145861,128,0,145945:0:0:0:0:
109,192,146028,128,0,146111:0:0:0:0:
475,192,146028,128,0,146111:0:0:0:0:
256,192,146028,1,0,0:0:0:0:
329,192,146028,128,0,146111:0:0:0:0:
256,192,146195,128,0,146445:0:0:0:0:
329,192,146195,128,0,146445:0:0:0:0:
109,192,146195,1,0,0:0:0:0:
475,192,146195,1,0,0:0:0:0:
36,192,146195,128,0,146278:0:0:0:0:
182,192,146361,128,0,146528:0:0:0:0:
475,192,146361,128,0,146528:0:0:0:0:
109,192,146361,128,0,146445:0:0:0:0:
36,192,146445,128,0,146778:0:0:0:0:
402,192,146445,128,0,146778:0:0:0:0:
256,192,146528,1,0,0:0:0:0:
109,192,146528,1,0,0:0:0:0:
329,192,146528,128,0,146611:0:0:0:0:
256,192,146695,128,0,146945:0:0:0:0:
329,192,146695,128,0,146945:0:0:0:0:
475,192,146695,1,0,0:0:0:0:
182,192,146695,128,0,146778:0:0:0:0:
109,192,146861,128,0,146945:0:0:0:0:
475,192,146861,128,0,146945:0:0:0:0:
182,192,146861,1,0,0:0:0:0:
36,192,146861,1,0,0:0:0:0:
402,192,146861,128,0,146945:0:0:0:0:
182,192,147028,128,0,147278:0:0:0:0:
402,192,147028,128,0,147278:0:0:0:0:
109,192,147028,1,0,0:0:0:0:
36,192,147028,1,0,0:0:0:0:
329,192,147028,128,0,147111:0:0:0:0:
256,192,147111,1,0,0:0:0:0:
36,192,147195,128,0,147445:0:0:0:0:
329,192,147195,128,0,147445:0:0:0:0:
109,192,147195,1,0,0:0:0:0:
256,192,147195,1,0,0:0:0:0:
475,192,147195,128,0,147278:0:0:0:0:
109,192,147361,128,0,147611:0:0:0:0:
475,192,147361,128,0,147611:0:0:0:0:
402,192,147361,1,0,0:0:0:0:
256,192,147361,128,0,147445:0:0:0:0:
256,192,147528,128,0,147778:0:0:0:0:
402,192,147528,128,0,147778:0:0:0:0:
329,192,147528,1,0,0:0:0:0:
182,192,147528,1,0,0:0:0:0:
36,192,147528,128,0,147611:0:0:0:0:
182,192,147695,128,0,147945:0:0:0:0:
329,192,147695,128,0,147945:0:0:0:0:
475,192,147695,1,0,0:0:0:0:
109,192,147695,128,0,147778:0:0:0:0:
36,192,147861,128,0,148111:0:0:0:0:
402,192,147861,128,0,148111:0:0:0:0:
109,192,147861,1,0,0:0:0:0:
475,192,147861,1,0,0:0:0:0:
256,192,147861,128,0,147945:0:0:0:0:
109,192,148028,128,0,148278:0:0:0:0:
475,192,148028,128,0,148278:0:0:0:0:
182,192,148028,1,0,0:0:0:0:
329,192,148028,128,0,148111:0:0:0:0:
182,192,148195,128,0,148278:0:0:0:0:
329,192,148195,128,0,148278:0:0:0:0:
256,192,148195,1,0,0:0:0:0:
402,192,148195,1,0,0:0:0:0:
36,192,148195,128,0,148278:0:0:0:0:
36,192,148361,128,0,148611:0:0:0:0:
402,192,148361,128,0,148611:0:0:0:0:
109,192,148361,1,0,0:0:0:0:
329,192,148361,1,0,0:0:0:0:
256,192,148361,128,0,148445:0:0:0:0:
182,192,148528,128,0,148778:0:0:0:0:
329,192,148528,128,0,148778:0:0:0:0:
256,192,148528,1,0,0:0:0:0:
475,192,148528,1,0,0:0:0:0:
109,192,148528,128,0,148611:0:0:0:0:
109,192,148695,128,0,148778:0:0:0:0:
256,192,148695,128,0,148778:0:0:0:0:
402,192,148695,1,0,0:0:0:0:
36,192,148695,1,0,0:0:0:0:
475,192,148695,128,0,148778:0:0:0:0:
36,192,148861,128,0,149111:0:0:0:0:
402,192,148861,128,0,149111:0:0:0:0:
109,192,148861,1,0,0:0:0:0:
475,192,148861,1,0,0:0:0:0:
329,192,148861,1,0,0:0:0:0:
182,192,148861,128,0,148945:0:0:0:0:
256,192,149028,128,0,149195:0:0:0:0:
329,192,149028,128,0,149195:0:0:0:0:
109,192,149028,128,0,149111:0:0:0:0:
182,192,149111,128,0,149445:0:0:0:0:
475,192,149111,128,0,149445:0:0:0:0:
36,192,149195,1,0,0:0:0:0:
109,192,149195,1,0,0:0:0:0:
402,192,149195,128,0,149278:0:0:0:0:
109,192,149361,128,0,149611:0:0:0:0:
402,192,149361,128,0,149611:0:0:0:0:
329,192,149361,1,0,0:0:0:0:
36,192,149361,1,0,0:0:0:0:
256,192,149361,128,0,149445:0:0:0:0:
256,192,149528,128,0,149611:0:0:0:0:
329,192,149528,128,0,149611:0:0:0:0:
182,192,149528,1,0,0:0:0:0:
36,192,149528,1,0,0:0:0:0:
475,192,149528,128,0,149611:0:0:0:0:
36,192,149611,1,0,0:0:0:0:
182,192,149695,128,0,150111:0:0:0:0:
475,192,149695,128,0,150111:0:0:0:0:
329,192,149695,1,0,0:0:0:0:
402,192,149695,1,0,0:0:0:0:
109,192,149695,128,0,149778:0:0:0:0:
402,192,149778,1,0,0:0:0:0:
36,192,149861,128,0,150111:0:0:0:0:
329,192,149861,128,0,150111:0:0:0:0:
402,192,149861,1,0,0:0:0:0:
109,192,149861,1,0,0:0:0:0:
256,192,149861,128,0,149945:0:0:0:0:
109,192,150028,128,0,150111:0:0:0:0:
402,192,150028,128,0,150111:0:0:0:0:
256,192,150195,128,0,150278:0:0:0:0:
475,192,150195,128,0,150278:0:0:0:0:
182,192,150361,128,0,150778:0:0:0:0:
402,192,150361,128,0,150778:0:0:0:0:
109,192,150528,128,0,150778:0:0:0:0:
475,192,150528,128,0,150778:0:0:0:0:
36,192,150695,128,0,150778:0:0:0:0:
329,192,150695,128,0,150778:0:0:0:0:
182,192,150861,128,0,150945:0:0:0:0:
402,192,150861,128,0,150945:0:0:0:0:
256,192,151028,128,0,151195:0:0:0:0:
475,192,151028,128,0,151195:0:0:0:0:
36,192,151195,128,0,151445:0:0:0:0:
402,192,151195,128,0,151445:0:0:0:0:
329,192,151195,1,0,0:0:0:0:
109,192,151195,1,0,0:0:0:0:
182,192,151195,128,0,151278:0:0:0:0:
109,192,151361,128,0,151445:0:0:0:0:
475,192,151361,128,0,151445:0:0:0:0:
329,192,151361,1,0,0:0:0:0:
256,192,151361,128,0,151445:0:0:0:0:
182,192,151528,128,0,151778:0:0:0:0:
329,192,151528,128,0,151778:0:0:0:0:
109,192,151528,1,0,0:0:0:0:
475,192,151528,128,0,151611:0:0:0:0:
36,192,151528,1,0,0:0:0:0:
256,192,151695,128,0,151861:0:0:0:0:
402,192,151695,128,0,151861:0:0:0:0:
36,192,151695,128,0,151778:0:0:0:0:
109,192,151778,128,0,152111:0:0:0:0:
475,192,151778,128,0,152111:0:0:0:0:
329,192,151861,1,0,0:0:0:0:
36,192,151861,1,0,0:0:0:0:
182,192,151861,128,0,151945:0:0:0:0:
182,192,152028,128,0,152278:0:0:0:0:
329,192,152028,128,0,152278:0:0:0:0:
256,192,152028,1,0,0:0:0:0:
402,192,152028,128,0,152111:0:0:0:0:
36,192,152195,128,0,152278:0:0:0:0:
475,192,152195,128,0,152278:0:0:0:0:
109,192,152195,1,0,0:0:0:0:
402,192,152195,1,0,0:0:0:0:
256,192,152195,128,0,152278:0:0:0:0:
109,192,152361,128,0,152611:0:0:0:0:
402,192,152361,128,0,152611:0:0:0:0:
329,192,152361,1,0,0:0:0:0:
36,192,152361,128,0,152445:0:0:0:0:
182,192,152528,128,0,152778:0:0:0:0:
329,192,152528,128,0,152778:0:0:0:0:
475,192,152528,1,0,0:0:0:0:
36,192,152528,1,0,0:0:0:0:
256,192,152528,128,0,152611:0:0:0:0:
256,192,152695,128,0,152945:0:0:0:0:
475,192,152695,128,0,152945:0:0:0:0:
402,192,152695,1,0,0:0:0:0:
109,192,152695,128,0,152778:0:0:0:0:
36,192,152861,128,0,153111:0:0:0:0:
402,192,152861,128,0,153111:0:0:0:0:
109,192,152861,1,0,0:0:0:0:
329,192,152861,1,0,0:0:0:0:
182,192,152861,128,0,152945:0:0:0:0:
109,192,153028,128,0,153278:0:0:0:0:
329,192,153028,128,0,153278:0:0:0:0:
182,192,153028,1,0,0:0:0:0:
475,192,153028,128,0,153111:0:0:0:0:
182,192,153195,128,0,153445:0:0:0:0:
475,192,153195,128,0,153445:0:0:0:0:
36,192,153195,1,0,0:0:0:0:
402,192,153195,1,0,0:0:0:0:
256,192,153195,128,0,153278:0:0:0:0:
256,192,153361,128,0,153611:0:0:0:0:
402,192,153361,128,0,153611:0:0:0:0:
329,192,153361,1,0,0:0:0:0:
109,192,153361,128,0,153445:0:0:0:0:
109,192,153528,128,0,153611:0:0:0:0:
329,192,153528,128,0,153611:0:0:0:0:
182,192,153528,1,0,0:0:0:0:
475,192,153528,1,0,0:0:0:0:
36,192,153528,128,0,153611:0:0:0:0:
36,192,153695,128,0,153945:0:0:0:0:
475,192,153695,128,0,153945:0:0:0:0:
329,192,153695,1,0,0:0:0:0:
256,192,153695,128,0,153778:0:0:0:0:
182,192,153861,128,0,154111:0:0:0:0:
402,192,153861,128,0,154111:0:0:0:0:
329,192,153861,1,0,0:0:0:0:
256,192,153861,1,0,0:0:0:0:
109,192,153861,128,0,153945:0:0:0:0:
109,192,154028,128,0,154111:0:0:0:0:
329,192,154028,128,0,154111:0:0:0:0:
36,192,154028,1,0,0:0:0:0:
475,192,154028,128,0,154111:0:0:0:0:
182,192,154195,128,0,154445:0:0:0:0:
475,192,154195,128,0,154445:0:0:0:0:
402,192,154195,1,0,0:0:0:0:
256,192,154195,1,0,0:0:0:0:
329,192,154195,128,0,154278:0:0:0:0:
36,192,154361,128,0,154528:0:0:0:0:
402,192,154361,128,0,154528:0:0:0:0:
256,192,154361,128,0,154445:0:0:0:0:
109,192,154445,128,0,154778:0:0:0:0:
329,192,154445,128,0,154778:0:0:0:0:
256,192,154528,1,0,0:0:0:0:
475,192,154528,1,0,0:0:0:0:
182,192,154528,128,0,154611:0:0:0:0:
182,192,154695,128,0,154945:0:0:0:0:
256,192,154695,128,0,154945:0:0:0:0:
402,192,154695,1,0,0:0:0:0:
36,192,154695,128,0,154778:0:0:0:0:
36,192,154861,128,0,154945:0:0:0:0:
402,192,154861,128,0,154945:0:0:0:0:
109,192,154861,1,0,0:0:0:0:
329,192,154861,1,0,0:0:0:0:
475,192,154861,128,0,154945:0:0:0:0:
109,192,155028,128,0,155278:0:0:0:0:
329,192,155028,128,0,155278:0:0:0:0:
402,192,155028,1,0,0:0:0:0:
256,192,155028,128,0,155111:0:0:0:0:
182,192,155195,128,0,155445:0:0:0:0:
475,192,155195,128,0,155445:0:0:0:0:
256,192,155195,1,0,0:0:0:0:
36,192,155195,1,0,0:0:0:0:
402,192,155195,128,0,155278:0:0:0:0:
256,192,155361,128,0,155445:0:0:0:0:
402,192,155361,128,0,155445:0:0:0:0:
329,192,155361,1,0,0:0:0:0:
36,192,155361,128,0,155445:0:0:0:0:
36,192,155528,128,0,155778:0:0:0:0:
329,192,155528,128,0,155778:0:0:0:0:
256,192,155528,1,0,0:0:0:0:
475,192,155528,1,0,0:0:0:0:
109,192,155528,128,0,155611:0:0:0:0:
256,192,155695,128,0,155778:0:0:0:0:
475,192,155695,128,0,155778:0:0:0:0:
182,192,155695,1,0,0:0:0:0:
402,192,155695,128,0,155778:0:0:0:0:
109,192,155861,128,0,156111:0:0:0:0:
402,192,155861,128,0,156111:0:0:0:0:
329,192,155861,1,0,0:0:0:0:
256,192,155861,1,0,0:0:0:0:
36,192,155861,128,0,155945:0:0:0:0:
256,192,156028,128,0,156111:0:0:0:0:
475,192,156028,128,0,156111:0:0:0:0:
182,192,156028,1,0,0:0:0:0:
329,192,156028,128,0,156111:0:0:0:0:
182,192,156195,128,0,156445:0:0:0:0:
329,192,156195,128,0,156445:0:0:0:0:
36,192,156195,1,0,0:0:0:0:
402,192,156195,1,0,0:0:0:0:
109,192,156195,128,0,156278:0:0:0:0:
256,192,156361,128,0,156445:0:0:0:0:
475,192,156361,128,0,156445:0:0:0:0:
36,192,156361,1,0,0:0:0:0:
402,192,156361,128,0,156445:0:0:0:0:
109,192,156528,128,0,156778:0:0:0:0:
402,192,156528,128,0,156778:0:0:0:0:
475,192,156528,1,0,0:0:0:0:
256,192,156528,1,0,0:0:0:0:
329,192,156528,128,0,156611:0:0:0:0:
182,192,156695,128,0,156778:0:0:0:0:
256,192,156695,128,0,156778:0:0:0:0:
329,192,156695,1,0,0:0:0:0:
36,192,156695,128,0,156778:0:0:0:0:
36,192,156861,128,0,157111:0:0:0:0:
329,192,156861,128,0,157111:0:0:0:0:
182,192,156861,1,0,0:0:0:0:
402,192,156861,1,0,0:0:0:0:
475,192,156861,128,0,156945:0:0:0:0:
182,192,157028,128,0,157195:0:0:0:0:
256,192,157028,128,0,157195:0:0:0:0:
475,192,157028,128,0,157111:0:0:0:0:
109,192,157111,128,0,157445:0:0:0:0:
402,192,157111,128,0,157445:0:0:0:0:
329,192,157195,1,0,0:0:0:0:
475,192,157195,1,0,0:0:0:0:
36,192,157195,128,0,157278:0:0:0:0:
36,192,157361,128,0,157611:0:0:0:0:
329,192,157361,128,0,157611:0:0:0:0:
475,192,157361,1,0,0:0:0:0:
256,192,157361,128,0,157445:0:0:0:0:
182,192,157528,128,0,157611:0:0:0:0:
402,192,157528,128,0,157611:0:0:0:0:
109,192,157528,1,0,0:0:0:0:
475,192,157528,1,0,0:0:0:0:
256,192,157528,128,0,157611:0:0:0:0:
109,192,157695,128,0,157945:0:0:0:0:
475,192,157695,128,0,157945:0:0:0:0:
256,192,157695,1,0,0:0:0:0:
329,192,157695,128,0,157778:0:0:0:0:
182,192,157861,128,0,158111:0:0:0:0:
329,192,157861,128,0,158111:0:0:0:0:
256,192,157861,1,0,0:0:0:0:
402,192,157861,1,0,0:0:0:0:
36,192,157861,128,0,157945:0:0:0:0:
402,192,158028,128,0,158278:0:0:0:0:
256,192,158028,128,0,158278:0:0:0:0:
475,192,158028,1,0,0:0:0:0:
109,192,158028,128,0,158111:0:0:0:0:
109,192,158195,128,0,158445:0:0:0:0:
475,192,158195,128,0,158445:0:0:0:0:
182,192,158195,1,0,0:0:0:0:
329,192,158195,1,0,0:0:0:0:
36,192,158195,128,0,158278:0:0:0:0:
36,192,158361,128,0,158611:0:0:0:0:
329,192,158361,128,0,158611:0:0:0:0:
182,192,158361,1,0,0:0:0:0:
256,192,158361,128,0,158445:0:0:0:0:
182,192,158528,128,0,158778:0:0:0:0:
402,192,158528,128,0,158778:0:0:0:0:
256,192,158528,1,0,0:0:0:0:
109,192,158528,1,0,0:0:0:0:
475,192,158528,128,0,158611:0:0:0:0:
109,192,158695,128,0,158945:0:0:0:0:
475,192,158695,128,0,158945:0:0:0:0:
36,192,158695,1,0,0:0:0:0:
329,192,158695,128,0,158778:0:0:0:0:
256,192,158861,128,0,158945:0:0:0:0:
402,192,158861,128,0,158945:0:0:0:0:
182,192,158861,1,0,0:0:0:0:
36,192,158861,1,0,0:0:0:0:
329,192,158861,128,0,158945:0:0:0:0:
182,192,159028,128,0,159278:0:0:0:0:
329,192,159028,128,0,159278:0:0:0:0:
402,192,159028,1,0,0:0:0:0:
36,192,159028,128,0,159111:0:0:0:0:
36,192,159195,128,0,159445:0:0:0:0:
475,192,159195,128,0,159445:0:0:0:0:
402,192,159195,1,0,0:0:0:0:
109,192,159195,1,0,0:0:0:0:
256,192,159195,128,0,159278:0:0:0:0:
109,192,159361,128,0,159445:0:0:0:0:
329,192,159361,128,0,159445:0:0:0:0:
402,192,159361,1,0,0:0:0:0:
182,192,159361,128,0,159445:0:0:0:0:
182,192,159528,128,0,159778:0:0:0:0:
402,192,159528,128,0,159778:0:0:0:0:
109,192,159528,1,0,0:0:0:0:
36,192,159528,1,0,0:0:0:0:
329,192,159528,128,0,159611:0:0:0:0:
256,192,159695,128,0,159861:0:0:0:0:
329,192,159695,128,0,159861:0:0:0:0:
36,192,159695,128,0,159778:0:0:0:0:
109,192,159778,128,0,160111:0:0:0:0:
475,192,159778,128,0,160111:0:0:0:0:
402,192,159861,1,0,0:0:0:0:
36,192,159861,1,0,0:0:0:0:
182,192,159861,128,0,159945:0:0:0:0:
182,192,160028,128,0,160278:0:0:0:0:
402,192,160028,128,0,160278:0:0:0:0:
256,192,160028,1,0,0:0:0:0:
329,192,160028,128,0,160111:0:0:0:0:
36,192,160195,128,0,160278:0:0:0:0:
475,192,160195,128,0,160278:0:0:0:0:
256,192,160195,1,0,0:0:0:0:
329,192,160195,1,0,0:0:0:0:
109,192,160195,128,0,160278:0:0:0:0:
109,192,160361,128,0,160611:0:0:0:0:
329,192,160361,128,0,160611:0:0:0:0:
182,192,160361,1,0,0:0:0:0:
475,192,160361,128,0,160445:0:0:0:0:
256,192,160528,128,0,160778:0:0:0:0:
402,192,160528,128,0,160778:0:0:0:0:
36,192,160528,1,0,0:0:0:0:
475,192,160528,1,0,0:0:0:0:
182,192,160528,128,0,160611:0:0:0:0:
182,192,160695,128,0,160778:0:0:0:0:
475,192,160695,128,0,160778:0:0:0:0:
109,192,160695,1,0,0:0:0:0:
36,192,160695,128,0,160778:0:0:0:0:
36,192,160861,128,0,161111:0:0:0:0:
329,192,160861,128,0,161111:0:0:0:0:
402,192,160861,1,0,0:0:0:0:
182,192,160861,1,0,0:0:0:0:
475,192,160861,128,0,160945:0:0:0:0:
109,192,161028,128,0,161278:0:0:0:0:
402,192,161028,128,0,161278:0:0:0:0:
182,192,161028,1,0,0:0:0:0:
256,192,161028,128,0,161111:0:0:0:0:
256,192,161195,128,0,161445:0:0:0:0:
475,192,161195,128,0,161445:0:0:0:0:
329,192,161195,1,0,0:0:0:0:
36,192,161195,1,0,0:0:0:0:
182,192,161195,128,0,161278:0:0:0:0:
182,192,161361,128,0,161445:0:0:0:0:
329,192,161361,128,0,161445:0:0:0:0:
402,192,161361,1,0,0:0:0:0:
109,192,161361,128,0,161445:0:0:0:0:
109,192,161528,128,0,161695:0:0:0:0:
329,192,161528,128,0,161695:0:0:0:0:
182,192,161528,1,0,0:0:0:0:
256,192,161528,1,0,0:0:0:0:
475,192,161528,128,0,161611:0:0:0:0:
36,192,161611,128,0,161778:0:0:0:0:
402,192,161611,128,0,161778:0:0:0:0:
182,192,161695,128,0,161861:0:0:0:0:
475,192,161695,128,0,161861:0:0:0:0:
256,192,161695,128,0,161778:0:0:0:0:
109,192,161778,128,0,161861:0:0:0:0:
329,192,161778,128,0,161861:0:0:0:0:
256,192,161861,128,0,162111:0:0:0:0:
402,192,161861,128,0,162111:0:0:0:0:
36,192,161861,128,0,161945:0:0:0:0:
109,192,161945,1,0,0:0:0:0:
182,192,162028,128,0,162111:0:0:0:0:
475,192,162028,128,0,162111:0:0:0:0:
36,192,162028,1,0,0:0:0:0:
329,192,162028,128,0,162111:0:0:0:0:
109,192,162111,1,0,0:0:0:0:
36,192,162195,128,0,162361:0:0:0:0:
329,192,162195,128,0,162361:0:0:0:0:
256,192,162195,1,0,0:0:0:0:
475,192,162195,1,0,0:0:0:0:
182,192,162195,128,0,162278:0:0:0:0:
402,192,162278,1,0,0:0:0:0:
109,192,162361,128,0,162528:0:0:0:0:
475,192,162361,128,0,162528:0:0:0:0:
256,192,162361,128,0,162445:0:0:0:0:
182,192,162445,128,0,162778:0:0:0:0:
402,192,162445,128,0,162778:0:0:0:0:
36,192,162445,1,0,0:0:0:0:
256,192,162528,1,0,0:0:0:0:
329,192,162528,128,0,162611:0:0:0:0:
36,192,162611,1,0,0:0:0:0:
109,192,162695,128,0,162945:0:0:0:0:
329,192,162695,128,0,162945:0:0:0:0:
256,192,162695,1,0,0:0:0:0:
475,192,162695,128,0,162778:0:0:0:0:
36,192,162778,1,0,0:0:0:0:
256,192,162861,128,0,162945:0:0:0:0:
475,192,162861,128,0,162945:0:0:0:0:
402,192,162861,1,0,0:0:0:0:
182,192,162861,128,0,162945:0:0:0:0:
36,192,162945,1,0,0:0:0:0:
182,192,163028,128,0,163278:0:0:0:0:
402,192,163028,128,0,163278:0:0:0:0:
109,192,163028,1,0,0:0:0:0:
329,192,163028,128,0,163111:0:0:0:0:
36,192,163111,1,0,0:0:0:0:
109,192,163195,128,0,163445:0:0:0:0:
329,192,163195,128,0,163445:0:0:0:0:
256,192,163195,1,0,0:0:0:0:
475,192,163195,128,0,163278:0:0:0:0:
36,192,163278,1,0,0:0:0:0:
182,192,163361,128,0,163611:0:0:0:0:
256,192,163361,128,0,163611:0:0:0:0:
402,192,163361,128,0,163445:0:0:0:0:
475,192,163445,1,0,0:0:0:0:
36,192,163528,128,0,163778:0:0:0:0:
402,192,163528,128,0,163778:0:0:0:0:
109,192,163528,1,0,0:0:0:0:
329,192,163528,128,0,163611:0:0:0:0:
475,192,163611,1,0,0:0:0:0:
109,192,163695,128,0,163945:0:0:0:0:
329,192,163695,128,0,163945:0:0:0:0:
182,192,163695,128,0,163778:0:0:0:0:
256,192,163778,1,0,0:0:0:0:
182,192,163861,128,0,164111:0:0:0:0:
475,192,163861,128,0,164111:0:0:0:0:
36,192,163861,1,0,0:0:0:0:
402,192,163861,128,0,163945:0:0:0:0:
256,192,163945,1,0,0:0:0:0:
36,192,164028,128,0,164278:0:0:0:0:
402,192,164028,128,0,164278:0:0:0:0:
329,192,164028,1,0,0:0:0:0:
109,192,164028,128,0,164111:0:0:0:0:
256,192,164111,1,0,0:0:0:0:
109,192,164195,128,0,164278:0:0:0:0:
329,192,164195,128,0,164278:0:0:0:0:
182,192,164195,1,0,0:0:0:0:
475,192,164195,128,0,164278:0:0:0:0:
256,192,164278,1,0,0:0:0:0:
109,192,164361,128,0,164611:0:0:0:0:
329,192,164361,128,0,164611:0:0:0:0:
402,192,164361,1,0,0:0:0:0:
182,192,164361,128,0,164445:0:0:0:0:
475,192,164445,1,0,0:0:0:0:
36,192,164528,128,0,164778:0:0:0:0:
402,192,164528,128,0,164778:0:0:0:0:
182,192,164528,128,0,164611:0:0:0:0:
256,192,164611,1,0,0:0:0:0:
182,192,164695,128,0,164778:0:0:0:0:
475,192,164695,128,0,164778:0:0:0:0:
109,192,164695,1,0,0:0:0:0:
329,192,164695,128,0,164778:0:0:0:0:
256,192,164778,1,0,0:0:0:0:
182,192,164861,128,0,165028:0:0:0:0:
329,192,164861,128,0,165028:0:0:0:0:
475,192,164861,1,0,0:0:0:0:
36,192,164861,1,0,0:0:0:0:
109,192,164861,128,0,164945:0:0:0:0:
402,192,164945,1,0,0:0:0:0:
256,192,165028,128,0,165195:0:0:0:0:
475,192,165028,128,0,165195:0:0:0:0:
36,192,165028,128,0,165111:0:0:0:0:
109,192,165111,128,0,165445:0:0:0:0:
402,192,165111,128,0,165445:0:0:0:0:
182,192,165111,1,0,0:0:0:0:
36,192,165195,1,0,0:0:0:0:
329,192,165195,128,0,165278:0:0:0:0:
256,192,165278,1,0,0:0:0:0:
182,192,165361,128,0,165611:0:0:0:0:
475,192,165361,128,0,165611:0:0:0:0:
329,192,165361,1,0,0:0:0:0:
36,192,165361,128,0,165445:0:0:0:0:
256,192,165445,1,0,0:0:0:0:
36,192,165528,128,0,165611:0:0:0:0:
329,192,165528,128,0,165611:0:0:0:0:
109,192,165528,1,0,0:0:0:0:
402,192,165528,128,0,165611:0:0:0:0:
256,192,165611,1,0,0:0:0:0:
109,192,165695,128,0,165945:0:0:0:0:
402,192,165695,128,0,165945:0:0:0:0:
329,192,165695,1,0,0:0:0:0:
182,192,165695,128,0,165778:0:0:0:0:
36,192,165778,1,0,0:0:0:0:
256,192,165861,128,0,166111:0:0:0:0:
475,192,165861,128,0,166111:0:0:0:0:
182,192,165861,1,0,0:0:0:0:
329,192,165861,128,0,165945:0:0:0:0:
36,192,165945,1,0,0:0:0:0:
182,192,166028,128,0,166111:0:0:0:0:
329,192,166028,128,0,166111:0:0:0:0:
402,192,166028,1,0,0:0:0:0:
109,192,166028,128,0,166111:0:0:0:0:
36,192,166111,1,0,0:0:0:0:
109,192,166195,128,0,166445:0:0:0:0:
402,192,166195,128,0,166445:0:0:0:0:
329,192,166195,1,0,0:0:0:0:
256,192,166195,1,0,0:0:0:0:
475,192,166195,128,0,166278:0:0:0:0:
182,192,166278,1,0,0:0:0:0:
36,192,166361,128,0,166445:0:0:0:0:
256,192,166361,128,0,166445:0:0:0:0:
329,192,166361,128,0,166445:0:0:0:0:
475,192,166445,1,0,0:0:0:0:
182,192,166528,128,0,166778:0:0:0:0:
329,192,166528,128,0,166778:0:0:0:0:
402,192,166528,1,0,0:0:0:0:
36,192,166528,1,0,0:0:0:0:
109,192,166528,128,0,166611:0:0:0:0:
475,192,166611,1,0,0:0:0:0:
36,192,166695,128,0,166778:0:0:0:0:
402,192,166695,128,0,166778:0:0:0:0:
109,192,166695,128,0,166778:0:0:0:0:
256,192,166778,1,0,0:0:0:0:
109,192,166861,128,0,167111:0:0:0:0:
475,192,166861,128,0,167111:0:0:0:0:
402,192,166861,1,0,0:0:0:0:
36,192,166861,1,0,0:0:0:0:
182,192,166861,1,0,0:0:0:0:
329,192,166861,128,0,166945:0:0:0:0:
256,192,166945,1,0,0:0:0:0:
182,192,167028,128,0,167111:0:0:0:0:
329,192,167028,128,0,167111:0:0:0:0:
402,192,167028,1,0,0:0:0:0:
36,192,167028,128,0,167111:0:0:0:0:
256,192,167111,1,0,0:0:0:0:
109,192,167195,128,0,167445:0:0:0:0:
402,192,167195,128,0,167445:0:0:0:0:
182,192,167195,1,0,0:0:0:0:
329,192,167195,1,0,0:0:0:0:
475,192,167195,1,0,0:0:0:0:
36,192,167195,128,0,167278:0:0:0:0:
256,192,167236,1,0,0:0:0:0:
182,192,167278,1,0,0:0:0:0:
475,192,167320,1,0,0:0:0:0:
36,192,167361,128,0,167445:0:0:0:0:
329,192,167361,128,0,167445:0:0:0:0:
182,192,167361,1,0,0:0:0:0:
256,192,167361,128,0,167445:0:0:0:0:
475,192,167445,1,0,0:0:0:0:
36,192,167528,128,0,167695:0:0:0:0:
329,192,167528,128,0,167695:0:0:0:0:
109,192,167528,1,0,0:0:0:0:
402,192,167528,1,0,0:0:0:0:
182,192,167528,128,0,167611:0:0:0:0:
475,192,167611,1,0,0:0:0:0:
182,192,167695,128,0,167861:0:0:0:0:
402,192,167695,128,0,167861:0:0:0:0:
256,192,167695,128,0,167778:0:0:0:0:
109,192,167778,128,0,168111:0:0:0:0:
475,192,167778,128,0,168111:0:0:0:0:
36,192,167778,1,0,0:0:0:0:
256,192,167861,1,0,0:0:0:0:
329,192,167861,128,0,167945:0:0:0:0:
36,192,167945,1,0,0:0:0:0:
256,192,168028,128,0,168278:0:0:0:0:
329,192,168028,128,0,168278:0:0:0:0:
402,192,168028,1,0,0:0:0:0:
182,192,168028,128,0,168111:0:0:0:0:
36,192,168111,1,0,0:0:0:0:
182,192,168195,128,0,168278:0:0:0:0:
402,192,168195,128,0,168278:0:0:0:0:
109,192,168195,1,0,0:0:0:0:
475,192,168195,128,0,168278:0:0:0:0:
36,192,168278,1,0,0:0:0:0:
182,192,168361,128,0,168528:0:0:0:0:
475,192,168361,128,0,168528:0:0:0:0:
329,192,168361,1,0,0:0:0:0:
402,192,168361,1,0,0:0:0:0:
109,192,168361,128,0,168445:0:0:0:0:
256,192,168445,1,0,0:0:0:0:
36,192,168528,128,0,168778:0:0:0:0:
329,192,168528,128,0,168778:0:0:0:0:
256,192,168528,1,0,0:0:0:0:
109,192,168528,1,0,0:0:0:0:
402,192,168528,128,0,168611:0:0:0:0:
475,192,168570,1,0,0:0:0:0:
182,192,168611,1,0,0:0:0:0:
256,192,168653,1,0,0:0:0:0:
109,192,168695,128,0,168945:0:0:0:0:
402,192,168695,128,0,168945:0:0:0:0:
182,192,168695,1,0,0:0:0:0:
475,192,168695,128,0,168778:0:0:0:0:
182,192,168778,1,0,0:0:0:0:
256,192,168861,128,0,168945:0:0:0:0:
475,192,168861,128,0,168945:0:0:0:0:
329,192,168861,128,0,168945:0:0:0:0:
36,192,168945,1,0,0:0:0:0:
182,192,169028,128,0,169278:0:0:0:0:
329,192,169028,128,0,169278:0:0:0:0:
109,192,169028,1,0,0:0:0:0:
475,192,169028,128,0,169111:0:0:0:0:
256,192,169111,1,0,0:0:0:0:
109,192,169195,128,0,169445:0:0:0:0:
475,192,169195,128,0,169445:0:0:0:0:
402,192,169195,1,0,0:0:0:0:
36,192,169195,128,0,169278:0:0:0:0:
256,192,169278,1,0,0:0:0:0:
36,192,169361,128,0,169611:0:0:0:0:
402,192,169361,128,0,169611:0:0:0:0:
329,192,169361,1,0,0:0:0:0:
182,192,169361,128,0,169445:0:0:0:0:
256,192,169445,1,0,0:0:0:0:
182,192,169528,128,0,169611:0:0:0:0:
329,192,169528,128,0,169611:0:0:0:0:
475,192,169528,128,0,169611:0:0:0:0:
109,192,169611,1,0,0:0:0:0:
256,192,169695,128,0,169861:0:0:0:0:
475,192,169695,128,0,169861:0:0:0:0:
329,192,169695,1,0,0:0:0:0:
402,192,169695,1,0,0:0:0:0:
182,192,169695,128,0,169778:0:0:0:0:
36,192,169778,1,0,0:0:0:0:
109,192,169861,128,0,170028:0:0:0:0:
329,192,169861,128,0,170028:0:0:0:0:
182,192,169861,1,0,0:0:0:0:
402,192,169861,128,0,169945:0:0:0:0:
36,192,169903,1,0,0:0:0:0:
475,192,169945,1,0,0:0:0:0:
36,192,169986,1,0,0:0:0:0:
182,192,170028,128,0,170111:0:0:0:0:
402,192,170028,128,0,170111:0:0:0:0:
475,192,170028,1,0,0:0:0:0:
256,192,170028,128,0,170111:0:0:0:0:
329,192,170111,1,0,0:0:0:0:
36,192,170111,1,0,0:0:0:0:
256,192,170195,128,0,170361:0:0:0:0:
475,192,170195,128,0,170361:0:0:0:0:
402,192,170195,1,0,0:0:0:0:
182,192,170195,1,0,0:0:0:0:
109,192,170195,128,0,170278:0:0:0:0:
36,192,170278,1,0,0:0:0:0:
109,192,170361,128,0,170445:0:0:0:0:
329,192,170361,128,0,170445:0:0:0:0:
182,192,170361,128,0,170445:0:0:0:0:
36,192,170445,128,0,170695:0:0:0:0:
402,192,170445,128,0,170695:0:0:0:0:
256,192,170445,1,0,0:0:0:0:
182,192,170528,1,0,0:0:0:0:
475,192,170528,1,0,0:0:0:0:
329,192,170528,1,0,0:0:0:0:
109,192,170528,128,0,170611:0:0:0:0:
256,192,170570,1,0,0:0:0:0:
182,192,170611,1,0,0:0:0:0:
475,192,170653,1,0,0:0:0:0:
109,192,170695,128,0,170861:0:0:0:0:
329,192,170695,128,0,170861:0:0:0:0:
182,192,170695,1,0,0:0:0:0:
256,192,170695,128,0,170778:0:0:0:0:
402,192,170778,1,0,0:0:0:0:
182,192,170861,128,0,170945:0:0:0:0:
475,192,170861,128,0,170945:0:0:0:0:
36,192,170861,1,0,0:0:0:0:
256,192,170861,128,0,170945:0:0:0:0:
36,192,170945,1,0,0:0:0:0:
329,192,170945,1,0,0:0:0:0:
256,192,171028,128,0,171195:0:0:0:0:
402,192,171028,128,0,171195:0:0:0:0:
329,192,171028,1,0,0:0:0:0:
182,192,171028,1,0,0:0:0:0:
109,192,171028,128,0,171111:0:0:0:0:
36,192,171111,1,0,0:0:0:0:
475,192,171111,1,0,0:0:0:0:
182,192,171195,128,0,171445:0:0:0:0:
475,192,171195,128,0,171445:0:0:0:0:
36,192,171195,1,0,0:0:0:0:
109,192,171195,1,0,0:0:0:0:
329,192,171195,128,0,171278:0:0:0:0:
36,192,171361,128,0,171445:0:0:0:0:
329,192,171361,128,0,171445:0:0:0:0:
109,192,171528,128,0,171611:0:0:0:0:
402,192,171528,128,0,171611:0:0:0:0:
182,192,171695,128,0,171861:0:0:0:0:
329,192,171695,128,0,171861:0:0:0:0:
256,192,171861,128,0,172028:0:0:0:0:
402,192,171861,128,0,172028:0:0:0:0:
182,192,172028,128,0,172111:0:0:0:0:
475,192,172028,128,0,172111:0:0:0:0:
109,192,172195,128,0,172361:0:0:0:0:
329,192,172195,128,0,172361:0:0:0:0:
36,192,172361,128,0,172528:0:0:0:0:
256,192,172361,128,0,172528:0:0:0:0:
109,192,172528,1,0,0:0:0:0:
329,192,172528,1,0,0:0:0:0:
402,192,172528,1,0,0:0:0:0:
475,192,172528,1,0,0:0:0:0:
475,192,173028,1,0,0:0:0:0:
402,192,173028,1,0,0:0:0:0:
256,192,173028,1,0,0:0:0:0:
329,192,175028,1,0,0:0:0:0:
402,192,175111,1,0,0:0:0:0:
36,192,175195,1,0,0:0:0:0:
329,192,175195,1,0,0:0:0:0:
109,192,175361,1,0,0:0:0:0:
182,192,175528,1,0,0:0:0:0:
256,192,175528,1,0,0:0:0:0:
402,192,175695,1,0,0:0:0:0:
36,192,175695,1,0,0:0:0:0:
182,192,176528,1,0,0:0:0:0:
329,192,176528,1,0,0:0:0:0:
402,192,177695,1,0,0:0:0:0:
475,192,177778,1,0,0:0:0:0:
402,192,177861,1,0,0:0:0:0:
36,192,177861,1,0,0:0:0:0:
109,192,178028,1,0,0:0:0:0:
182,192,178195,1,0,0:0:0:0:
475,192,178361,1,0,0:0:0:0:
402,192,178361,1,0,0:0:0:0:
256,192,178361,1,0,0:0:0:0:
182,192,178861,1,0,0:0:0:0:
329,192,178861,1,0,0:0:0:0:
109,192,178861,1,0,0:0:0:0:
256,192,180528,1,0,0:0:0:0:
109,192,180528,1,0,0:0:0:0:
36,192,180528,1,0,0:0:0:0:
329,192,181028,1,0,0:0:0:0:
402,192,181528,1,0,0:0:0:0:
182,192,181528,1,0,0:0:0:0:
475,192,181528,1,0,0:0:0:0:
109,192,183195,1,0,0:0:0:0:
475,192,183695,1,0,0:0:0:0:
402,192,183695,1,0,0:0:0:0:
256,192,183695,1,0,0:0:0:0:
329,192,185695,1,0,0:0:0:0:
402,192,185778,1,0,0:0:0:0:
36,192,185861,1,0,0:0:0:0:
329,192,185861,1,0,0:0:0:0:
109,192,186028,1,0,0:0:0:0:
182,192,186195,1,0,0:0:0:0:
256,192,186195,1,0,0:0:0:0:
402,192,186361,1,0,0:0:0:0:
36,192,186361,1,0,0:0:0:0:
329,192,187195,1,0,0:0:0:0:
182,192,187195,1,0,0:0:0:0:
402,192,188361,1,0,0:0:0:0:
475,192,188445,1,0,0:0:0:0:
402,192,188528,1,0,0:0:0:0:
36,192,188528,1,0,0:0:0:0:
109,192,188695,1,0,0:0:0:0:
182,192,188861,1,0,0:0:0:0:
256,192,189028,1,0,0:0:0:0:
329,192,189028,1,0,0:0:0:0:
109,192,189528,1,0,0:0:0:0:
402,192,189528,1,0,0:0:0:0:
182,192,189528,1,0,0:0:0:0:
329,192,191028,1,0,0:0:0:0:
402,192,191111,1,0,0:0:0:0:
36,192,191195,1,0,0:0:0:0:
329,192,191195,1,0,0:0:0:0:
109,192,191361,1,0,0:0:0:0:
182,192,191528,1,0,0:0:0:0:
256,192,191695,1,0,0:0:0:0:
402,192,191695,1,0,0:0:0:0:
329,192,192195,1,0,0:0:0:0:
182,192,192195,1,0,0:0:0:0:
109,192,192195,1,0,0:0:0:0:
256,192,193861,1,0,0:0:0:0:
402,192,193861,1,0,0:0:0:0:
182,192,193861,1,0,0:0:0:0:
109,192,193861,1,0,0:0:0:0:
329,192,193861,1,0,0:0:0:0:
