osu file format v12

[General]
AudioFilename: Sentimental Skyscraper.mp3
AudioLeadIn: 3000
PreviewTime: 320
Countdown: 0
SampleSet: Normal
StackLeniency: 0.2
Mode: 0
LetterboxInBreaks: 0
EpilepsyWarning: 1
WidescreenStoryboard: 1

[Editor]
Bookmarks: 1304,43271,337042
DistanceSpacing: 0.7
BeatDivisor: 4
GridSize: 4
TimelineZoom: 2.299999

[Metadata]
Title:Sentimental Skyscraper
TitleUnicode:感傷の摩天楼
Artist:Halozy
ArtistUnicode:Halozy
Creator:Hollow Wings
Version:Myouren Hijiri
Source:Touhou
Tags:Aqua Trytone hotaru Kanshou no Matenrou Emotional Skyscraper Cosmic Mind Hijiri Byakuren ts8zs
BeatmapID:412288
BeatmapSetID:100348

[Difficulty]
HPDrainRate:6
CircleSize:4
OverallDifficulty:8
ApproachRate:9
SliderMultiplier:2.4
SliderTickRate:2

[Events]
//Background and Video events
0,0,"Sentimental Skyscraper.jpg",0,0
//Break Periods
2,113635,115458
//Storyboard Layer 0 (Background)
//Storyboard Layer 1 (Fail)
//Storyboard Layer 2 (Pass)
//Storyboard Layer 3 (Foreground)
//Storyboard Sound Samples
//Background Colour Transformations
3,100,163,162,255

[TimingPoints]
-7,327.868852459016,4,2,1,70,1,0
22288,-200,4,2,1,70,0,0
22370,-200,4,2,1,40,0,0
27533,-200,4,2,1,45,0,0
32779,-200,4,2,1,50,0,0
38025,-200,4,2,1,60,0,0
40648,-200,4,2,1,50,0,0
41304,-100,4,2,1,40,0,0
41960,-100,4,2,1,30,0,0
42615,-200,4,2,1,50,0,0
42943,-200,4,2,1,70,0,0
43271,-133.333333333333,4,2,1,35,0,0
48517,-133.333333333333,4,2,1,40,0,0
49829,-133.333333333333,4,2,1,50,0,0
51140,-133.333333333333,4,2,1,60,0,0
52452,-133.333333333333,4,2,1,70,0,0
53763,-100,4,2,1,90,0,0
60976,-50,4,2,1,70,0,0
61632,-200,4,2,1,70,0,0
64255,-66.6666666666667,4,1,1,70,0,1
64419,-66.6666666666667,4,1,1,70,0,0
74747,-100,4,2,1,90,0,0
79992,-100,4,2,1,60,0,0
80074,-100,4,2,1,90,0,0
82615,-50,4,2,1,70,0,0
83927,-100,4,2,1,70,0,0
84911,-100,4,1,1,70,0,0
85238,-80,4,1,2,80,0,1
85320,-80,4,1,1,80,0,1
103599,-80,4,1,1,60,0,1
104255,-80,4,1,3,60,0,1
106222,-200,4,2,1,70,0,0
106386,-200,4,2,1,40,0,0
108845,-200,4,2,1,35,0,0
111468,-200,4,2,1,30,0,0
116714,-200,4,2,2,40,0,0
116878,-200,4,2,1,35,0,0
119337,-200,4,2,1,40,0,0
121960,-200,4,2,1,45,0,0
124583,-200,4,2,1,50,0,0
127206,-133.333333333333,4,2,1,55,0,0
137697,-100,4,2,1,75,0,0
142943,-100,4,2,1,60,0,0
143025,-100,4,2,1,75,0,0
144091,-100,4,2,1,60,0,0
144173,-100,4,2,1,70,0,0
147533,-100,4,1,1,90,0,0
148190,-80,4,1,2,90,0,1
148271,-80,4,1,1,70,0,1
158681,-133.333333333333,4,1,1,40,0,0
163435,-100,4,1,1,70,0,0
163927,-100,4,1,1,70,0,1
164091,-100,4,1,1,70,0,0
169173,-100,4,1,1,100,0,1
169337,-100,4,1,1,70,0,0
188025,-200,4,1,1,70,0,0
188353,-100,4,2,1,70,0,0
188845,-100,4,1,1,70,0,0
189501,-100,4,2,1,70,0,0
190156,-80,4,1,2,80,0,1
190238,-80,4,1,1,80,0,1
208517,-80,4,1,1,60,0,1
209173,-80,4,1,3,60,0,1
211140,-200,4,2,1,70,0,0
221632,-133.333333333333,4,2,1,80,0,0
226878,-133.333333333333,4,2,1,60,0,0
226960,-133.333333333333,4,2,1,80,0,0
228025,-133.333333333333,4,2,1,70,0,0
228107,-133.333333333333,4,2,1,80,0,0
229501,-100,4,2,1,70,0,0
231468,-100,4,1,1,70,0,0
232124,-80,4,1,2,90,0,1
232206,-80,4,1,1,70,0,1
242616,-133.333333333333,4,1,1,40,0,0
247370,-100,4,1,1,70,0,0
247861,-100,4,1,1,70,0,1
248025,-100,4,1,1,70,0,0
253107,-133.333333333333,4,2,1,70,0,0
258353,-100,4,2,1,90,0,0
260976,-50,4,2,1,70,0,0
262288,-200,4,2,1,30,0,0
263599,-133.333333333333,4,2,1,40,0,0
266222,-133.333333333333,4,2,1,50,0,0
268845,-133.333333333333,4,2,1,60,0,0
271468,-133.333333333333,4,2,1,70,0,0
274091,-100,4,1,1,50,0,0
276714,-100,4,1,1,70,0,0
283271,-100,4,1,1,30,0,0
283599,-100,4,1,1,40,0,0
283927,-100,4,1,1,50,0,0
284255,-100,4,1,1,60,0,0
284583,-80,4,1,2,80,0,1
284665,-80,4,1,1,80,0,1
302943,-80,4,1,1,60,0,1
303599,-80,4,1,3,60,0,1
305403,-100,4,1,1,80,0,0
305566,-66.6666666666667,4,1,1,80,0,1
305730,-66.6666666666667,4,1,1,80,0,0
316058,-50,4,1,1,90,0,1
316386,-50,4,1,1,70,0,1
316714,-50,4,1,1,50,0,1
317206,-50,4,1,1,90,0,1
317288,-50,4,1,3,100,0,1
317452,-50,4,1,1,90,0,1
317697,-50,4,1,1,70,0,1
318025,-50,4,1,1,50,0,1
318517,-50,4,1,1,70,0,1
318681,-50,4,1,1,90,0,1
319009,-50,4,1,1,70,0,1
319337,-50,4,1,1,50,0,1
319829,-50,4,1,1,90,0,1
319911,-50,4,1,3,100,0,1
320074,-50,4,1,1,90,0,1
320320,-50,4,1,1,70,0,1
321304,-50,4,1,1,90,0,1
321632,-50,4,1,1,70,0,1
321960,-50,4,1,1,50,0,1
322452,-50,4,1,1,90,0,1
322533,-50,4,1,3,100,0,1
322697,-50,4,1,1,90,0,1
322943,-50,4,1,1,70,0,1
323271,-50,4,1,1,50,0,1
323763,-50,4,1,1,70,0,1
323927,-50,4,1,1,80,0,1
324583,-50,4,1,1,70,0,1
325074,-50,4,1,1,90,0,1
326714,-100,4,1,1,30,0,0

[Colours]
Combo1 : 255,235,166
Combo2 : 129,74,255
Combo3 : 233,107,157
Combo4 : 255,181,181

[HitObjects]
256,192,21632,12,0,22206,3:0:0:0:
158,131,22288,6,0,L|91:136,1,60,4|0,0:0|0:0,0:0:0:0:
294,118,22615,2,0,L|227:123,1,60
316,146,22943,1,0,0:0:0:0:
449,132,23107,2,0,L|382:137,1,60
158,131,23435,6,0,L|277:149,1,120
362,211,23927,1,0,0:0:0:0:
341,306,24091,1,0,0:0:0:0:
236,318,24255,2,0,L|169:323,1,60
81,366,24583,1,0,0:0:0:0:
20,280,24747,1,0,0:0:0:0:
93,204,24911,6,0,L|145:249,1,60
264,132,25238,2,0,L|199:154,1,60
236,318,25566,2,0,L|248:250,2,60
207,151,26058,6,0,B|203:185|203:185|250:265,1,120
360,274,26550,1,0,0:0:0:0:
440,192,26714,1,0,0:0:0:0:
404,84,26878,2,0,L|342:74,1,60
246,258,27206,1,0,0:0:0:0:
208,151,27370,1,0,0:0:0:0:
331,231,27533,6,0,L|398:236,1,60
364,347,27861,2,0,L|431:352,1,60
284,368,28188,1,0,0:0:0:0:
246,258,28353,2,0,L|187:254,1,60
67,342,28681,6,0,L|195:353,1,120
247,258,29172,1,0,0:0:0:0:
187,353,29336,1,0,0:0:0:0:
67,342,29501,1,0,0:0:0:0:
37,227,29665,1,0,0:0:0:0:
187,353,29829,1,0,0:0:0:0:
247,258,29993,1,0,0:0:0:0:
203,148,30156,6,0,L|136:153,1,60
109,76,30484,2,0,L|42:81,1,60
113,237,30812,2,0,L|175:245,2,60
204,149,31304,2,0,L|327:139,1,120
385,197,31795,1,0,0:0:0:0:
434,86,31959,1,0,0:0:0:0:
323,140,32124,2,0,L|256:145,1,60
434,86,32452,1,0,0:0:0:0:
385,197,32616,1,0,0:0:0:0:
378,24,32780,5,4,0:0:0:0:
385,197,32943,1,0,0:0:0:0:
276,254,33107,2,0,L|343:259,1,60,0|0,0:0|0:0,0:0:0:0:
457,309,33435,1,0,0:0:0:0:
343,371,33599,1,0,0:0:0:0:
276,254,33763,1,0,0:0:0:0:
241,249,33845,1,0,0:0:0:0:
206,243,33927,6,0,L|75:249,1,120
73,331,34419,1,0,0:0:0:0:
103,333,34500,1,0,0:0:0:0:
133,334,34582,1,0,0:0:0:0:
163,336,34664,1,0,0:0:0:0:
192,337,34746,1,0,0:0:0:0:
313,299,34911,1,0,0:0:0:0:
343,301,34993,1,0,0:0:0:0:
372,302,35075,1,0,0:0:0:0:
491,264,35238,1,0,0:0:0:0:
445,123,35403,5,0,0:0:0:0:
357,212,35566,1,0,0:0:0:0:
328,213,35648,1,0,0:0:0:0:
298,215,35730,1,0,0:0:0:0:
268,216,35812,1,0,0:0:0:0:
238,218,35893,1,0,0:0:0:0:
135,145,36058,1,0,0:0:0:0:
260,127,36222,1,0,0:0:0:0:
290,129,36304,1,0,0:0:0:0:
319,130,36386,5,0,0:0:0:0:
199,79,36550,2,0,L|123:74,2,60
260,127,36960,1,0,0:0:0:0:
277,102,37042,1,0,0:0:0:0:
293,76,37124,1,0,0:0:0:0:
310,52,37205,1,0,0:0:0:0:
378,204,37370,1,0,0:0:0:0:
391,231,37452,1,0,0:0:0:0:
405,258,37534,1,0,0:0:0:0:
417,284,37615,1,0,0:0:0:0:
429,311,37697,1,0,0:0:0:0:
405,345,37779,1,0,0:0:0:0:
363,337,37861,1,0,0:0:0:0:
327,359,37943,1,0,0:0:0:0:
294,333,38025,5,0,0:0:0:0:
127,349,38189,1,0,0:0:0:0:
141,166,38352,1,0,0:0:0:0:
301,221,38516,1,0,0:0:0:0:
132,256,38681,1,0,0:0:0:0:
119,229,38763,1,0,0:0:0:0:
105,202,38845,1,0,0:0:0:0:
93,176,38926,1,0,0:0:0:0:
81,149,39008,1,0,0:0:0:0:
105,115,39090,1,0,0:0:0:0:
147,123,39172,1,0,0:0:0:0:
183,101,39254,1,0,0:0:0:0:
216,127,39336,5,0,0:0:0:0:
301,221,39501,1,0,0:0:0:0:
448,239,39665,1,0,0:0:0:0:
476,208,39746,1,0,0:0:0:0:
479,165,39829,1,0,0:0:0:0:
371,18,39991,1,0,0:0:0:0:
334,41,40074,1,0,0:0:0:0:
314,78,40155,1,0,0:0:0:0:
319,121,40238,1,0,0:0:0:0:
339,156,40319,1,0,0:0:0:0:
478,315,40484,1,0,0:0:0:0:
269,358,40648,5,0,0:0:0:0:
306,335,40731,1,0,0:0:0:0:
326,298,40812,1,0,0:0:0:0:
321,255,40895,1,0,0:0:0:0:
301,220,40976,1,0,0:0:0:0:
262,204,41058,1,0,0:0:0:0:
220,212,41140,1,0,0:0:0:0:
179,223,41223,1,0,0:0:0:0:
138,218,41304,5,0,0:0:0:0:
101,193,41387,1,0,0:0:0:0:
83,156,41468,1,0,0:0:0:0:
78,114,41550,1,0,0:0:0:0:
91,74,41632,1,0,0:0:0:0:
121,45,41714,1,0,0:0:0:0:
160,31,41796,1,0,0:0:0:0:
201,33,41878,1,0,0:0:0:0:
238,50,41960,6,0,P|229:106|175:126,2,120
364,277,42452,2,0,P|306:302|248:277,1,120,0|2,0:0|0:0,0:0:0:0:
365,236,42697,1,0,0:0:0:0:
351,197,42779,1,0,0:0:0:0:
329,163,42861,1,0,0:0:0:0:
297,136,42943,1,0,0:0:0:0:
259,122,43025,1,0,0:0:0:0:
217,121,43107,1,0,0:0:0:0:
176,126,43189,1,0,0:0:0:0:
140,149,43271,5,0,0:0:0:0:
53,201,43435,1,2,0:0:0:0:
150,184,43599,2,0,L|328:163,1,180.000006866455,2|0,0:0|0:0,0:0:0:0:
428,144,44091,1,2,0:0:0:0:
351,197,44255,1,2,0:0:0:0:
386,382,44583,5,2,0:0:0:0:
327,301,44747,1,2,0:0:0:0:
421,310,44911,2,0,L|242:289,1,180.000006866455,2|0,0:0|0:0,0:0:0:0:
206,315,45320,1,0,0:0:0:0:
169,339,45402,1,2,0:0:0:0:
94,282,45566,1,2,0:0:0:0:
62,305,45894,5,2,0:0:0:0:
206,315,46058,1,2,0:0:0:0:
6,304,46222,2,0,L|93:282,1,90.0000034332277,2|0,0:0|0:0,0:0:0:0:
128,298,46468,1,0,0:0:0:0:
162,318,46550,1,0,0:0:0:0:
206,315,46632,1,0,0:0:0:0:
250,310,46714,1,2,0:0:0:0:
344,361,46878,1,2,0:0:0:0:
499,277,47042,1,0,0:0:0:0:
455,282,47124,1,0,0:0:0:0:
411,285,47206,5,2,0:0:0:0:
402,178,47370,1,2,0:0:0:0:
466,94,47533,2,0,L|376:75,1,90.0000034332277,2|0,0:0|0:0,0:0:0:0:
333,79,47779,1,0,0:0:0:0:
289,84,47861,1,0,0:0:0:0:
245,87,47943,1,0,0:0:0:0:
201,92,48025,1,2,0:0:0:0:
90,34,48189,1,2,0:0:0:0:
57,233,48353,1,0,0:0:0:0:
77,193,48435,1,0,0:0:0:0:
95,153,48517,6,0,L|8:213,1,90.0000034332277,2|2,0:0|0:0,0:0:0:0:
246,87,48845,2,0,L|159:147,1,90.0000034332277,8|0,0:0|0:0,0:0:0:0:
194,212,49091,1,0,0:0:0:0:
176,252,49173,1,0,0:0:0:0:
156,292,49255,1,0,0:0:0:0:
136,332,49337,1,2,0:0:0:0:
12,353,49501,1,8,0:0:0:0:
300,231,49665,1,0,0:0:0:0:
280,271,49747,1,0,0:0:0:0:
260,311,49829,5,2,0:0:0:0:
136,332,49993,1,2,0:0:0:0:
271,145,50156,2,0,L|299:231,1,90.0000034332277,8|0,0:0|0:0,0:0:0:0:
316,272,50402,1,0,0:0:0:0:
331,313,50484,1,0,0:0:0:0:
347,355,50566,1,0,0:0:0:0:
392,358,50648,1,2,0:0:0:0:
459,216,50811,1,8,0:0:0:0:
322,58,50976,1,0,0:0:0:0:
337,99,51058,1,0,0:0:0:0:
353,141,51140,5,2,0:0:0:0:
503,147,51303,1,2,0:0:0:0:
311,212,51468,2,0,L|220:204,1,90.0000034332277,8|0,0:0|0:0,0:0:0:0:
188,172,51714,1,0,0:0:0:0:
143,166,51796,1,0,0:0:0:0:
98,161,51878,1,0,0:0:0:0:
53,156,51960,1,2,0:0:0:0:
337,98,52123,1,8,0:0:0:0:
221,46,52288,1,0,0:0:0:0:
176,41,52370,1,0,0:0:0:0:
131,36,52452,5,2,0:0:0:0:
189,172,52615,1,2,0:0:0:0:
337,98,52779,2,0,L|426:90,1,90.0000034332277,8|0,0:0|0:0,0:0:0:0:
457,131,53025,1,0,0:0:0:0:
412,136,53107,1,0,0:0:0:0:
367,141,53189,1,0,0:0:0:0:
322,147,53271,1,2,0:0:0:0:
280,273,53435,1,8,0:0:0:0:
481,292,53599,1,0,0:0:0:0:
436,287,53681,1,0,0:0:0:0:
391,281,53763,5,6,0:0:0:0:
242,378,53927,1,2,0:0:0:0:
78,311,54091,1,8,0:0:0:0:
79,135,54255,1,0,0:0:0:0:
102,173,54336,1,0,0:0:0:0:
126,211,54418,1,0,0:0:0:0:
150,249,54500,1,0,0:0:0:0:
174,287,54582,1,2,0:0:0:0:
265,125,54747,1,8,0:0:0:0:
175,287,54911,5,0,0:0:0:0:
196,247,54993,1,0,0:0:0:0:
217,208,55074,2,0,L|350:199,2,120,2|2|8,0:0|0:0|0:0,0:0:0:0:
471,273,55566,1,0,0:0:0:0:
426,274,55647,1,0,0:0:0:0:
381,276,55729,1,0,0:0:0:0:
336,278,55811,1,0,0:0:0:0:
291,279,55893,1,2,0:0:0:0:
379,203,56058,1,8,0:0:0:0:
432,373,56222,1,0,0:0:0:0:
387,375,56304,1,0,0:0:0:0:
342,377,56386,5,2,0:0:0:0:
471,273,56550,1,2,0:0:0:0:
403,118,56714,1,8,0:0:0:0:
235,133,56878,1,0,0:0:0:0:
225,173,56959,1,0,0:0:0:0:
216,213,57041,1,0,0:0:0:0:
206,253,57123,1,0,0:0:0:0:
197,293,57205,1,2,0:0:0:0:
72,178,57370,1,8,0:0:0:0:
235,133,57533,5,0,0:0:0:0:
204,104,57614,1,0,0:0:0:0:
174,76,57697,2,0,L|194:198,2,120,2|2|8,0:0|0:0|0:0,0:0:0:0:
34,338,58189,1,0,0:0:0:0:
43,298,58271,1,0,0:0:0:0:
53,258,58353,1,0,0:0:0:0:
62,218,58435,1,0,0:0:0:0:
72,178,58517,1,6,0:0:0:0:
233,373,58681,1,8,0:0:0:0:
367,234,58845,5,0,0:0:0:0:
407,244,58927,1,0,0:0:0:0:
448,255,59009,1,6,0:0:0:0:
459,88,59173,1,2,0:0:0:0:
234,202,59337,1,8,0:0:0:0:
203,27,59501,1,0,0:0:0:0:
243,36,59583,1,0,0:0:0:0:
283,47,59665,1,0,0:0:0:0:
323,56,59747,1,0,0:0:0:0:
363,66,59829,6,0,L|246:106,1,120,2|8,0:0|0:0,0:0:0:0:
113,6,60157,1,0,0:0:0:0:
133,44,60239,1,0,0:0:0:0:
152,81,60320,2,0,L|128:198,2,120,2|2|8,0:0|0:0|0:0,0:0:0:0:
221,199,60812,1,0,0:0:0:0:
241,237,60894,1,0,0:0:0:0:
262,275,60976,6,0,L|252:345,11,60,0|0|0|0|2|0|0|0|8|0|0|0,0:0|0:0|0:0|0:0|0:0|0:0|0:0|0:0|0:0|0:0|0:0|0:0,0:0:0:0:
296,323,61468,5,0,0:0:0:0:
460,356,61632,1,2,0:0:0:0:
402,107,61796,1,2,0:0:0:0:
152,82,61960,1,2,0:0:0:0:
51,313,62124,1,2,0:0:0:0:
152,82,62452,5,0,0:0:0:0:
402,107,62616,1,0,0:0:0:0:
270,240,62943,6,0,B|312:254|288:293|258:300|213:284|215:206|258:191|285:169|265:110,1,240
74,109,63763,1,2,0:0:0:0:
483,66,63927,1,2,0:0:0:0:
342,27,64255,5,6,0:0:0:0:
301,325,64419,1,2,0:0:0:0:
242,173,64583,1,8,0:0:0:0:
468,350,64748,2,0,L|345:331,2,90.0000034332277,2|0|0,0:0|0:0|0:0,0:0:0:0:
228,361,65075,1,2,0:0:0:0:
9,266,65239,1,8,0:0:0:0:
343,27,65402,6,0,B|285:98|285:98|227:365,1,360.000013732911,2|2,0:0|0:0,0:0:0:0:
9,266,65894,1,8,0:0:0:0:
242,173,66058,1,2,0:0:0:0:
228,361,66222,1,0,0:0:0:0:
468,350,66386,2,0,L|345:331,2,90.0000034332277,2|0|8,0:0|0:0|0:0,0:0:0:0:
393,150,66713,1,2,0:0:0:0:
72,16,66878,5,2,0:0:0:0:
305,265,67042,1,2,0:0:0:0:
344,29,67206,2,0,L|161:41,1,180.000006866455,8|2,0:0|0:0,0:0:0:0:
305,265,67533,1,0,0:0:0:0:
331,116,67697,1,2,0:0:0:0:
49,160,67861,1,8,0:0:0:0:
72,16,68025,6,0,B|170:44|170:44|310:273,1,360.000013732911,2|2,0:0|0:0,0:0:0:0:
331,116,68517,1,8,0:0:0:0:
49,160,68681,1,2,0:0:0:0:
72,16,68845,1,0,0:0:0:0:
344,29,69009,2,0,L|254:34,1,90.0000034332277,2|2,0:0|0:0,0:0:0:0:
164,40,69173,1,8,0:0:0:0:
305,265,69337,1,10,0:0:0:0:
26,299,69501,5,2,0:0:0:0:
331,116,69665,1,2,0:0:0:0:
484,289,69829,2,0,L|304:265,1,180.000006866455,8|2,0:0|0:0,0:0:0:0:
72,365,70157,1,0,0:0:0:0:
357,330,70321,1,2,0:0:0:0:
176,101,70484,1,8,0:0:0:0:
305,265,70649,6,0,B|133:313|133:313|234:155,1,360.000013732911,2|2,0:0|0:0,0:0:0:0:
229,375,71141,1,8,0:0:0:0:
176,101,71304,1,2,0:0:0:0:
176,317,71469,1,0,0:0:0:0:
230,159,71633,2,0,L|145:187,2,90.0000034332277,2|2|8,0:0|0:0|0:0,0:0:0:0:
72,365,71960,1,2,0:0:0:0:
8,70,72124,5,2,0:0:0:0:
91,268,72288,1,2,0:0:0:0:
305,265,72452,1,8,0:0:0:0:
368,60,72616,1,10,0:0:0:0:
61,249,72779,5,0,0:0:0:0:
232,379,72943,1,2,0:0:0:0:
416,270,73107,1,8,0:0:0:0:
368,60,73271,6,0,P|294:155|366:372,1,360.000013732911,10|2,0:0|0:0,0:0:0:0:
420,155,73763,1,8,0:0:0:0:
102,356,73927,6,0,P|158:189|1:145,1,360.000013732911,10|2,0:0|0:0,0:0:0:0:
61,211,74337,1,2,0:0:0:0:
61,249,74419,1,10,0:0:0:0:
102,356,74583,1,10,0:0:0:0:
359,368,74747,5,2,0:0:0:0:
337,217,74911,1,2,0:0:0:0:
141,207,75074,2,0,L|272:215,1,120,8|0,0:0|0:0,0:0:0:0:
299,216,75320,1,0,0:0:0:0:
338,217,75402,2,0,L|417:222,2,60,0|0|2,0:0|0:0|0:0,0:0:0:0:
425,331,75730,2,0,L|305:323,1,120,8|0,0:0|0:0,0:0:0:0:
221,335,75976,2,0,L|162:343,1,60,0|2,0:0|0:0,0:0:0:0:
338,216,76222,5,2,0:0:0:0:
109,203,76386,2,0,L|240:211,1,120,8|0,0:0|0:0,0:0:0:0:
284,214,76632,1,0,0:0:0:0:
338,216,76714,2,0,L|417:221,2,60,0|0|2,0:0|0:0|0:0,0:0:0:0:
72,127,77042,6,0,L|203:119,1,120,8|0,0:0|0:0,0:0:0:0:
247,116,77288,1,0,0:0:0:0:
301,114,77370,2,0,L|420:104,1,120,2|2,0:0|0:0,0:0:0:0:
146,310,77697,2,0,L|265:319,1,120,8|0,0:0|0:0,0:0:0:0:
306,323,77943,1,0,0:0:0:0:
345,326,78024,1,0,0:0:0:0:
385,329,78106,1,0,0:0:0:0:
425,332,78188,1,2,0:0:0:0:
421,105,78353,1,8,0:0:0:0:
195,118,78517,6,0,L|128:110,2,60,0|0|2,0:0|0:0|0:0,0:0:0:0:
346,326,78846,1,2,0:0:0:0:
369,169,79009,1,8,0:0:0:0:
143,182,79173,2,0,L|76:174,4,60,0|0|0|0|2,0:0|0:0|0:0|0:0|0:0,0:0:0:0:
10,162,79664,1,8,0:0:0:0:
172,296,79828,1,0,0:0:0:0:
62,365,79992,6,0,L|44:299,1,60,4|0,0:1|0:0,0:0:0:0:
142,181,80156,2,0,L|127:124,1,60,2|0,0:0|0:0,0:0:0:0:
172,296,80320,5,8,0:0:0:0:
211,299,80401,1,0,0:0:0:0:
251,302,80483,1,0,0:0:0:0:
291,305,80565,1,0,0:0:0:0:
332,308,80648,6,0,L|288:352,1,60
500,324,80812,2,0,L|456:368,1,60,6|0,0:0|0:0,0:0:0:0:
445,218,80976,5,8,0:0:0:0:
406,221,81057,1,0,0:0:0:0:
366,224,81139,1,0,0:0:0:0:
326,227,81221,1,0,0:0:0:0:
285,223,81304,6,0,L|225:218,1,60,2|0,0:0|0:0,0:0:0:0:
170,57,81468,2,0,L|230:62,1,60,2|0,0:0|0:0,0:0:0:0:
142,208,81632,2,0,L|82:203,1,60,8|0,0:0|0:0,0:0:0:0:
310,71,81796,2,0,L|370:76,1,60,0|0,0:0|0:0,0:0:0:0:
430,297,81960,6,0,L|370:302,1,60,0|0,0:0|0:0,0:0:0:0:
225,228,82124,2,0,L|285:223,1,60,6|0,0:0|0:0,0:0:0:0:
374,126,82288,2,0,L|314:131,1,60,8|0,0:0|0:0,0:0:0:0:
169,57,82452,2,0,L|229:52,1,60,0|0,0:0|0:0,0:0:0:0:
78,69,82615,6,0,L|46:127,7,60,2|0|0|0|2|0|0|0,0:0|0:0|0:0|0:0|0:0|0:0|0:0|0:0,0:0:0:0:
129,155,82943,2,0,L|97:213,7,60,8|0|0|0|0|0|0|0,0:0|0:0|0:0|0:0|0:0|0:0|0:0|0:0,0:0:0:0:
184,229,83271,2,0,L|152:287,7,60,0|0|0|0|2|0|0|0,0:0|0:0|0:0|0:0|0:0|0:0|0:0|0:0,0:0:0:0:
235,315,83599,2,0,L|203:373,7,60,8|0|0|0|0|0|0|0,0:0|0:0|0:0|0:0|0:0|0:0|0:0|0:0,0:0:0:0:
143,315,83928,6,0,P|231:332|335:336,1,180
402,322,84256,2,0,L|442:302,1,30,0|0,0:0|3:0,0:0:0:0:
200,81,84583,6,0,L|226:67,1,30,0|0,0:0|3:0,0:0:0:0:
308,53,84665,2,0,P|397:57|486:74,1,180
453,147,84992,1,0,0:0:0:0:
384,187,85074,1,0,0:0:0:0:
304,197,85156,1,0,0:0:0:0:
226,179,85238,6,0,P|117:157|17:203,1,225,6|0,0:0|0:0,0:0:0:0:
14,285,85567,1,8,0:0:0:0:
225,178,85730,1,0,0:0:0:0:
116,320,85894,2,0,L|88:249,2,75,2|0|2,0:0|0:0|0:0,0:0:0:0:
314,285,86222,2,0,P|386:285|466:318,1,150,8|0,0:0|0:0,0:0:0:0:
278,304,86550,6,0,P|381:349|492:342,1,225,2|0,0:0|0:0,0:0:0:0:
479,260,86879,1,8,0:0:0:0:
278,304,87042,1,0,0:0:0:0:
372,114,87206,2,0,L|344:183,2,75,2|0|2,0:0|0:0|0:0,0:0:0:0:
380,278,87533,1,8,0:0:0:0:
404,27,87697,1,0,0:0:0:0:
183,30,87861,6,0,B|59:84|59:84|141:119,1,225,2|0,0:0|0:0,0:0:0:0:
140,120,88189,2,0,L|174:291,1,150,8|0,0:0|0:0,0:0:0:0:
161,363,88517,1,2,0:0:0:0:
117,192,88681,1,2,0:0:0:0:
341,223,88845,1,8,0:0:0:0:
170,267,89009,1,10,0:0:0:0:
248,222,89337,5,2,0:0:0:0:
204,51,89501,1,8,0:0:0:0:
24,191,89665,1,8,0:0:0:0:
195,147,89829,2,0,L|350:115,1,150,2|0,0:0|0:0,0:0:0:0:
171,267,90156,2,0,L|256:248,1,75,8|0,0:0|0:0,0:0:0:0:
423,200,90320,1,8,0:0:0:0:
204,51,90484,6,0,P|318:33|432:79,1,225,6|0,0:0|0:0,0:0:0:0:
474,129,90812,2,0,P|396:95|361:35,1,150,8|0,0:0|0:0,0:0:0:0:
423,200,91140,2,0,L|406:289,1,75,2|0,0:0|0:0,0:0:0:0:
393,352,91304,1,2,0:0:0:0:
324,94,91468,2,0,P|251:100|194:147,1,150,10|2,0:0|0:0,0:0:0:0:
315,251,91796,5,2,0:0:0:0:
26,126,91960,1,0,0:0:0:0:
189,364,92124,1,8,0:0:0:0:
195,147,92288,1,2,0:0:0:0:
153,232,92452,1,8,0:0:0:0:
163,11,92615,1,10,0:0:0:0:
27,30,92779,2,0,L|189:59,1,150,0|10,0:0|0:0,0:0:0:0:
163,11,93271,5,2,0:0:0:0:
27,77,93435,2,0,L|189:106,1,150,8|2,0:0|0:0,0:0:0:0:
233,289,93763,1,2,0:0:0:0:
195,147,93927,1,2,0:0:0:0:
163,11,94091,1,10,0:0:0:0:
27,30,94255,2,0,L|189:59,1,150,2|0,0:0|0:0,0:0:0:0:
244,334,94583,2,0,L|406:363,2,150,10|0|2,0:0|0:0|0:0,0:0:0:0:
34,360,95074,6,0,L|109:297,1,75,10|0,0:0|0:0,0:0:0:0:
157,265,95238,1,2,0:0:0:0:
470,227,95402,2,0,L|494:302,1,75,8|0,0:0|0:0,0:0:0:0:
378,151,95566,2,0,L|355:79,1,75,2|0,0:0|0:0,0:0:0:0:
445,22,95730,6,0,P|364:163|303:191,1,225,6|0,0:0|0:0,0:0:0:0:
216,189,96058,1,8,0:0:0:0:
258,70,96222,1,2,0:0:0:0:
407,318,96386,1,2,0:0:0:0:
440,207,96550,1,2,0:0:0:0:
478,98,96714,2,0,P|403:92|363:27,1,150,8|0,0:0|0:0,0:0:0:0:
34,184,97042,6,0,P|174:265|241:259,1,225,2|0,0:0|0:0,0:0:0:0:
318,221,97370,1,8,0:0:0:0:
244,334,97533,1,2,0:0:0:0:
82,315,97697,1,0,0:0:0:0:
34,184,97861,1,2,0:0:0:0:
266,86,98025,5,8,0:0:0:0:
121,71,98189,1,0,0:0:0:0:
461,297,98353,5,6,0:0:0:0:
82,315,98681,1,8,0:0:0:0:
461,297,99009,5,0,0:0:0:0:
82,315,99173,1,8,0:0:0:0:
121,71,99501,6,0,L|420:66,1,300,6|0,0:0|0:0,0:0:0:0:
275,118,99992,1,8,0:0:0:0:
121,71,100320,5,0,0:0:0:0:
420,66,100484,1,8,0:0:0:0:
82,315,100812,6,0,L|389:310,1,300,6|0,0:0|0:0,0:0:0:0:
198,241,101304,2,0,L|48:243,1,150,8|0,0:0|0:0,0:0:0:0:
299,338,101632,2,0,L|449:336,1,150,2|0,0:0|0:0,0:0:0:0:
283,238,101960,1,10,0:0:0:0:
211,341,102124,1,0,0:0:0:0:
241,144,102288,5,2,0:0:0:0:
245,123,102452,1,0,0:0:0:0:
248,103,102615,1,8,0:0:0:0:
252,82,102779,1,2,0:0:0:0:
257,61,102943,1,0,0:0:0:0:
261,40,103107,1,2,0:0:0:0:
221,250,103271,5,8,0:0:0:0:
225,229,103353,1,0,0:0:0:0:
228,209,103435,1,0,0:0:0:0:
232,188,103517,1,0,0:0:0:0:
237,167,103599,1,6,0:1:0:0:
205,333,104091,5,0,0:0:0:0:
209,312,104255,1,0,0:0:0:0:
212,292,104418,1,0,0:0:0:0:
216,271,104582,1,0,0:0:0:0:
248,104,104911,2,0,L|175:123,3,75
309,158,105238,2,0,L|381:177,3,75,8|0|0|0,0:0|0:0|0:0|0:0,0:0:0:0:
324,240,105566,5,8,0:0:0:0:
328,261,105648,1,0,0:0:0:0:
331,281,105730,1,8,0:0:0:0:
335,302,105812,1,0,0:0:0:0:
339,323,105894,1,8,0:0:0:0:
378,308,105976,1,0,0:0:0:0:
417,293,106058,1,8,0:0:0:0:
455,275,106140,1,0,0:0:0:0:
497,254,106222,5,6,0:1:0:0:
318,220,106878,1,0,0:0:0:0:
215,316,107370,2,0,L|18:343,1,180
215,316,108189,1,0,0:0:0:0:
62,249,108845,5,0,0:0:0:0:
229,200,109501,1,0,0:0:0:0:
323,206,109992,2,0,L|126:233,1,180
323,206,110812,1,0,0:0:0:0:
229,200,111468,5,0,0:0:0:0:
454,99,112124,1,0,0:0:0:0:
408,176,112615,2,0,L|211:203,1,180
408,176,113435,1,0,0:0:0:0:
256,192,116058,12,0,116632,3:0:0:0:
102,204,116714,5,2,0:1:0:0:
108,222,117042,1,0,0:0:0:0:
115,241,117370,1,0,0:0:0:0:
122,260,117697,5,0,0:0:0:0:
227,261,117862,1,0,0:0:0:0:
233,278,118189,5,0,0:0:0:0:
128,277,118354,1,0,0:0:0:0:
136,295,118681,5,2,0:0:0:0:
142,313,119009,5,0,0:0:0:0:
240,297,119174,1,0,0:0:0:0:
405,173,119337,5,2,0:0:0:0:
398,191,119665,1,2,0:0:0:0:
391,210,119992,1,2,0:0:0:0:
384,229,120320,5,0,0:0:0:0:
279,224,120484,1,2,0:0:0:0:
175,216,120648,1,0,0:0:0:0:
274,239,120812,1,2,0:0:0:0:
378,248,120976,1,2,0:0:0:0:
372,267,121305,5,8,0:0:0:0:
367,285,121633,5,0,0:0:0:0:
263,274,121797,1,0,0:0:0:0:
204,117,121960,5,2,0:0:0:0:
184,114,122288,1,2,0:0:0:0:
164,111,122616,1,8,0:0:0:0:
144,109,122943,5,2,0:0:0:0:
61,174,123108,1,8,0:0:0:0:
124,107,123271,1,0,0:0:0:0:
104,104,123599,5,2,0:0:0:0:
84,101,123927,1,8,0:0:0:0:
68,99,124255,5,0,0:0:0:0:
188,54,124420,1,0,0:0:0:0:
276,196,124583,5,2,0:0:0:0:
296,193,124911,1,2,0:0:0:0:
316,190,125239,1,8,0:0:0:0:
332,188,125567,5,2,0:0:0:0:
365,288,125731,1,8,0:0:0:0:
350,184,125895,1,2,0:0:0:0:
344,80,126059,1,8,0:0:0:0:
366,183,126223,1,2,0:0:0:0:
382,181,126551,5,8,0:0:0:0:
398,180,126879,5,2,0:0:0:0:
197,198,127043,1,2,0:0:0:0:
23,270,127206,5,4,0:0:0:0:
29,288,127370,1,0,0:0:0:0:
36,307,127533,1,2,0:0:0:0:
43,326,127697,1,0,0:0:0:0:
138,316,127861,1,8,0:0:0:0:
145,335,128025,1,0,0:0:0:0:
154,357,128189,2,0,L|244:373,1,90.0000034332277,2|8,0:0|0:0,0:0:0:0:
285,252,128680,5,2,0:0:0:0:
291,270,128844,1,2,0:0:0:0:
298,289,129009,1,0,0:0:0:0:
392,271,129173,1,8,0:0:0:0:
398,289,129337,1,0,0:0:0:0:
322,354,129500,1,0,0:0:0:0:
330,374,129665,6,0,L|337:271,1,90.0000034332277,0|2,0:0|0:0,0:0:0:0:
329,261,130157,1,0,0:0:0:0:
322,238,130484,1,8,0:0:0:0:
314,215,130812,5,0,0:0:0:0:
232,210,130976,1,8,0:0:0:0:
307,190,131140,1,0,0:0:0:0:
225,187,131303,1,2,0:0:0:0:
300,167,131467,1,2,0:0:0:0:
292,144,131796,5,8,0:0:0:0:
285,121,132124,5,0,0:0:0:0:
203,116,132289,1,0,0:0:0:0:
429,125,132452,5,2,0:0:0:0:
423,143,132616,1,0,0:0:0:0:
416,162,132779,1,0,0:0:0:0:
409,181,132943,1,0,0:0:0:0:
314,171,133107,1,8,0:0:0:0:
307,190,133271,1,0,0:0:0:0:
298,212,133435,1,0,0:0:0:0:
346,85,133599,6,0,L|168:107,1,180.000006866455,8|0,0:0|0:0,0:0:0:0:
161,125,134090,1,2,0:0:0:0:
154,144,134255,1,0,0:0:0:0:
60,126,134419,1,8,0:0:0:0:
54,144,134583,1,0,0:0:0:0:
130,209,134746,1,0,0:0:0:0:
122,229,134911,1,0,0:0:0:0:
200,301,135074,5,2,0:0:0:0:
206,283,135402,1,0,0:0:0:0:
213,264,135730,1,8,0:0:0:0:
220,245,136058,5,2,0:0:0:0:
228,225,136222,1,8,0:0:0:0:
235,206,136386,1,2,0:0:0:0:
242,187,136549,1,8,0:0:0:0:
248,169,136713,1,2,0:0:0:0:
256,150,137042,5,8,0:0:0:0:
263,131,137370,5,2,0:0:0:0:
270,112,137533,1,2,0:0:0:0:
296,303,137697,5,4,0:0:0:0:
411,232,137862,1,0,0:0:0:0:
383,236,137943,1,0,0:0:0:0:
354,240,138025,1,0,0:0:0:0:
495,220,138189,1,0,0:0:0:0:
496,352,138353,2,0,L|360:315,1,120,8|0,0:0|0:0,0:0:0:0:
275,224,138680,1,2,0:0:0:0:
153,299,138845,6,0,L|34:316,2,120,2|0|0,0:0|0:0|0:0,0:0:0:0:
60,92,139336,1,2,0:0:0:0:
33,190,139501,1,0,0:0:0:0:
61,194,139582,1,0,0:0:0:0:
90,198,139664,1,8,0:0:0:0:
249,313,139829,1,0,0:0:0:0:
294,178,139992,1,0,0:0:0:0:
334,34,140156,1,0,0:0:0:0:
348,258,140320,6,0,B|463:237|463:237|379:130,1,240,2|0,0:0|0:0,0:0:0:0:
499,41,140812,1,0,0:0:0:0:
471,45,140893,1,0,0:0:0:0:
442,49,140975,1,8,0:0:0:0:
273,243,141303,5,0,0:0:0:0:
413,136,141468,1,0,0:0:0:0:
385,140,141549,1,0,0:0:0:0:
356,144,141631,1,0,0:0:0:0:
260,64,141795,1,2,0:0:0:0:
50,78,141960,2,0,L|185:109,1,120,2|0,0:0|0:0,0:0:0:0:
186,128,142207,1,0,0:0:0:0:
205,149,142287,1,8,0:0:0:0:
36,304,142453,1,4,0:0:0:0:
264,356,142615,2,0,L|129:325,1,120
312,278,142862,1,0,0:0:0:0:
280,286,142943,6,0,L|145:255,1,120,4|0,0:1|0:0,0:0:0:0:
243,42,143271,1,0,0:0:0:0:
261,64,143353,1,0,0:0:0:0:
280,85,143435,1,0,0:0:0:0:
50,78,143599,2,0,L|185:47,1,120,8|0,0:0|0:0,0:0:0:0:
280,85,143845,1,0,0:0:0:0:
297,109,143927,1,0,0:0:0:0:
316,130,144009,1,0,0:0:0:0:
334,152,144091,6,0,L|469:121,2,120,4|0|0,0:1|0:0|0:0,0:0:0:0:
264,356,144582,1,2,0:0:0:0:
78,351,144747,1,0,0:0:0:0:
85,314,144828,1,0,0:0:0:0:
92,278,144910,1,8,0:0:0:0:
98,241,144992,1,0,0:0:0:0:
105,204,145074,1,0,0:0:0:0:
170,356,145238,1,0,0:0:0:0:
356,354,145402,1,0,0:0:0:0:
192,251,145566,5,4,0:1:0:0:
199,214,145647,1,0,0:0:0:0:
206,178,145729,1,0,0:0:0:0:
212,141,145811,1,0,0:0:0:0:
219,104,145893,1,0,0:0:0:0:
189,76,145976,1,0,0:0:0:0:
158,54,146058,1,0,0:0:0:0:
126,34,146140,1,0,0:0:0:0:
163,30,146222,5,8,0:0:0:0:
201,27,146303,1,0,0:0:0:0:
237,24,146385,1,0,0:0:0:0:
275,21,146467,1,0,0:0:0:0:
312,18,146549,1,0,0:0:0:0:
350,14,146632,1,0,0:0:0:0:
389,11,146715,2,0,L|433:7,15,30,2|0|0|0|0|0|0|0|0|0|0|0|0|0|0|0,0:0|0:0|0:0|0:0|0:0|0:0|0:0|0:0|0:0|0:0|0:0|0:0|0:0|0:0|0:0|0:0,0:0:0:0:
374,83,147371,5,0,0:0:0:0:
394,173,147534,2,0,L|364:170,1,30
414,265,147697,2,0,L|384:262,1,30
230,299,147861,2,0,L|259:301,1,30
63,332,148025,2,0,L|33:329,1,30
137,177,148189,6,0,B|89:121|89:121|137:283,1,240,2|8,0:0|0:0,0:0:0:0:
235,155,148681,1,0,0:0:0:0:
40,254,148845,1,0,0:0:0:0:
52,32,149009,1,0,0:0:0:0:
206,247,149173,2,0,L|368:261,1,150,8|0,0:0|0:0,0:0:0:0:
459,137,149501,6,0,L|235:155,1,225,2|0,0:0|0:0,0:0:0:0:
137,177,149829,1,8,0:0:0:0:
366,65,149992,1,2,0:0:0:0:
418,344,150156,2,0,L|389:184,1,150
260,250,150484,1,8,0:0:0:0:
49,362,150647,1,0,0:0:0:0:
366,65,150812,6,0,B|410:63|410:63|331:134,1,150,2|0,0:0|0:0,0:0:0:0:
138,218,151140,2,0,B|101:194|101:194|208:185,1,150,8|0,0:0|0:0,0:0:0:0:
414,235,151468,2,0,B|429:275|429:275|338:221,1,150,2|2,0:0|0:0,0:0:0:0:
200,59,151796,2,0,B|211:17|211:17|254:115,1,150,8|0,0:0|0:0,0:0:0:0:
270,327,152124,2,0,B|236:354|236:354|260:250,2,150,2|8|0,0:0|0:0|0:0,0:0:0:0:
123,258,152615,2,0,B|374:238|374:238|338:270,1,300,10|2,0:0|0:0,0:0:0:0:
208,382,153107,2,0,L|192:301,1,75,8|0,0:0|0:0,0:0:0:0:
156,153,153271,1,10,0:0:0:0:
425,161,153435,6,0,L|199:143,1,225,2|0,0:0|0:0,0:0:0:0:
126,135,153763,1,8,0:0:0:0:
90,375,153927,2,0,L|113:202,2,150
126,135,154419,1,8,0:0:0:0:
177,366,154583,1,0,0:0:0:0:
2,248,154747,6,0,L|228:220,1,225,2|0,0:0|0:0,0:0:0:0:
303,209,155074,1,8,0:0:0:0:
456,242,155238,2,0,B|433:74|433:74|380:194,1,300,2|0,0:0|0:0,0:0:0:0:
127,135,155730,2,0,B|204:149|204:149|240:86,1,150,8|0,0:0|0:0,0:0:0:0:
42,108,156058,5,2,0:0:0:0:
176,90,156222,1,0,0:0:0:0:
309,61,156386,1,8,0:0:0:0:
444,42,156550,2,0,B|381:127|381:127|330:146,1,150,2|2,0:0|0:0,0:0:0:0:
456,242,156878,1,2,0:0:0:0:
279,316,157042,2,0,B|258:282|258:282|264:172,1,150,8|0,0:0|0:0,0:0:0:0:
42,109,157370,6,0,B|132:66|132:66|179:91,1,150,10|0,0:0|0:0,0:0:0:0:
444,42,157697,2,0,B|354:85|354:85|307:60,1,150,8|2,0:0|0:0,0:0:0:0:
265,172,158025,1,8,0:0:0:0:
269,221,158107,1,0,0:0:0:0:
275,269,158189,1,0,0:0:0:0:
279,316,158271,1,0,0:0:0:0:
285,364,158353,2,0,L|361:373,3,75,2|0|0|0,0:0|0:0|0:0|0:0,0:0:0:0:
200,353,158682,5,2,0:0:0:0:
106,368,158846,1,0,0:0:0:0:
13,349,159010,1,0,0:0:0:0:
107,335,159173,2,0,L|89:285,2,45.0000017166138
200,353,159501,1,0,0:0:0:0:
370,338,159665,1,0,0:0:0:0:
200,353,159992,5,0,0:0:0:0:
107,335,160156,1,0,0:0:0:0:
13,349,160320,1,2,0:3:0:0:
106,368,160484,1,2,0:3:0:0:
200,353,160812,5,2,0:3:0:0:
370,338,160976,1,2,0:3:0:0:
215,213,161304,5,0,0:0:0:0:
309,199,161468,1,0,0:0:0:0:
400,223,161632,1,0,0:0:0:0:
494,209,161796,2,0,L|476:159,2,45.0000017166138
400,223,162124,1,0,0:0:0:0:
215,213,162288,1,0,0:0:0:0:
215,213,162615,5,0,0:0:0:0:
309,199,162779,1,0,0:0:0:0:
400,223,162943,1,2,0:3:0:0:
494,209,163107,1,2,0:3:0:0:
400,223,163435,5,2,0:3:0:0:
215,213,163599,2,0,P|163:183|120:140,1,120,2|0,0:3|0:0,0:0:0:0:
62,30,163927,5,6,0:1:0:0:
88,222,164091,1,0,0:0:0:0:
245,334,164255,1,0,0:0:0:0:
166,15,164419,5,4,0:1:0:0:
121,203,164583,1,0,0:0:0:0:
227,364,164747,1,0,0:0:0:0:
266,24,164911,5,4,0:1:0:0:
156,183,165075,1,0,0:0:0:0:
197,371,165239,1,0,0:0:0:0:
352,56,165402,5,0,0:0:0:0:
192,165,165566,1,0,0:0:0:0:
163,355,165730,1,0,0:0:0:0:
421,128,165894,5,0,0:0:0:0:
152,321,166058,2,0,L|229:324,1,60,0|0,0:1|0:0,0:0:0:0:
406,331,166222,1,0,0:0:0:0:
72,360,166385,1,0,0:0:0:0:
265,303,166550,5,6,0:1:0:0:
200,120,166714,1,0,0:0:0:0:
24,42,166878,1,0,0:0:0:0:
360,248,167042,5,4,0:1:0:0:
233,100,167206,1,0,0:0:0:0:
41,90,167370,1,0,0:0:0:0:
442,175,167533,5,4,0:1:0:0:
270,82,167697,1,0,0:0:0:0:
87,141,167861,1,0,0:0:0:0:
502,87,168025,5,0,0:0:0:0:
308,61,168189,1,0,0:0:0:0:
158,182,168353,1,0,0:0:0:0:
150,375,168517,1,0,0:0:0:0:
481,312,168681,1,0,0:0:0:0:
400,136,168845,1,0,0:0:0:0:
395,168,169173,5,6,0:1:0:0:
235,33,169337,5,0,0:0:0:0:
197,239,169501,1,8,0:0:0:0:
205,45,169665,1,2,0:0:0:0:
223,259,169829,2,0,L|214:382,1,120,2|2,0:0|0:0,0:0:0:0:
274,147,170156,1,10,0:0:0:0:
256,356,170320,1,0,0:0:0:0:
84,237,170484,5,2,0:0:0:0:
395,168,170648,5,0,0:0:0:0:
169,216,170812,1,8,0:0:0:0:
396,248,170976,1,2,0:0:0:0:
197,143,171140,1,2,0:0:0:0:
107,347,171304,1,2,0:0:0:0:
62,92,171468,1,8,0:0:0:0:
264,85,171632,5,8,0:0:0:0:
224,71,171714,1,0,0:0:0:0:
184,57,171796,1,2,0:0:0:0:
140,40,172124,5,8,0:0:0:0:
354,116,172288,2,0,L|431:90,1,60,10|0,0:0|0:0,0:0:0:0:
491,66,172452,1,0,0:0:0:0:
468,210,172615,1,2,0:0:0:0:
396,23,172779,1,8,0:0:0:0:
462,243,172943,1,2,0:0:0:0:
302,237,173107,5,0,0:0:0:0:
352,215,173189,1,0,0:0:0:0:
403,195,173271,1,2,0:0:0:0:
246,368,173435,1,8,0:0:0:0:
166,149,173599,1,2,0:0:0:0:
352,215,173763,2,0,L|328:155,1,60,10|0,0:0|0:0,0:0:0:0:
442,358,173927,1,10,0:0:0:0:
485,114,174091,1,2,0:0:0:0:
232,238,174255,6,0,B|199:253|199:253|56:239,1,180,10|0,0:0|0:0,0:0:0:0:
34,157,174583,1,2,0:0:0:0:
255,323,174747,1,0,0:0:0:0:
56,238,174911,1,2,0:0:0:0:
347,107,175074,1,2,0:0:0:0:
94,97,175237,1,2,0:0:0:0:
370,194,175402,1,10,0:0:0:0:
116,180,175566,1,0,0:0:0:0:
40,360,175730,6,0,L|79:314,1,60,10|0,0:0|0:0,0:0:0:0:
174,302,175894,1,0,0:0:0:0:
303,248,176058,2,0,L|254:305,1,60,8|0,0:0|0:0,0:0:0:0:
284,168,176222,1,2,0:0:0:0:
431,132,176386,6,0,L|460:139,1,30,10|0,0:0|0:0,0:0:0:0:
264,88,176550,2,0,L|222:77,1,30,8|0,0:0|0:0,0:0:0:0:
452,213,176714,2,0,L|480:221,1,30,8|0,0:0|0:0,0:0:0:0:
56,240,176878,2,0,L|17:226,1,30,14|0,0:0|0:0,0:0:0:0:
43,271,177206,5,2,0:0:0:0:
30,300,177370,1,8,0:0:0:0:
18,328,177533,1,2,0:0:0:0:
142,318,177697,1,2,0:0:0:0:
137,368,177861,1,2,0:0:0:0:
247,279,178025,1,10,0:0:0:0:
293,370,178189,1,2,0:0:0:0:
323,372,178517,5,2,0:0:0:0:
329,171,178681,2,0,L|295:165,1,30,8|0,0:0|0:0,0:0:0:0:
419,194,178845,1,2,0:0:0:0:
481,121,179009,2,0,L|511:127,1,30,10|0,0:0|0:0,0:0:0:0:
388,102,179173,1,10,0:0:0:0:
448,277,179337,2,0,L|467:334,1,60,10|0,0:0|0:0,0:0:0:0:
323,372,179501,2,0,L|337:313,1,60,10|0,0:0|0:0,0:0:0:0:
161,121,179665,6,0,P|106:217|117:306,1,180,6|0,0:0|0:0,0:0:0:0:
149,358,179992,1,8,0:0:0:0:
409,374,180156,1,2,0:0:0:0:
212,284,180320,2,0,P|157:188|168:99,1,180,2|0,0:0|0:0,0:0:0:0:
195,34,180648,2,0,L|316:42,1,120,8|0,0:0|0:0,0:0:0:0:
84,28,180976,5,2,0:0:0:0:
93,331,181140,2,0,L|211:320,1,120,0|8,0:0|0:0,0:0:0:0:
340,313,181468,1,2,0:0:0:0:
476,35,181633,2,0,B|396:37|396:37|361:58,1,120,0|2,0:0|0:0,0:0:0:0:
226,336,181960,2,0,B|305:333|305:333|340:312,1,120,10|0,0:0|0:0,0:0:0:0:
447,337,182289,6,0,L|406:329,1,30,6|0,0:0|0:0,0:0:0:0:
120,308,182453,2,0,L|161:316,1,30
364,214,182616,1,10,0:0:0:0:
242,260,182779,1,10,0:0:0:0:
489,250,182944,5,10,0:0:0:0:
125,147,183108,1,10,0:0:0:0:
36,119,183436,6,0,L|237:87,1,180,6|0,0:0|0:0,0:0:0:0:
207,176,183764,1,2,0:0:0:0:
373,177,183928,1,8,0:0:0:0:
461,38,184092,1,2,0:0:0:0:
489,250,184256,6,0,P|473:228|443:205,1,60,8|0,0:0|0:0,0:0:0:0:
265,165,184420,2,0,P|235:166|206:175,1,60,10|0,0:0|0:0,0:0:0:0:
74,284,184584,1,8,0:0:0:0:
373,177,184748,6,0,P|337:248|238:274,1,180,6|0,0:0|0:0,0:0:0:0:
172,232,185075,1,0,0:0:0:0:
72,368,185239,1,8,0:0:0:0:
307,345,185403,1,0,0:0:0:0:
119,210,185567,2,0,L|141:327,1,120,2|2,0:0|0:0,0:0:0:0:
85,48,185895,1,10,0:0:0:0:
73,284,186059,1,2,0:0:0:0:
373,177,186223,6,0,P|421:219|431:284,1,120,10|0,0:0|0:0,0:0:0:0:
263,195,186469,1,0,0:0:0:0:
263,195,186551,2,0,P|326:190|379:229,1,120,8|2,0:0|0:0,0:0:0:0:
198,281,186796,2,0,L|179:344,1,60,0|8,0:0|0:0,0:0:0:0:
480,235,187042,1,2,0:0:0:0:
396,80,187206,1,10,0:0:0:0:
384,128,187288,1,0,0:0:0:0:
373,177,187370,2,0,L|355:244,1,60,10|0,0:0|0:0,0:0:0:0:
340,363,187533,5,2,0:0:0:0:
325,278,187697,1,0,0:0:0:0:
295,68,187861,1,8,0:0:0:0:
272,167,188025,6,0,P|317:170|357:147,1,90,2|0,0:0|0:0,0:0:0:0:
263,195,188353,6,0,L|199:188,1,60
136,240,188517,2,0,L|72:233,1,60,0|0,0:0|0:0,0:0:0:0:
10,287,188681,1,0,0:0:0:0:
412,315,188845,5,2,0:0:0:0:
473,70,189009,1,2,0:0:0:0:
88,60,189173,1,2,0:0:0:0:
379,101,189337,1,2,0:0:0:0:
185,322,189501,6,0,P|147:241|147:152,1,180,0|0,0:0|3:0,0:0:0:0:
206,90,189829,2,0,P|294:76|379:101,1,180,0|0,0:0|3:0,0:0:0:0:
435,192,190156,6,0,P|320:210|216:161,1,225,6|0,0:0|0:0,0:0:0:0:
124,116,190484,1,8,0:0:0:0:
379,102,190648,1,0,0:0:0:0:
45,141,190812,1,0,0:0:0:0:
306,132,190976,1,2,0:0:0:0:
444,282,191140,2,0,P|360:257|314:200,1,150,10|2,0:0|0:0,0:0:0:0:
125,116,191468,6,0,P|72:214|109:323,1,225,2|0,0:0|0:0,0:0:0:0:
170,366,191796,1,8,0:0:0:0:
229,122,191960,2,0,L|231:160,1,37.5,0|0,0:0|2:0,0:0:0:0:
375,315,192124,1,2,0:0:0:0:
200,242,192288,2,0,L|200:279,1,37.5,2|0,0:0|2:0,0:0:0:0:
384,243,192452,2,0,P|434:188|525:154,1,150,8|0,0:0|0:0,0:0:0:0:
104,317,192779,6,0,P|72:212|125:116,1,225,2|0,0:0|0:0,0:0:0:0:
187,52,193107,1,8,0:0:0:0:
373,218,193271,1,0,0:0:0:0:
321,60,193435,1,2,0:0:0:0:
271,318,193599,1,2,0:0:0:0:
308,28,193763,1,8,0:0:0:0:
362,193,193927,1,10,0:0:0:0:
402,351,194255,5,2,0:0:0:0:
373,218,194419,1,8,0:0:0:0:
416,379,194583,1,0,0:0:0:0:
175,70,194747,5,8,0:0:0:0:
356,126,194910,1,2,0:0:0:0:
185,234,195074,2,0,L|262:258,1,75,8|0,0:0|0:0,0:0:0:0:
366,290,195237,1,2,0:0:0:0:
56,350,195402,6,0,B|95:307|95:307|263:275,1,225,6|0,0:0|0:0,0:0:0:0:
366,290,195730,1,8,0:0:0:0:
234,172,195894,2,0,B|250:60|250:60|231:17,1,150,0|2,0:0|0:0,0:0:0:0:
330,199,196222,1,2,0:0:0:0:
491,380,196386,2,0,B|470:349|470:349|454:237,1,150,8|0,0:0|0:0,0:0:0:0:
335,375,196714,5,2,0:0:0:0:
476,154,196878,1,0,0:0:0:0:
150,199,197042,1,8,0:0:0:0:
388,125,197206,1,0,0:0:0:0:
58,173,197370,1,8,0:0:0:0:
480,240,197533,1,10,0:0:0:0:
160,288,197697,2,0,B|132:282|132:282|239:227,1,150,0|10,0:0|0:0,0:0:0:0:
237,254,198189,5,2,0:0:0:0:
234,279,198353,2,0,L|213:127,1,150,8|2,0:0|0:0,0:0:0:0:
327,147,198681,1,0,0:0:0:0:
323,171,198845,1,2,0:0:0:0:
320,193,199009,2,0,L|299:41,1,150,8|2,0:0|0:0,0:0:0:0:
292,67,199501,5,2,0:0:0:0:
205,32,199665,2,0,L|44:65,1,150,8|2,0:0|0:0,0:0:0:0:
193,142,199992,1,10,0:0:0:0:
37,95,200156,1,2,0:0:0:0:
22,277,200320,2,0,L|37:198,1,75,8|0,0:0|0:0,0:0:0:0:
194,293,200484,2,0,L|210:366,1,75
413,277,200648,6,0,P|305:304|193:293,1,225,6|0,0:0|0:0,0:0:0:0:
102,260,200976,1,8,0:0:0:0:
124,58,201140,1,0,0:0:0:0:
269,252,201304,2,0,P|338:281|412:276,1,150,2|2,0:0|0:0,0:0:0:0:
267,34,201632,2,0,P|192:29|124:58,1,150,10|0,0:0|0:0,0:0:0:0:
64,371,201960,2,0,L|366:336,1,300,2|8,0:0|0:0,0:0:0:0:
487,316,202452,2,0,L|334:317,1,150,2|0,0:0|0:0,0:0:0:0:
474,367,202779,1,2,0:0:0:0:
407,79,202943,5,8,0:0:0:0:
230,340,203107,1,0,0:0:0:0:
40,159,203271,5,6,0:0:0:0:
481,122,203599,1,8,0:0:0:0:
40,159,203927,5,0,0:0:0:0:
481,122,204091,1,8,0:0:0:0:
419,366,204419,6,0,B|432:326|409:299|409:299|331:285|271:358|271:358|262:318|214:289,1,300,6|2,0:0|0:0,0:0:0:0:
101,349,204910,1,8,0:0:0:0:
419,366,205238,5,0,0:0:0:0:
101,349,205402,1,8,0:0:0:0:
101,349,205730,6,0,B|50:347|50:347|135:286|236:306|236:306|185:333,1,300,6|0,0:0|0:0,0:0:0:0:
212,209,206222,2,0,B|161:189|108:189|108:189|66:208,1,150,8|0,0:0|0:0,0:0:0:0:
329,333,206550,2,0,B|380:353|433:353|433:353|475:334,1,150,2|2,0:0|0:0,0:0:0:0:
277,31,206878,1,8,0:0:0:0:
212,209,207042,1,2,0:0:0:0:
480,99,207206,5,2,0:0:0:0:
483,119,207370,1,0,0:0:0:0:
487,140,207533,1,8,0:0:0:0:
491,162,207697,1,2,0:0:0:0:
494,182,207861,1,2,0:0:0:0:
498,203,208024,1,2,0:0:0:0:
382,367,208189,6,0,L|371:293,1,75,10|0,0:0|0:0,0:0:0:0:
353,175,208353,2,0,L|340:102,1,75,8|0,0:0|0:0,0:0:0:0:
81,345,208517,1,2,0:0:0:0:
85,319,209009,5,0,0:0:0:0:
89,297,209173,1,0,0:0:0:0:
92,277,209337,1,0,0:0:0:0:
96,256,209500,1,0,0:0:0:0:
102,233,209829,6,0,L|99:158,3,75
181,158,210156,2,0,L|178:83,3,75,8|0|0|0,0:0|0:0|0:0|0:0,0:0:0:0:
189,183,210484,1,8,0:0:0:0:
205,198,210566,1,0,0:0:0:0:
225,206,210647,1,8,0:0:0:0:
247,203,210729,1,0,0:0:0:0:
272,182,210811,1,8,0:0:0:0:
310,146,210893,1,0,0:0:0:0:
363,144,210975,1,8,0:0:0:0:
401,181,211057,1,0,0:0:0:0:
404,234,211140,5,6,0:1:0:0:
371,307,211304,1,0,0:0:0:0:
299,340,211467,1,2,0:0:0:0:
219,332,211631,1,0,0:0:0:0:
164,274,211796,1,8,0:0:0:0:
82,317,211960,2,0,L|21:321,1,60
253,301,212288,6,0,B|333:295|333:295|377:308,1,120,8|0,0:0|0:0,0:0:0:0:
493,275,212779,1,2,0:0:0:0:
388,287,212943,1,0,0:0:0:0:
299,340,213107,1,8,0:0:0:0:
196,353,213271,1,0,0:0:0:0:
47,247,213435,1,0,0:0:0:0:
164,274,213599,1,0,0:0:0:0:
88,104,213764,5,2,0:0:0:0:
92,112,214091,1,0,0:0:0:0:
96,120,214419,1,8,0:0:0:0:
100,128,214747,5,0,0:0:0:0:
223,152,214911,2,0,L|284:160,1,60,8|0,0:0|0:0,0:0:0:0:
426,126,215238,1,2,0:0:0:0:
288,172,215402,1,2,0:0:0:0:
431,138,215730,5,8,0:0:0:0:
292,184,216058,5,0,0:0:0:0:
435,150,216222,1,0,0:0:0:0:
468,227,216385,5,2,0:0:0:0:
288,172,216549,1,0,0:0:0:0:
280,84,216714,1,0,0:0:0:0:
222,236,216877,1,0,0:0:0:0:
68,93,217042,1,8,0:0:0:0:
219,147,217206,2,0,L|152:157,1,60
406,153,217533,6,0,L|288:172,1,120
222,235,218024,1,2,0:0:0:0:
219,148,218189,1,0,0:0:0:0:
70,170,218352,1,8,0:0:0:0:
100,249,218517,1,0,0:0:0:0:
246,256,218680,1,0,0:0:0:0:
258,45,218844,1,0,0:0:0:0:
156,196,219008,5,2,0:0:0:0:
158,204,219336,1,0,0:0:0:0:
160,214,219665,1,8,0:0:0:0:
162,226,219991,5,2,0:0:0:0:
86,281,220155,1,8,0:0:0:0:
6,75,220320,2,0,L|30:141,2,60,2|8|2,0:0|0:0|0:0,0:0:0:0:
8,67,220977,5,8,0:0:0:0:
11,59,221304,5,2,0:0:0:0:
85,29,221468,1,2,0:0:0:0:
130,213,221632,5,4,0:0:0:0:
216,234,221796,2,0,B|249:238|249:238|314:229,1,90.0000034332277
411,212,222123,1,0,0:0:0:0:
403,227,222207,1,0,0:0:0:0:
396,243,222288,1,8,0:0:0:0:
494,259,222451,1,0,0:0:0:0:
447,129,222614,1,0,0:0:0:0:
217,235,222779,6,0,L|406:244,1,180.000006866455
443,368,223271,1,2,0:0:0:0:
411,212,223434,1,0,0:0:0:0:
403,227,223516,1,0,0:0:0:0:
396,243,223599,1,8,0:0:0:0:
447,129,223762,1,0,0:0:0:0:
258,43,223927,1,0,0:0:0:0:
356,139,224091,1,0,0:0:0:0:
439,35,224255,6,0,L|250:44,1,180.000006866455,2|0,0:0|0:0,0:0:0:0:
158,139,224747,1,0,0:0:0:0:
165,123,224829,1,0,0:0:0:0:
173,108,224911,1,8,0:0:0:0:
181,90,225238,5,0,0:0:0:0:
85,61,225402,1,8,0:0:0:0:
4,158,225566,1,0,0:0:0:0:
177,248,225730,1,2,0:0:0:0:
184,232,225812,1,0,0:0:0:0:
192,217,225894,1,2,0:0:0:0:
198,362,226057,1,0,0:0:0:0:
205,346,226140,1,0,0:0:0:0:
213,331,226222,1,8,0:0:0:0:
177,248,226385,5,0,0:0:0:0:
81,219,226549,1,0,0:0:0:0:
0,316,226713,1,0,0:0:0:0:
198,362,226877,5,4,0:1:0:0:
258,257,227041,1,0,0:0:0:0:
358,222,227205,1,0,0:0:0:0:
478,263,227369,1,0,0:0:0:0:
463,257,227452,1,0,0:0:0:0:
448,252,227534,1,8,0:0:0:0:
428,154,227696,1,0,0:0:0:0:
495,340,227861,1,0,0:0:0:0:
358,222,228025,6,0,L|230:169,1,135.000005149841,4|0,0:1|0:0,0:0:0:0:
229,97,228353,2,0,L|95:76,1,135.000005149841
66,9,228681,1,0,0:0:0:0:
90,148,228845,2,0,L|50:168,1,45.0000017166138,8|0,0:0|0:0,0:0:0:0:
34,316,229009,2,0,L|74:296,1,45.0000017166138
182,228,229173,6,0,L|137:220,1,45.0000017166138,0|0,0:0|0:0,0:0:0:0:
137,354,229337,2,0,L|188:364,1,45.0000017166138,0|0,0:0|0:0,0:0:0:0:
268,326,229501,5,4,0:1:0:0:
297,296,229582,1,0,0:0:0:0:
337,286,229664,1,0,0:0:0:0:
375,304,229746,1,0,0:0:0:0:
401,336,229828,1,0,0:0:0:0:
439,346,229910,1,0,0:0:0:0:
479,333,229992,1,0,0:0:0:0:
497,295,230074,1,0,0:0:0:0:
508,254,230156,5,8,0:0:0:0:
501,212,230237,1,0,0:0:0:0:
483,173,230319,1,0,0:0:0:0:
452,144,230401,1,0,0:0:0:0:
411,133,230483,1,0,0:0:0:0:
371,145,230565,1,0,0:0:0:0:
334,167,230648,2,0,L|303:164,15,30,4|0|0|0|0|0|0|0|0|0|0|0|0|0|0|0,0:1|0:0|0:0|0:0|0:0|0:0|0:0|0:0|0:0|0:0|0:0|0:0|0:0|0:0|0:0|0:0,0:0:0:0:
238,114,231304,5,0,0:0:0:0:
340,317,231468,2,0,L|298:309,1,30
139,314,231633,2,0,L|181:306,1,30
410,250,231797,2,0,L|368:242,1,30
76,246,231961,2,0,L|118:238,1,30
282,334,232124,6,0,L|238:113,1,225,2|0,0:0|0:0,0:0:0:0:
246,29,232452,1,8,0:0:0:0:
222,229,232615,2,0,L|206:379,1,150,0|2,0:0|0:0,0:0:0:0:
238,114,232943,1,2,0:0:0:0:
282,334,233107,1,8,0:0:0:0:
266,121,233271,1,0,0:0:0:0:
54,50,233435,6,0,B|231:30|231:30|277:38,1,225,2|0,0:0|0:0,0:0:0:0:
367,34,233763,1,8,0:0:0:0:
304,233,233927,1,2,0:0:0:0:
10,131,234091,2,0,L|172:112,1,150
304,233,234419,1,10,0:0:0:0:
367,34,234582,1,0,0:0:0:0:
472,18,234747,6,0,B|494:64|494:64|483:188,1,150,2|0,0:0|0:0,0:0:0:0:
317,378,235074,2,0,B|295:332|295:332|306:208,1,150,8|0,0:0|0:0,0:0:0:0:
84,30,235402,2,0,L|98:181,1,150,2|2,0:0|0:0,0:0:0:0:
499,312,235730,2,0,L|485:161,1,150,8|0,0:0|0:0,0:0:0:0:
34,313,236058,2,0,B|84:357|84:357|317:378,1,300,2|8,0:0|0:0,0:0:0:0:
499,312,236550,2,0,B|351:293|351:293|447:169,1,300,2|2,0:0|0:0,0:0:0:0:
132,254,237042,2,0,L|194:180,1,75,8|0,0:0|0:0,0:0:0:0:
285,49,237206,1,10,0:0:0:0:
443,175,237370,6,0,L|215:231,1,225,6|0,0:0|0:0,0:0:0:0:
132,254,237697,1,8,0:0:0:0:
379,93,237861,1,0,0:0:0:0:
351,286,238025,2,0,L|200:324,1,150,2|2,0:0|0:0,0:0:0:0:
36,276,238353,1,8,0:0:0:0:
290,117,238517,1,0,0:0:0:0:
468,288,238681,6,0,B|258:233|258:233|343:181,1,300,2|8,0:0|0:0,0:0:0:0:
4,109,239173,2,0,B|237:80|237:80|290:117,1,300,2|2,0:0|0:0,0:0:0:0:
343,371,239665,2,0,L|468:288,1,150,8|0,0:0|0:0,0:0:0:0:
320,297,239992,5,2,0:0:0:0:
43,350,240156,1,8,0:0:0:0:
343,371,240320,1,0,0:0:0:0:
171,283,240484,2,0,P|123:228|36:202,1,150,8|2,0:0|0:0,0:0:0:0:
43,350,240812,1,2,0:0:0:0:
321,297,240976,2,0,P|314:224|261:155,1,150,8|0,0:0|0:0,0:0:0:0:
40,218,241304,6,0,P|98:265|171:283,1,150,10|0,0:0|0:0,0:0:0:0:
460,252,241632,2,0,P|394:287|320:297,1,150,8|2,0:0|0:0,0:0:0:0:
178,103,241960,1,8,0:0:0:0:
210,57,242041,1,0,0:0:0:0:
259,31,242123,1,0,0:0:0:0:
315,29,242205,1,0,0:0:0:0:
365,53,242288,2,0,P|393:77|414:108,3,75,0|0|2|0,0:0|0:0|0:0|0:0,0:0:0:0:
421,157,242616,5,2,0:0:0:0:
338,166,242780,1,0,0:0:0:0:
302,241,242944,1,0,0:0:0:0:
351,309,243107,2,0,L|386:357,2,45.0000017166138
302,241,243435,1,0,0:0:0:0:
421,157,243599,1,0,0:0:0:0:
421,157,243927,5,0,0:0:0:0:
384,232,244091,1,0,0:0:0:0:
302,241,244255,1,2,0:3:0:0:
252,173,244419,1,2,0:3:0:0:
302,241,244747,5,2,0:3:0:0:
421,157,244911,1,2,0:3:0:0:
142,90,245239,5,0,0:0:0:0:
173,166,245402,1,0,0:0:0:0:
121,227,245566,1,0,0:0:0:0:
109,309,245730,2,0,L|105:353,2,45.0000017166138
121,227,246058,1,0,0:0:0:0:
142,90,246222,1,0,0:0:0:0:
142,90,246550,5,0,0:0:0:0:
95,151,246714,1,0,0:0:0:0:
121,227,246878,1,2,0:3:0:0:
197,241,247042,1,2,0:3:0:0:
95,151,247370,5,2,0:3:0:0:
312,257,247533,2,0,P|372:250|424:222,1,120,2|0,0:3|0:0,0:0:0:0:
450,30,247861,5,6,0:0:0:0:
424,222,248025,1,0,0:0:0:0:
267,334,248189,1,0,0:0:0:0:
346,15,248353,5,4,0:0:0:0:
391,203,248517,1,0,0:0:0:0:
285,364,248681,1,0,0:0:0:0:
246,24,248845,5,4,0:0:0:0:
356,183,249009,1,0,0:0:0:0:
315,371,249173,1,0,0:0:0:0:
160,56,249336,5,0,0:0:0:0:
320,165,249500,1,0,0:0:0:0:
349,355,249664,1,0,0:0:0:0:
91,128,249828,5,0,0:0:0:0:
360,321,249992,2,0,L|283:324,1,60
106,331,250156,1,0,0:0:0:0:
440,360,250319,1,0,0:0:0:0:
247,303,250484,5,6,0:0:0:0:
312,120,250648,1,0,0:0:0:0:
488,42,250812,1,0,0:0:0:0:
152,248,250976,5,4,0:0:0:0:
279,100,251140,1,0,0:0:0:0:
471,90,251304,1,0,0:0:0:0:
70,175,251467,5,4,0:0:0:0:
242,82,251631,1,0,0:0:0:0:
425,141,251795,1,0,0:0:0:0:
10,87,251959,5,0,0:0:0:0:
204,61,252123,1,0,0:0:0:0:
354,182,252287,1,0,0:0:0:0:
362,375,252451,1,0,0:0:0:0:
31,312,252615,1,0,0:0:0:0:
112,136,252779,1,0,0:0:0:0:
215,257,253108,5,6,0:0:0:0:
232,166,253272,1,0,0:0:0:0:
304,224,253435,2,0,L|406:230,1,90.0000034332277
363,299,253763,2,0,L|465:305,1,90.0000034332277
286,301,254091,6,0,L|106:329,1,180.000006866455
232,166,254583,1,0,0:0:0:0:
143,182,254747,2,0,L|41:176,1,90.0000034332277
175,96,255074,2,0,L|73:90,1,90.0000034332277
28,24,255403,1,0,0:0:0:0:
72,263,255566,6,0,L|53:359,2,90.0000034332277
144,329,256059,1,0,0:0:0:0:
210,262,256223,1,0,0:0:0:0:
220,278,256305,1,0,0:0:0:0:
231,294,256387,1,0,0:0:0:0:
325,286,256551,1,0,0:0:0:0:
420,277,256715,1,0,0:0:0:0:
352,369,256878,6,0,L|359:317,2,45.0000017166138
338,212,257206,2,0,L|344:167,2,45.0000017166138
316,55,257533,1,0,0:0:0:0:
280,63,257614,1,0,0:0:0:0:
245,71,257696,1,0,0:0:0:0:
210,79,257778,1,0,0:0:0:0:
175,88,257860,1,0,0:0:0:0:
140,96,257942,1,0,0:0:0:0:
105,104,258025,2,0,L|60:101,3,45.0000017166138
82,194,258353,6,0,L|153:188,1,60,4|0,0:1|0:0,0:0:0:0:
312,177,258517,2,0,L|371:171,1,60,0|0,0:0|0:0,0:0:0:0:
488,167,258682,5,0,0:0:0:0:
483,201,258764,1,0,0:0:0:0:
480,235,258846,1,0,0:0:0:0:
475,269,258928,1,0,0:0:0:0:
470,306,259009,6,0,L|410:297,1,60
343,333,259173,2,0,L|283:324,1,60,4|0,0:0|0:0,0:0:0:0:
204,306,259337,5,0,0:0:0:0:
199,272,259419,1,0,0:0:0:0:
196,238,259501,1,0,0:0:0:0:
191,204,259583,1,0,0:0:0:0:
187,167,259665,6,0,L|258:183,1,60,0|0,0:0|0:0,0:0:0:0:
64,206,259829,2,0,L|135:222,1,60,0|0,0:0|0:0,0:0:0:0:
275,37,259992,2,0,L|204:53,1,60,0|0,0:0|0:0,0:0:0:0:
398,76,260156,2,0,L|327:92,1,60,0|0,0:0|0:0,0:0:0:0:
302,223,260320,6,0,L|321:155,1,60,0|0,0:0|0:0,0:0:0:0:
129,51,260484,2,0,L|112:108,1,60,4|0,0:0|0:0,0:0:0:0:
342,332,260648,2,0,L|361:264,1,60,0|0,0:0|0:0,0:0:0:0:
169,160,260812,2,0,L|152:217,1,60,0|0,0:0|0:0,0:0:0:0:
76,337,260976,6,0,L|132:313,7,60,0|0|0|0|0|0|0|0,0:0|0:0|0:0|0:0|0:0|0:0|0:0|0:0,0:0:0:0:
172,242,261304,2,0,L|228:218,7,60,0|0|0|0|0|0|0|0,0:0|0:0|0:0|0:0|0:0|0:0|0:0|0:0,0:0:0:0:
268,151,261632,2,0,L|324:127,7,60,0|0|0|0|0|0|0|0,0:0|0:0|0:0|0:0|0:0|0:0|0:0|0:0,0:0:0:0:
364,56,261960,2,0,L|420:32,7,60,0|0|0|0|0|0|0|0,0:0|0:0|0:0|0:0|0:0|0:0|0:0|0:0,0:0:0:0:
421,138,262289,6,0,P|278:92|275:25,1,240
125,149,263271,1,0,0:0:0:0:
125,107,263353,1,0,0:0:0:0:
165,94,263435,1,0,0:0:0:0:
190,128,263517,1,0,0:0:0:0:
165,161,263598,5,6,0:0:0:0:
248,167,263764,1,2,0:0:0:0:
330,172,263928,1,2,0:0:0:0:
411,174,264092,1,0,0:0:0:0:
419,188,264174,1,0,0:0:0:0:
427,201,264256,1,0,0:0:0:0:
336,181,264419,5,2,0:0:0:0:
419,188,264583,1,2,0:0:0:0:
500,201,264748,1,0,0:0:0:0:
444,269,264912,5,2,0:0:0:0:
365,281,265075,1,2,0:0:0:0:
284,297,265239,1,2,0:0:0:0:
204,310,265402,1,0,0:0:0:0:
196,324,265484,1,0,0:0:0:0:
188,337,265566,1,0,0:0:0:0:
181,351,265648,1,0,0:0:0:0:
174,364,265730,1,2,0:0:0:0:
279,308,265895,5,2,0:0:0:0:
116,315,266058,1,0,0:0:0:0:
108,329,266140,1,0,0:0:0:0:
100,342,266222,5,2,0:0:0:0:
89,247,266387,1,2,0:0:0:0:
73,154,266551,1,2,0:0:0:0:
190,200,266714,1,0,0:0:0:0:
185,167,266795,1,0,0:0:0:0:
181,134,266877,1,0,0:0:0:0:
176,100,266959,1,0,0:0:0:0:
171,67,267041,1,2,0:0:0:0:
58,54,267207,5,2,0:0:0:0:
74,154,267370,1,0,0:0:0:0:
79,187,267452,1,0,0:0:0:0:
84,221,267534,5,2,0:0:0:0:
177,100,267698,1,2,0:0:0:0:
89,247,267861,1,2,0:0:0:0:
261,168,268026,1,0,0:0:0:0:
298,172,268108,1,0,0:0:0:0:
336,175,268189,2,0,L|398:183,2,45.0000017166138,0|0|2,0:0|0:0|0:0,0:0:0:0:
486,186,268518,1,2,0:0:0:0:
195,242,268681,2,0,L|240:249,1,45.0000017166138
315,318,268845,6,0,L|416:311,1,90.0000034332277,2|2,0:0|0:0,0:0:0:0:
230,325,269174,1,2,0:0:0:0:
336,228,269337,5,0,0:0:0:0:
370,225,269418,1,0,0:0:0:0:
404,223,269500,1,0,0:0:0:0:
437,220,269582,1,0,0:0:0:0:
471,217,269664,1,2,0:0:0:0:
196,242,269830,1,8,0:0:0:0:
117,193,269992,1,0,0:0:0:0:
83,190,270073,1,0,0:0:0:0:
49,188,270155,5,2,0:0:0:0:
230,325,270320,1,2,0:0:0:0:
7,308,270485,1,8,0:0:0:0:
196,242,270648,1,0,0:0:0:0:
162,239,270729,1,0,0:0:0:0:
128,237,270811,1,0,0:0:0:0:
95,234,270893,1,0,0:0:0:0:
61,231,270975,1,2,0:0:0:0:
284,248,271141,1,8,0:0:0:0:
151,381,271304,1,0,0:0:0:0:
147,348,271385,1,0,0:0:0:0:
141,314,271467,5,2,0:0:0:0:
72,79,271633,1,2,0:0:0:0:
174,179,271797,1,8,0:0:0:0:
320,136,271960,1,0,0:0:0:0:
300,164,272042,1,0,0:0:0:0:
281,191,272124,1,0,0:0:0:0:
261,219,272206,1,0,0:0:0:0:
241,246,272287,1,2,0:0:0:0:
373,259,272453,1,8,0:0:0:0:
227,35,272615,1,0,0:0:0:0:
261,41,272697,1,0,0:0:0:0:
294,49,272778,5,2,0:0:0:0:
373,259,272944,1,2,0:0:0:0:
509,85,273108,1,8,0:0:0:0:
183,169,273271,1,0,0:0:0:0:
149,175,273353,1,0,0:0:0:0:
116,183,273435,6,0,L|79:205,7,22.5000008583069,0|0|0|0|2|0|0|0,0:0|0:0|0:0|0:0|0:0|0:0|0:0|0:0,0:0:0:0:
96,275,273763,2,0,L|74:312,7,22.5000008583069,8|0|0|0|0|0|0|0,0:0|0:0|0:0|0:0|0:0|0:0|0:0|0:0,0:0:0:0:
148,356,274091,6,0,B|197:372|197:372|402:351,1,240,6|2,0:1|0:3,0:0:0:0:
208,290,274584,1,0,0:0:0:0:
292,281,274748,1,0,0:0:0:0:
376,271,274912,1,0,0:0:0:0:
459,263,275075,1,2,0:3:0:0:
426,340,275239,1,2,0:3:0:0:
406,191,275402,6,0,B|218:171|218:171|169:187,1,240,0|2,0:0|0:3,0:0:0:0:
67,76,275894,1,0,0:0:0:0:
151,85,276058,1,0,0:0:0:0:
235,95,276222,1,0,0:0:0:0:
318,103,276385,1,2,0:3:0:0:
86,241,276551,1,2,0:3:0:0:
118,9,276714,5,6,0:0:0:0:
65,374,277042,1,8,0:0:0:0:
118,9,277370,5,0,0:0:0:0:
65,374,277534,1,8,0:0:0:0:
274,49,277861,6,0,B|262:160|294:209|294:209|319:165|323:121,1,240,6|2,0:0|0:0,0:0:0:0:
424,334,278353,1,8,0:0:0:0:
274,49,278681,5,0,0:0:0:0:
424,334,278845,1,8,0:0:0:0:
424,334,279173,6,0,L|184:345,1,240,6|2,0:0|0:0,0:0:0:0:
71,230,279665,2,0,L|63:361,1,120,8|0,0:0|0:0,0:0:0:0:
135,56,279992,2,0,L|127:187,1,120,2|2,0:3|0:3,0:0:0:0:
296,151,280321,1,8,0:0:0:0:
55,153,280485,1,8,0:0:0:0:
216,109,280648,6,0,B|422:120|422:120|462:101,1,240,2|8,0:0|0:0,0:0:0:0:
224,203,281141,1,0,0:0:0:0:
401,36,281305,1,2,0:3:0:0:
429,244,281469,1,2,0:3:0:0:
135,56,281632,2,0,L|141:122,1,60,8|0,0:0|0:0,0:0:0:0:
148,210,281796,2,0,L|154:276,1,60,8|0,0:0|0:0,0:0:0:0:
293,173,281960,6,0,B|101:181|101:181|150:163,1,240,6|0,0:0|0:0,0:0:0:0:
74,211,282370,2,0,L|14:212,1,60,0|2,0:0|0:0,0:0:0:0:
401,36,282615,6,0,L|341:37,1,60,0|0,0:0|0:0,0:0:0:0:
212,44,282779,2,0,L|152:45,1,60,0|0,0:0|0:0,0:0:0:0:
46,115,282943,2,0,L|105:116,1,60,0|0,0:0|0:0,0:0:0:0:
235,123,283107,2,0,L|294:124,1,60,0|0,0:0|0:0,0:0:0:0:
402,127,283271,6,0,L|437:141,1,30
407,175,283353,2,0,L|448:207,1,30
400,223,283435,2,0,L|427:260,1,30
380,268,283517,2,0,L|393:304,1,30
349,306,283599,2,0,L|352:350,1,30
309,334,283681,2,0,L|301:371,1,30
262,350,283763,2,0,L|244:386,1,30
213,352,283845,2,0,L|185:384,1,30
166,342,283927,2,0,L|123:369,1,30
122,319,284009,2,0,L|80:333,1,30
87,286,284091,2,0,L|49:287,1,30
62,244,284173,2,0,L|22:231,1,30
57,194,284255,5,0,0:0:0:0:
136,208,284337,1,0,0:0:0:0:
215,201,284419,1,0,0:0:0:0:
285,164,284501,1,0,0:0:0:0:
325,95,284583,6,0,B|362:20|460:7|460:7|440:44|422:50,1,225,6|0,0:0|0:0,0:0:0:0:
402,127,284911,1,8,0:0:0:0:
396,349,285074,1,2,0:0:0:0:
479,108,285238,5,2,0:0:0:0:
155,10,285402,1,2,0:0:0:0:
21,367,285566,2,0,B|129:364|129:364|165:342,1,150,10|0,0:0|0:0,0:0:0:0:
292,25,285894,6,0,L|66:47,1,225,2|0,0:0|0:0,0:0:0:0:
53,126,286222,1,8,0:0:0:0:
325,95,286386,1,0,0:0:0:0:
479,108,286550,5,2,0:0:0:0:
9,57,286714,1,2,0:0:0:0:
386,245,286878,2,0,B|407:296|406:355|406:355|377:324,1,150,8|0,0:0|0:0,0:0:0:0:
224,306,287207,5,4,0:2:0:0:
39,314,287370,1,0,0:0:0:0:
76,132,287533,1,8,0:0:0:0:
242,196,287697,1,2,0:0:0:0:
240,313,287861,5,2,0:0:0:0:
29,321,288024,1,2,0:0:0:0:
72,115,288189,1,8,0:0:0:0:
260,187,288353,1,2,0:0:0:0:
17,333,288681,5,2,0:0:0:0:
65,93,288845,1,8,0:0:0:0:
281,175,289009,1,2,0:0:0:0:
479,117,289173,5,8,0:0:0:0:
185,162,289336,1,2,0:0:0:0:
444,278,289501,2,0,L|363:290,1,75,8|0,0:0|0:0,0:0:0:0:
150,322,289665,1,0,0:0:0:0:
353,24,289829,6,0,L|312:258,1,225,6|0,0:0|0:0,0:0:0:0:
300,319,290157,1,8,0:0:0:0:
52,368,290321,2,0,B|30:271|30:271|42:222,1,150,0|2,0:0|0:0,0:0:0:0:
37,86,290649,1,2,0:0:0:0:
329,86,290812,2,0,B|385:84|385:84|448:13,1,150,10|0,0:0|0:0,0:0:0:0:
153,61,291141,5,2,0:0:0:0:
444,278,291305,1,0,0:0:0:0:
260,42,291469,1,8,0:0:0:0:
150,322,291632,1,2,0:0:0:0:
335,296,291796,1,8,0:0:0:0:
448,13,291959,1,8,0:0:0:0:
485,304,292124,2,0,B|335:297,1,150,0|10,0:0|0:0,0:0:0:0:
370,319,292615,5,2,0:0:0:0:
255,332,292779,2,0,B|404:339,1,150,8|2,0:0|0:0,0:0:0:0:
274,249,293107,1,2,0:0:0:0:
160,266,293271,1,2,0:0:0:0:
45,279,293435,2,0,B|194:286,1,150,10|10,0:0|0:0,0:0:0:0:
85,297,293927,5,0,0:0:0:0:
393,233,294091,2,0,B|243:225,1,150,8|0,0:0|0:0,0:0:0:0:
127,318,294418,1,10,0:0:0:0:
97,59,294582,1,8,0:0:0:0:
4,211,294747,2,0,L|85:199,1,75,10|0,0:0|0:0,0:0:0:0:
168,183,294911,2,0,L|249:171,1,75,8|0,0:0|0:0,0:0:0:0:
384,328,295074,6,0,B|347:254|347:254|357:95,1,225,6|0,0:0|0:0,0:0:0:0:
361,23,295402,1,8,0:0:0:0:
393,233,295566,1,2,0:0:0:0:
182,332,295730,2,0,L|163:133,1,150,2|2,0:0|0:0,0:0:0:0:
361,24,296058,2,0,L|375:173,1,150,8|0,0:0|0:0,0:0:0:0:
96,352,296386,2,0,B|73:303|73:303|97:59,1,300,2|8,0:0|0:0,0:0:0:0:
394,233,296878,2,0,L|454:377,1,150,2|0,0:0|0:0,0:0:0:0:
489,175,297205,1,8,0:0:0:0:
354,350,297369,5,0,0:0:0:0:
39,342,297533,1,10,0:0:0:0:
7,50,297697,5,6,0:0:0:0:
507,359,298025,1,8,0:0:0:0:
39,342,298353,5,0,0:0:0:0:
507,25,298517,1,8,0:0:0:0:
401,301,298845,6,0,B|348:320|348:320|81:299,1,300,6|2,0:0|0:0,0:0:0:0:
418,178,299336,1,8,0:0:0:0:
113,101,299664,5,0,0:0:0:0:
401,301,299828,1,8,0:0:0:0:
401,301,300156,6,0,B|381:153|381:153|299:289,1,300,6|2,0:0|0:0,0:0:0:0:
86,200,300648,2,0,L|66:41,1,150,8|0,0:0|0:0,0:0:0:0:
204,360,300976,2,0,L|185:211,1,150,2|2,0:0|0:0,0:0:0:0:
157,24,301304,1,10,0:0:0:0:
290,227,301468,1,2,0:0:0:0:
462,200,301632,5,2,0:0:0:0:
483,205,301796,1,0,0:0:0:0:
378,217,301960,1,8,0:0:0:0:
363,232,302124,1,2,0:0:0:0:
407,136,302288,1,2,0:0:0:0:
401,115,302452,1,2,0:0:0:0:
91,302,302615,6,0,L|6:333,1,75,8|0,0:0|0:0,0:0:0:0:
182,314,302779,2,0,L|247:369,1,75,8|0,0:0|0:0,0:0:0:0:
149,228,302943,1,6,0:0:0:0:
163,133,303435,5,0,0:0:0:0:
159,155,303599,1,0,0:0:0:0:
177,60,303763,1,0,0:0:0:0:
181,38,303927,1,0,0:0:0:0:
123,376,304255,6,0,L|137:298,3,75
152,207,304583,2,0,L|163:133,3,75,8|0|0|0,0:0|0:0|0:0|0:0,0:0:0:0:
182,38,304911,1,8,0:0:0:0:
184,56,304992,1,0,0:0:0:0:
187,75,305074,1,8,0:0:0:0:
190,93,305156,1,0,0:0:0:0:
193,112,305238,1,8,0:0:0:0:
182,38,305566,5,6,0:0:0:0:
228,313,305731,1,2,0:0:0:0:
449,134,305894,2,0,L|248:117,1,180.000006866455,8|2,0:0|0:0,0:0:0:0:
193,112,306140,2,0,L|86:104,1,90.0000034332277,0|2,0:0|0:0,0:0:0:0:
49,298,306386,2,0,L|250:315,1,180.000006866455,2|8,0:0|0:0,0:0:0:0:
449,134,306714,6,0,P|263:78|90:111,1,360.000013732911,2|2,0:0|0:0,0:0:0:0:
297,355,307206,1,8,0:0:0:0:
317,167,307370,1,2,0:0:0:0:
49,298,307533,2,0,L|250:315,1,180.000006866455,0|2,0:0|0:0,0:0:0:0:
297,355,307779,2,0,L|404:347,1,90.0000034332277,2|8,0:0|0:0,0:0:0:0:
488,202,308026,1,2,0:0:0:0:
267,40,308189,5,4,0:2:0:0:
228,313,308353,1,2,0:0:0:0:
4,160,308517,2,0,L|205:143,1,180.000006866455,8|2,0:0|0:0,0:0:0:0:
359,285,308845,1,2,0:0:0:0:
49,298,309010,1,2,0:0:0:0:
317,167,309173,1,8,0:0:0:0:
4,160,309337,6,0,P|186:182|376:120,1,360.000013732911,2|2,0:0|0:0,0:0:0:0:
95,26,309829,1,8,0:0:0:0:
49,298,309992,1,2,0:0:0:0:
213,73,310157,1,8,0:0:0:0:
262,255,310321,1,10,0:0:0:0:
215,239,310402,1,2,0:0:0:0:
170,223,310485,1,8,0:0:0:0:
507,177,310649,1,2,0:0:0:0:
429,234,310813,5,6,0:0:0:0:
464,22,310977,1,2,0:0:0:0:
485,347,311140,2,0,B|365:331|365:331|294:351,1,180.000006866455,8|2,0:0|0:0,0:0:0:0:
49,299,311468,2,0,B|169:315|169:315|240:295,2,180.000006866455,2|2|8,0:0|0:0|0:0,0:0:0:0:
104,37,311960,6,0,L|481:21,1,360.000013732911,2|2,0:0|0:0,0:0:0:0:
335,339,312452,1,8,0:0:0:0:
335,136,312615,1,2,0:0:0:0:
216,174,312779,2,0,L|413:159,1,180.000006866455,8|2,0:0|0:0,0:0:0:0:
410,238,313025,2,0,L|503:229,1,90.0000034332277,2|8,0:0|0:0,0:0:0:0:
216,300,313271,1,2,0:0:0:0:
484,96,313436,5,6,0:0:0:0:
335,339,313600,1,2,0:0:0:0:
64,229,313763,1,8,0:0:0:0:
305,234,313928,1,2,0:0:0:0:
231,6,314091,1,2,0:0:0:0:
200,138,314255,2,0,B|342:138|342:138|392:108,1,180.000006866455,10|2,0:0|0:0,0:0:0:0:
59,106,314583,6,0,P|137:256|305:233,1,360.000013732911,14|0,0:0|0:0,0:0:0:0:
125,29,315075,1,10,0:0:0:0:
470,148,315239,6,0,P|373:329|217:338,1,360.000013732911,14|2,0:0|0:0,0:0:0:0:
163,312,315649,1,2,0:0:0:0:
121,249,315731,1,10,0:0:0:0:
470,148,315894,1,10,0:0:0:0:
467,376,316059,5,14,0:0:0:0:
403,11,316223,1,2,0:0:0:0:
121,249,316387,2,0,L|383:205,1,240,8|2,0:0|0:0,0:0:0:0:
15,25,316715,2,0,L|252:67,2,240,10|2|10,0:0|0:0|0:0,0:0:0:0:
488,75,317207,6,0,P|258:63|121:249,1,480,14|2,0:0|0:0,0:0:0:0:
335,384,317698,2,0,L|306:143,1,240,8|2,0:0|0:0,0:0:0:0:
13,355,318026,1,8,0:0:0:0:
157,109,318190,1,2,0:0:0:0:
182,65,318272,1,2,0:0:0:0:
209,21,318354,1,8,0:0:0:0:
500,337,318518,1,2,0:0:0:0:
165,376,318682,6,0,P|59:333|7:212,1,240,4|2,0:2|0:0,0:0:0:0:
209,21,319010,2,0,P|317:66|366:172,1,240,8|2,0:0|0:0,0:0:0:0:
190,292,319338,2,0,L|443:270,2,240,8|2|10,0:0|0:0|0:0,0:0:0:0:
41,46,319830,6,0,P|292:40|458:199,1,480,14|2,0:0|0:0,0:0:0:0:
190,292,320321,2,0,L|418:379,1,240,8|2,0:0|0:0,0:0:0:0:
407,23,320649,1,8,0:0:0:0:
141,275,320813,1,10,0:0:0:0:
92,259,320895,1,2,0:0:0:0:
45,241,320977,1,8,0:0:0:0:
361,267,321140,1,10,0:0:0:0:
92,12,321305,5,14,0:0:0:0:
7,372,321469,1,2,0:0:0:0:
361,267,321633,2,0,L|328:12,1,240,8|2,0:0|0:0,0:0:0:0:
45,241,321960,2,0,L|12:-14,2,240,8|2|10,0:0|0:0|0:0,0:0:0:0:
256,352,322453,6,0,P|252:209|504:30,1,480,14|2,0:0|0:0,0:0:0:0:
361,266,322944,2,0,L|111:243,1,240,8|2,0:0|0:0,0:0:0:0:
54,17,323272,1,8,0:0:0:0:
362,266,323436,1,2,0:0:0:0:
404,308,323518,1,2,0:0:0:0:
443,343,323600,1,8,0:0:0:0:
444,11,323764,1,2,0:0:0:0:
405,308,323927,6,0,P|358:199|386:85,1,240,14|2,0:0|0:0,0:0:0:0:
53,17,324255,2,0,P|137:98|277:107,1,240,8|2,0:0|0:0,0:0:0:0:
444,11,324584,1,10,0:0:0:0:
17,120,324747,1,10,0:0:0:0:
293,318,324912,1,8,0:0:0:0:
35,358,325075,6,0,P|101:146|339:112,1,480,14|10,0:0|0:0,0:0:0:0:
167,339,325567,1,10,0:0:0:0:
443,363,325731,6,0,P|457:138|250:18,1,480,14|10,0:0|0:0,0:0:0:0:
179,31,326141,1,2,0:0:0:0:
106,72,326223,1,10,0:0:0:0:
405,295,326387,5,10,0:0:0:0:
56,137,326550,1,14,0:0:0:0:
256,192,326715,12,0,337042,3:0:0:0:
