osu file format v13

[General]
AudioFilename: Sentimental Skyscraper.mp3
AudioLeadIn: 0
PreviewTime: 83927
Countdown: 1
SampleSet: None
StackLeniency: 0.2
Mode: 0
LetterboxInBreaks: 1
WidescreenStoryboard: 1

[Editor]
Bookmarks: 14419,14911,22288,32779,258353
DistanceSpacing: 2
BeatDivisor: 4
GridSize: 4
TimelineZoom: 2.2

[Metadata]
Title:Sentimental Skycraper
TitleUnicode:Sentimental Skycraper
Artist:Halozy
ArtistUnicode:Halozy
Creator:ebugers
Version:Cosmic2
Source:Touhou
Tags:Aqua Trytone hotaru Kanshou no Matenrou Emotional Skyscraper Cosmic Mind Hijiri Byakuren
BeatmapID:447243
BeatmapSetID:185286

[Difficulty]
HPDrainRate:5.5
CircleSize:4
OverallDifficulty:8
ApproachRate:9
SliderMultiplier:1.59999990463257
SliderTickRate:1

[Events]
//Background and Video events
0,0,"lelbg.jpg",0,0
//Break Periods
2,114291,115458
//Storyboard Layer 0 (Background)
//Storyboard Layer 1 (Fail)
//Storyboard Layer 2 (Pass)
//Storyboard Layer 3 (Foreground)
//Storyboard Sound Samples
//Background Colour Transformations
3,100,163,162,255

[TimingPoints]
-7,327.868852459016,4,2,0,50,1,0
22288,-200,4,2,1,25,0,0
22452,-200,4,2,4,15,0,0
22615,-200,4,2,5,15,0,0
22779,-200,4,2,6,15,0,0
22943,-200,4,2,7,15,0,0
23107,-200,4,2,8,15,0,0
23271,-200,4,2,9,15,0,0
23435,-200,4,2,3,15,0,0
23763,-200,4,2,4,15,0,0
23927,-200,4,2,5,15,0,0
24091,-200,4,2,6,15,0,0
24255,-200,4,2,7,15,0,0
24419,-200,4,2,8,15,0,0
24583,-200,4,2,1,15,0,0
24747,-200,4,2,2,15,0,0
24911,-200,4,2,3,15,0,0
25074,-200,4,2,4,15,0,0
25238,-200,4,2,5,15,0,0
25402,-200,4,2,6,15,0,0
25566,-200,4,2,7,15,0,0
25730,-200,4,2,8,15,0,0
25894,-200,4,2,9,15,0,0
26058,-200,4,2,3,15,0,0
26386,-200,4,2,4,15,0,0
26550,-200,4,2,5,15,0,0
26714,-200,4,2,6,15,0,0
26878,-200,4,2,7,15,0,0
27042,-200,4,2,8,15,0,0
27206,-200,4,2,1,20,0,0
27370,-200,4,2,2,20,0,0
27533,-200,4,2,3,20,0,0
27697,-200,4,2,4,20,0,0
27861,-200,4,2,5,20,0,0
28025,-200,4,2,6,20,0,0
28189,-200,4,2,7,20,0,0
28353,-200,4,2,8,20,0,0
28517,-200,4,2,9,20,0,0
28681,-200,4,2,3,20,0,0
29009,-200,4,2,4,20,0,0
29173,-200,4,2,5,20,0,0
29337,-200,4,2,6,20,0,0
29501,-200,4,2,7,20,0,0
29665,-200,4,2,8,20,0,0
29829,-200,4,2,1,20,0,0
29992,-200,4,2,2,20,0,0
30156,-200,4,2,3,20,0,0
30320,-200,4,2,4,20,0,0
30484,-200,4,2,5,20,0,0
30648,-200,4,2,6,20,0,0
30812,-200,4,2,7,20,0,0
30976,-200,4,2,8,20,0,0
31140,-200,4,2,9,20,0,0
31304,-200,4,2,3,20,0,0
31632,-200,4,2,4,20,0,0
31796,-200,4,2,5,20,0,0
31960,-200,4,2,6,20,0,0
32124,-200,4,2,7,20,0,0
32288,-200,4,2,8,20,0,0
32452,-200,4,2,1,20,0,0
32615,-200,4,2,2,20,0,0
32943,-200,4,2,4,20,0,0
33107,-200,4,2,5,20,0,0
33271,-200,4,2,6,20,0,0
33435,-200,4,2,7,20,0,0
33599,-200,4,2,8,20,0,0
33763,-200,4,2,9,20,0,0
33927,-200,4,2,3,20,0,0
34255,-200,4,2,4,20,0,0
34419,-100,4,2,5,20,0,0
34583,-100,4,2,6,20,0,0
34747,-100,4,2,7,20,0,0
34911,-100,4,2,8,20,0,0
35074,-100,4,2,1,20,0,0
35238,-100,4,2,2,20,0,0
35402,-100,4,2,3,20,0,0
35566,-100,4,2,4,20,0,0
35730,-100,4,2,5,20,0,0
35894,-100,4,2,6,20,0,0
36058,-100,4,2,7,20,0,0
36222,-100,4,2,8,20,0,0
36386,-100,4,2,9,20,0,0
36550,-100,4,2,3,20,0,0
36714,-100,4,2,4,20,0,0
36878,-100,4,2,4,20,0,0
37042,-100,4,2,5,20,0,0
37206,-100,4,2,6,20,0,0
37370,-100,4,2,7,20,0,0
37533,-100,4,2,8,20,0,0
37697,-100,4,2,1,20,0,0
37861,-100,4,2,2,20,0,0
38025,-100,4,2,3,20,0,0
38189,-100,4,2,4,20,0,0
38353,-100,4,2,5,20,0,0
38517,-100,4,2,6,20,0,0
38681,-100,4,2,7,20,0,0
38845,-100,4,2,8,20,0,0
39009,-100,4,2,9,20,0,0
39173,-100,4,2,3,20,0,0
39337,-100,4,2,0,20,0,0
39501,-100,4,2,4,20,0,0
39665,-100,4,2,5,20,0,0
39829,-100,4,2,6,20,0,0
39992,-100,4,2,7,20,0,0
40156,-100,4,2,8,20,0,0
40320,-100,4,2,1,20,0,0
40484,-100,4,2,2,20,0,0
40648,-100,4,2,3,20,0,0
40812,-100,4,2,4,20,0,0
40976,-100,4,2,5,20,0,0
41140,-100,4,2,6,20,0,0
41304,-100,4,2,7,15,0,0
41468,-100,4,2,8,10,0,0
41632,-100,4,2,9,5,0,0
41796,-100,4,2,3,10,0,0
42615,-100,4,2,0,25,0,0
42779,-100,4,2,0,30,0,0
42943,-100,4,2,0,25,0,0
43271,-100,4,2,1,35,0,0
47206,-100,4,2,1,50,0,0
49829,-100,4,2,1,70,0,0
64255,-100,4,1,1,70,0,0
74747,-100,4,2,1,70,0,0
82615,-66.6666666666667,4,2,1,70,0,0
83927,-200,4,2,0,70,0,0
84911,-100,4,2,0,70,0,0
85238,-100,4,1,2,70,0,0
85484,-100,4,1,1,70,0,0
106222,-100,4,2,3,10,0,0
106386,-100,4,2,4,10,0,0
106550,-100,4,2,5,10,0,0
106714,-100,4,2,6,10,0,0
106878,-100,4,2,7,10,0,0
107042,-100,4,2,8,10,0,0
107206,-100,4,2,9,10,0,0
107370,-100,4,2,3,10,0,0
107697,-100,4,2,4,10,0,0
107861,-100,4,2,5,10,0,0
108025,-100,4,2,6,10,0,0
108189,-100,4,2,7,10,0,0
108353,-100,4,2,8,10,0,0
108517,-100,4,2,1,10,0,0
108681,-100,4,2,2,10,0,0
108845,-100,4,2,3,10,0,0
109009,-100,4,2,4,10,0,0
109173,-100,4,2,5,10,0,0
109337,-100,4,2,6,10,0,0
109501,-100,4,2,7,10,0,0
109665,-100,4,2,8,10,0,0
109829,-100,4,2,9,10,0,0
109992,-100,4,2,3,10,0,0
110320,-100,4,2,4,10,0,0
110484,-100,4,2,5,10,0,0
110648,-100,4,2,6,10,0,0
110812,-100,4,2,7,10,0,0
110976,-100,4,2,8,10,0,0
111140,-100,4,2,1,10,0,0
111304,-100,4,2,2,10,0,0
111468,-100,4,2,3,10,0,0
111632,-100,4,2,4,10,0,0
111796,-100,4,2,5,10,0,0
111960,-100,4,2,6,10,0,0
112124,-100,4,2,7,10,0,0
112288,-100,4,2,8,10,0,0
112452,-100,4,2,9,10,0,0
112615,-100,4,2,3,10,0,0
112943,-100,4,2,4,10,0,0
113107,-100,4,2,5,10,0,0
113271,-100,4,2,6,10,0,0
113435,-100,4,2,7,10,0,0
113599,-100,4,2,8,10,0,0
113763,-100,4,2,1,10,0,0
113927,-100,4,2,2,10,0,0
114091,-100,4,2,3,10,0,0
116714,-133.333333333333,4,2,1,70,0,0
117042,-133.333333333333,4,2,0,70,0,0
127206,-133.333333333333,4,2,1,70,0,0
146714,-50,4,2,2,70,0,0
148189,-100,4,1,2,70,0,0
148435,-100,4,1,1,70,0,0
163927,-100,4,1,0,70,0,0
169173,-100,4,1,2,70,0,0
169419,-100,4,1,1,70,0,0
189501,-66.6666666666667,4,1,0,70,0,0
190156,-100,4,1,2,70,0,0
190320,-100,4,1,1,70,0,0
210320,-50,4,1,0,70,0,0
211140,-100,4,2,1,70,0,0
211140,-100,4,2,1,70,0,0
232124,-100,4,1,2,70,0,0
232370,-100,4,1,1,70,0,0
242615,-100,4,1,1,70,0,0
247861,-100,4,1,0,70,0,0
253107,-100,4,2,2,70,0,0
262288,-100,4,2,1,70,0,0
274091,-100,4,1,1,70,0,0
282042,-100,4,2,0,30,0,0
282288,-100,4,2,0,50,0,0
282615,-100,4,2,0,60,0,0
282943,-100,4,2,0,70,0,0
283927,-100,4,2,0,30,0,0
284583,-100,4,1,2,70,0,0
284747,-100,4,1,1,70,0,0
305566,-100,4,1,1,70,0,0
316058,-66.6666666666667,4,1,1,70,0,0
326550,-66.6666666666667,4,1,2,70,0,0
326714,-66.6666666666667,4,2,1,60,0,0
327861,-66.6666666666667,4,2,1,50,0,0
329173,-66.6666666666667,4,2,1,40,0,0
330484,-66.6666666666667,4,2,1,30,0,0
331796,-66.6666666666667,4,2,1,20,0,0

[HitObjects]
72,132,22288,6,0,L|88:172,1,39.9999976158142,4|2,0:0|0:0,0:0:0:0:
184,152,22615,2,0,L|204:200,1,39.9999976158142,2|2,0:0|0:0,0:0:0:0:
248,304,22943,1,2,0:0:0:0:
352,176,23107,1,2,0:0:0:0:
100,280,23271,1,2,0:0:0:0:
248,304,23435,2,0,L|328:296,1,79.9999952316285,2|2,0:0|0:0,0:0:0:0:
455,284,23927,2,0,L|416:288,1,39.9999976158142,2|2,0:0|0:0,0:0:0:0:
256,220,24255,2,0,L|295:216,1,39.9999976158142,2|2,0:0|0:0,0:0:0:0:
376,204,24583,1,2,0:0:0:0:
440,156,24747,1,2,0:0:0:0:
256,220,24911,6,0,L|200:216,1,39.9999976158142,2|2,0:0|0:0,0:0:0:0:
72,140,25238,2,0,L|128:144,1,39.9999976158142,2|2,0:0|0:0,0:0:0:0:
212,80,25566,1,2,0:0:0:0:
112,272,25730,1,2,0:0:0:0:
72,140,25894,1,2,0:0:0:0:
256,220,26058,2,0,L|344:216,1,79.9999952316285,2|2,0:0|0:0,0:0:0:0:
416,216,26550,2,0,L|428:260,1,39.9999976158142,2|2,0:0|0:0,0:0:0:0:
286,342,26878,2,0,L|276:304,1,39.9999976158142,2|2,0:0|0:0,0:0:0:0:
208,76,27206,1,2,0:0:0:0:
116,316,27370,1,2,0:0:0:0:
380,304,27533,6,0,L|424:312,1,39.9999976158142,2|2,0:0|0:0,0:0:0:0:
316,244,27861,2,0,L|276:236,1,39.9999976158142,2|2,0:0|0:0,0:0:0:0:
400,216,28189,1,2,0:0:0:0:
356,76,28353,1,2,0:0:0:0:
208,76,28517,1,2,0:0:0:0:
160,216,28681,2,0,L|184:312,1,79.9999952316285,2|2,0:0|0:0,0:0:0:0:
200,372,29173,2,0,L|248:360,1,39.9999976158142,2|2,0:0|0:0,0:0:0:0:
316,340,29501,1,2,0:0:0:0:
392,320,29665,1,2,0:0:0:0:
468,300,29829,1,2,0:0:0:0:
392,320,29992,1,2,0:0:0:0:
316,340,30156,6,0,L|288:296,1,39.9999976158142,2|2,0:0|0:0,0:0:0:0:
216,292,30484,2,0,L|176:260,1,39.9999976158142,2|2,0:0|0:0,0:0:0:0:
104,268,30812,1,2,0:0:0:0:
140,364,30976,1,2,0:0:0:0:
148,176,31140,1,2,0:0:0:0:
248,160,31304,2,0,L|340:152,1,79.9999952316285,2|2,0:0|0:0,0:0:0:0:
408,144,31796,1,2,0:0:0:0:
432,164,31960,1,2,0:0:0:0:
360,240,32124,1,2,0:0:0:0:
368,288,32288,1,2,0:0:0:0:
240,292,32452,1,2,0:0:0:0:
208,360,32615,1,2,0:0:0:0:
96,280,32779,6,0,L|44:296,1,39.9999976158142,4|2,0:0|0:0,0:0:0:0:
324,160,33107,1,2,0:0:0:0:
160,356,33271,1,2,0:0:0:0:
172,172,33435,1,2,0:0:0:0:
340,260,33599,1,2,0:0:0:0:
324,160,33763,1,2,0:0:0:0:
160,356,33927,2,0,L|104:288,1,79.9999952316285,2|2,0:0|0:0,0:0:0:0:
56,232,34419,1,2,0:0:0:0:
44,192,34501,1,0,0:0:0:0:
40,152,34583,2,0,L|44:104,2,39.9999976158142,2|0|2,0:0|0:0|0:0,0:0:0:0:
172,56,34911,1,2,0:0:0:0:
172,56,34992,1,0,0:0:0:0:
172,56,35074,6,0,P|216:48|272:56,2,79.9999952316285,2|2|2,0:0|0:0|0:0,0:0:0:0:
160,168,35566,1,2,0:0:0:0:
248,236,35730,1,2,0:0:0:0:
360,228,35894,1,2,0:0:0:0:
248,220,36058,1,2,0:0:0:0:
164,148,36222,1,2,0:0:0:0:
176,36,36386,1,2,0:0:0:0:
176,36,36468,1,0,0:0:0:0:
176,36,36550,2,0,L|288:32,1,79.9999952316285,2|0,0:0|0:0,0:0:0:0:
368,32,36878,5,2,0:0:0:0:
380,48,36960,1,0,0:0:0:0:
388,64,37042,1,2,0:0:0:0:
396,84,37124,1,0,0:0:0:0:
400,104,37206,2,0,L|388:196,1,79.9999952316285,2|2,0:0|0:0,0:0:0:0:
376,264,37533,1,2,0:0:0:0:
164,148,37697,1,2,0:0:0:0:
400,104,37861,1,2,0:0:0:0:
268,288,38025,5,2,0:0:0:0:
256,40,38189,1,2,0:0:0:0:
80,104,38353,1,2,0:0:0:0:
160,52,38517,1,2,0:0:0:0:
32,188,38681,1,2,0:0:0:0:
80,104,38845,1,2,0:0:0:0:
24,284,39009,1,2,0:0:0:0:
24,284,39091,1,0,0:0:0:0:
24,284,39173,2,0,L|38:362,1,79.9999952316285,2|2,0:0|0:0,0:0:0:0:
48,196,39501,5,2,0:0:0:0:
92,112,39665,1,2,0:0:0:0:
172,60,39829,1,2,0:0:0:0:
268,48,39992,1,2,0:0:0:0:
176,72,40156,1,2,0:0:0:0:
96,128,40320,1,2,0:0:0:0:
52,212,40484,1,2,0:0:0:0:
212,336,40648,5,2,0:0:0:0:
248,328,40730,1,0,0:0:0:0:
284,320,40812,1,2,0:0:0:0:
320,312,40894,1,0,0:0:0:0:
356,304,40976,1,2,0:0:0:0:
392,296,41058,1,0,0:0:0:0:
424,260,41140,1,2,0:0:0:0:
436,212,41222,1,0,0:0:0:0:
424,164,41304,1,2,0:0:0:0:
384,136,41386,1,0,0:0:0:0:
336,128,41468,1,2,0:0:0:0:
296,156,41550,1,0,0:0:0:0:
288,204,41632,1,2,0:0:0:0:
256,240,41714,1,0,0:0:0:0:
212,240,41796,6,0,L|176:248,32,19.9999988079071,2|0|0|0|0|0|0|0|0|0|0|0|0|0|0|0|0|0|0|0|0|0|0|0|0|0|0|0|0|0|0|0|0,0:0|0:0|0:0|0:0|0:0|0:0|0:0|0:0|0:0|0:0|0:0|0:0|0:0|0:0|0:0|0:0|0:0|0:0|0:0|0:0|0:0|0:0|0:0|0:0|0:0|0:0|0:0|0:0|0:0|0:0|0:0|0:0|0:0,0:0:0:0:
256,104,43271,6,0,L|272:208,1,79.9999952316285,4|0,3:0|0:0,0:0:0:0:
284,264,43599,2,0,P|368:284|448:272,1,159.999990463257,8|0,0:0|0:0,0:0:0:0:
372,80,44091,1,4,3:0:0:0:
256,104,44255,2,0,L|152:120,1,79.9999952316285,8|0,0:0|0:0,0:0:0:0:
284,264,44583,1,4,3:0:0:0:
296,280,44665,1,0,0:0:0:0:
312,292,44747,1,4,3:0:0:0:
332,300,44829,1,0,0:0:0:0:
352,304,44911,2,0,L|448:296,1,79.9999952316285,8|0,0:0|0:0,0:0:0:0:
76,372,45238,1,0,0:0:0:0:
152,312,45402,1,4,3:0:0:0:
248,304,45566,2,0,B|296:312|296:312|360:300|392:268,1,119.999992847443,8|0,0:0|0:0,0:0:0:0:
404,296,45894,6,0,L|412:188,1,79.9999952316285,4|4,3:0|3:0,0:0:0:0:
416,136,46222,1,8,0:0:0:0:
248,304,46386,1,0,0:0:0:0:
252,280,46468,1,0,0:0:0:0:
256,256,46550,1,0,0:0:0:0:
260,232,46632,1,0,0:0:0:0:
264,208,46714,1,4,3:0:0:0:
80,232,46878,1,8,0:0:0:0:
152,324,47042,1,0,0:0:0:0:
160,148,47206,5,4,3:0:0:0:
248,304,47370,1,4,3:0:0:0:
264,208,47533,1,8,0:0:0:0:
504,100,47697,1,0,0:0:0:0:
456,88,47779,1,0,0:0:0:0:
408,96,47861,1,0,0:0:0:0:
372,128,47943,1,0,0:0:0:0:
360,172,48025,1,4,3:0:0:0:
456,184,48189,1,8,0:0:0:0:
328,40,48353,1,0,0:0:0:0:
160,148,48517,6,0,L|168:248,1,79.9999952316285,4|4,3:0|3:0,0:0:0:0:
456,184,48845,1,8,0:0:0:0:
404,256,49009,2,0,L|456:292,1,39.9999976158142
328,284,49173,2,0,L|308:344,1,39.9999976158142
336,204,49337,1,4,3:0:0:0:
400,360,49501,1,8,0:0:0:0:
324,176,49665,1,0,0:0:0:0:
304,292,49829,5,4,3:0:0:0:
428,244,49992,1,4,3:0:0:0:
280,300,50156,1,8,0:0:0:0:
456,232,50320,1,0,0:0:0:0:
460,192,50402,1,0,0:0:0:0:
452,152,50484,1,0,0:0:0:0:
432,120,50566,1,0,0:0:0:0:
400,96,50648,1,4,3:0:0:0:
320,204,50812,1,8,0:0:0:0:
68,72,50976,1,0,0:0:0:0:
124,128,51140,6,0,P|152:160|160:212,1,79.9999952316285,4|4,3:0|3:0,0:0:0:0:
80,196,51468,1,8,0:0:0:0:
120,316,51632,1,0,0:0:0:0:
152,292,51714,1,0,0:0:0:0:
192,280,51796,1,0,0:0:0:0:
232,284,51878,1,0,0:0:0:0:
268,304,51960,1,4,3:0:0:0:
200,376,52124,1,8,0:0:0:0:
224,176,52288,1,0,0:0:0:0:
396,192,52452,5,4,3:0:0:0:
404,224,52615,1,4,3:0:0:0:
412,252,52779,1,8,0:0:0:0:
368,96,52943,1,0,0:0:0:0:
344,92,53025,1,0,0:0:0:0:
320,88,53107,1,0,0:0:0:0:
296,84,53189,1,0,0:0:0:0:
272,80,53271,1,4,3:0:0:0:
476,116,53435,1,8,0:0:0:0:
224,176,53599,1,0,0:0:0:0:
176,96,53763,5,4,3:0:0:0:
176,96,53845,1,0,0:0:0:0:
176,96,53927,2,0,P|136:108|68:112,1,79.9999952316285,4|8,3:0|0:0,0:0:0:0:
4,96,54255,1,0,0:0:0:0:
4,120,54337,1,0,0:0:0:0:
8,144,54419,1,0,0:0:0:0:
16,168,54501,1,0,0:0:0:0:
28,188,54583,1,4,3:0:0:0:
128,260,54747,1,8,0:0:0:0:
176,96,54911,1,0,0:0:0:0:
236,256,55074,5,4,3:0:0:0:
264,148,55238,1,4,3:0:0:0:
108,168,55402,1,8,0:0:0:0:
260,64,55566,1,0,0:0:0:0:
284,56,55648,1,0,0:0:0:0:
308,48,55730,2,0,L|372:60,1,39.9999976158142
428,72,55894,1,4,3:0:0:0:
512,268,56058,1,8,0:0:0:0:
360,220,56222,1,0,0:0:0:0:
428,72,56386,5,4,3:0:0:0:
512,268,56550,1,4,3:0:0:0:
360,220,56714,1,8,0:0:0:0:
260,64,56878,1,0,0:0:0:0:
236,64,56960,1,0,0:0:0:0:
212,68,57042,1,0,0:0:0:0:
188,76,57124,1,0,0:0:0:0:
168,88,57206,2,0,P|136:104|64:112,1,79.9999952316285,4|8,3:0|0:0,0:0:0:0:
100,16,57533,1,0,0:0:0:0:
152,196,57697,5,4,3:0:0:0:
324,264,57861,1,4,3:0:0:0:
152,300,58025,1,8,0:0:0:0:
264,160,58189,1,0,0:0:0:0:
288,156,58271,1,0,0:0:0:0:
312,152,58353,1,0,0:0:0:0:
336,148,58435,1,0,0:0:0:0:
360,144,58517,1,4,3:0:0:0:
456,132,58681,1,8,0:0:0:0:
324,264,58845,1,0,0:0:0:0:
140,200,59009,5,4,3:0:0:0:
124,180,59091,1,0,0:0:0:0:
116,156,59173,1,4,3:0:0:0:
116,132,59255,1,0,0:0:0:0:
124,108,59337,1,8,0:0:0:0:
144,84,59419,1,0,0:0:0:0:
172,72,59501,1,0,0:0:0:0:
204,68,59583,1,0,0:0:0:0:
236,80,59665,1,0,0:0:0:0:
276,88,59747,1,0,0:0:0:0:
312,68,59829,1,4,3:0:0:0:
348,88,59911,1,0,0:0:0:0:
380,112,59992,1,8,0:0:0:0:
400,148,60074,1,0,0:0:0:0:
396,188,60156,1,0,0:0:0:0:
388,228,60238,1,0,0:0:0:0:
392,268,60320,5,4,3:0:0:0:
404,308,60402,1,0,0:0:0:0:
372,332,60484,1,4,3:0:0:0:
332,328,60566,1,0,0:0:0:0:
292,320,60648,1,8,0:0:0:0:
252,324,60730,1,0,0:0:0:0:
212,320,60812,1,0,0:0:0:0:
172,328,60894,1,0,0:0:0:0:
132,328,60976,1,0,0:0:0:0:
100,304,61058,1,0,0:0:0:0:
84,268,61140,2,0,L|72:244,10,19.9999988079071,4|0|0|0|8|0|0|0|0|0|0,3:0|0:0|0:0|0:0|0:0|0:0|0:0|0:0|0:0|0:0|0:0,0:0:0:0:
148,192,61632,5,4,3:0:0:0:
360,192,61796,1,4,3:0:0:0:
256,88,61960,1,4,3:0:0:0:
256,304,62124,1,4,3:0:0:0:
256,304,62452,1,4,3:0:0:0:
256,88,62615,1,2,3:0:0:0:
192,188,62943,6,0,P|256:304|312:176,1,319.999980926514,0|0,0:0|0:0,0:0:0:0:
108,84,63763,1,4,3:0:0:0:
256,304,63927,1,2,3:0:0:0:
404,84,64091,1,4,3:0:0:0:
104,100,64255,6,0,L|4:104,1,79.9999952316285,8|0,0:0|0:0,0:0:0:0:
24,280,64583,2,0,L|104:284,1,79.9999952316285,8|0,0:0|0:0,0:0:0:0:
200,292,64911,1,8,0:0:0:0:
284,296,65074,2,0,L|360:300,2,39.9999976158142,0|0|8,0:0|0:0|0:0,0:0:0:0:
236,380,65402,1,4,0:0:0:0:
244,208,65566,5,8,0:0:0:0:
160,292,65730,1,0,0:0:0:0:
324,296,65894,1,8,0:0:0:0:
344,204,66058,1,0,0:0:0:0:
144,380,66222,1,8,0:0:0:0:
148,200,66386,1,0,0:0:0:0:
148,200,66468,1,0,0:0:0:0:
148,200,66550,2,0,P|136:156|136:100,1,79.9999952316285,8|0,0:0|0:0,0:0:0:0:
216,28,66878,6,0,P|227:66|229:106,1,79.9999952316285,12|0,0:0|0:0,0:0:0:0:
244,200,67206,2,0,L|360:204,1,79.9999952316285,8|0,0:0|0:0,0:0:0:0:
420,208,67533,1,8,0:0:0:0:
368,128,67697,1,0,0:0:0:0:
420,208,67861,1,8,0:0:0:0:
272,112,68025,1,4,0:0:0:0:
420,208,68189,5,8,0:0:0:0:
192,176,68353,1,0,0:0:0:0:
420,208,68517,1,8,0:0:0:0:
200,276,68681,2,0,L|156:292,2,39.9999976158142,0|0|8,0:0|0:0|0:0,0:0:0:0:
292,248,69009,1,0,0:0:0:0:
84,316,69173,1,8,0:0:0:0:
8,120,69337,1,0,0:0:0:0:
216,48,69501,5,12,0:0:0:0:
84,316,69665,1,0,0:0:0:0:
8,120,69829,1,8,0:0:0:0:
292,248,69992,1,0,0:0:0:0:
216,48,70156,1,8,0:0:0:0:
168,176,70320,1,0,0:0:0:0:
344,112,70484,1,8,0:0:0:0:
292,248,70648,2,0,B|256:284|256:284|216:304|136:316,1,159.999990463257,4|0,0:0|0:0,0:0:0:0:
68,268,71140,6,0,P|56:312|72:364,1,79.9999952316285,8|0,0:0|0:0,0:0:0:0:
164,100,71468,2,0,P|176:144|160:196,1,79.9999952316285,8|0,0:0|0:0,0:0:0:0:
68,268,71796,1,8,0:0:0:0:
76,52,71960,1,0,0:0:0:0:
172,176,72124,6,0,L|268:172,1,79.9999952316285,12|0,0:0|0:0,0:0:0:0:
296,88,72452,2,0,L|375:84,1,79.9999952316285,8|0,0:0|0:0,0:0:0:0:
472,80,72779,1,8,0:0:0:0:
284,100,72943,2,0,L|363:96,1,79.9999952316285,0|8,0:0|0:0,0:0:0:0:
160,192,73271,2,0,L|336:184,1,159.999990463257,4|0,0:0|0:0,0:0:0:0:
416,184,73763,5,8,0:0:0:0:
32,284,73927,2,0,L|208:276,1,159.999990463257,4|0,0:0|0:0,0:0:0:0:
191,276,74337,1,0,0:0:0:0:
191,276,74419,1,8,0:0:0:0:
288,272,74583,1,0,0:0:0:0:
400,328,74747,5,4,3:0:0:0:
392,296,74911,1,4,3:0:0:0:
384,264,75074,2,0,L|360:164,1,79.9999952316285,8|0,3:0|0:0,0:0:0:0:
340,184,75320,1,0,0:0:0:0:
316,180,75402,2,0,L|244:168,2,39.9999976158142,0|0|4,0:0|0:0|3:0,0:0:0:0:
168,276,75730,1,8,3:0:0:0:
96,108,75894,2,0,P|80:144|88:204,1,79.9999952316285,0|4,0:0|3:0,0:0:0:0:
180,24,76222,5,4,3:0:0:0:
256,112,76386,2,0,P|272:148|264:208,1,79.9999952316285,8|0,3:0|0:0,0:0:0:0:
264,208,76632,1,0,0:0:0:0:
252,224,76714,1,0,0:0:0:0:
236,236,76796,1,0,0:0:0:0:
216,244,76878,2,0,L|184:324,1,79.9999952316285,4|8,3:0|3:0,0:0:0:0:
40,240,77206,1,0,0:0:0:0:
96,108,77370,5,4,3:0:0:0:
264,208,77533,1,4,3:0:0:0:
416,88,77697,2,0,L|524:64,1,79.9999952316285,8|0,3:0|0:0,0:0:0:0:
492,92,77943,1,0,0:0:0:0:
488,112,78025,1,0,0:0:0:0:
484,132,78107,1,0,0:0:0:0:
480,152,78189,1,4,3:0:0:0:
456,244,78353,1,8,3:0:0:0:
336,132,78517,1,0,0:0:0:0:
304,312,78681,5,4,3:0:0:0:
456,244,78845,1,4,3:0:0:0:
232,124,79009,2,0,L|120:152,1,79.9999952316285,8|0,3:0|0:0,0:0:0:0:
128,136,79255,1,0,0:0:0:0:
104,124,79337,2,0,L|60:104,2,39.9999976158142,0|0|4,0:0|0:0|3:0,0:0:0:0:
116,224,79665,2,0,P|124:260|152:300,1,79.9999952316285,8|0,3:0|0:0,0:0:0:0:
0,304,79992,5,4,3:0:0:0:
28,296,80074,1,0,0:0:0:0:
56,288,80156,1,4,3:0:0:0:
84,280,80238,1,0,0:0:0:0:
112,272,80320,1,8,3:0:0:0:
140,264,80402,1,0,0:0:0:0:
168,256,80484,2,0,L|220:240,1,39.9999976158142,0|0,0:0|0:0,0:0:0:0:
156,128,80648,2,0,L|104:144,1,39.9999976158142,0|0,0:0|0:0,0:0:0:0:
296,252,80812,2,0,L|348:236,1,39.9999976158142,4|0,3:0|0:0,0:0:0:0:
284,124,80976,2,0,L|232:140,1,39.9999976158142,8|0,3:0|0:0,0:0:0:0:
400,184,81140,2,0,L|456:168,1,39.9999976158142
392,72,81304,5,4,3:0:0:0:
364,76,81386,1,0,0:0:0:0:
336,80,81468,1,4,3:0:0:0:
308,76,81550,1,0,0:0:0:0:
284,64,81632,1,8,3:0:0:0:
264,48,81714,1,0,0:0:0:0:
228,48,81796,1,0,0:0:0:0:
196,60,81878,1,0,0:0:0:0:
172,84,81960,2,0,L|108:76,1,39.9999976158142
64,143,82124,2,0,L|104:148,1,39.9999976158142,4|0,3:0|0:0,0:0:0:0:
152,232,82288,2,0,L|88:224,1,39.9999976158142,8|0,3:0|0:0,0:0:0:0:
45,292,82452,2,0,L|84:296,1,39.9999976158142
224,312,82615,6,0,L|200:352,7,29.9999993562698,4|0|0|0|0|0|0|0,3:0|0:0|0:0|0:0|0:0|0:0|0:0|0:0,0:0:0:0:
320,328,82943,6,0,L|320:372,7,29.9999993562698,8|0|0|0|0|0|0|0,0:0|0:0|0:0|0:0|0:0|0:0|0:0|0:0,0:0:0:0:
420,308,83271,6,0,L|444:348,7,29.9999993562698,0|0|0|0|0|0|0|0,0:0|0:0|0:0|0:0|0:0|0:0|0:0|0:0,0:0:0:0:
480,232,83599,6,0,L|528:252,6,29.9999993562698,8|0|0|0|0|0|0,0:0|0:0|0:0|0:0|0:0|0:0|0:0,0:0:0:0:
312,156,83927,6,0,L|168:140,1,139.99999165535
156,136,84583,2,0,P|192:100|192:68,1,79.9999952316285
224,72,84992,1,0,0:0:0:0:
256,72,85074,1,0,0:0:0:0:
288,72,85156,1,2,0:0:0:0:
320,72,85238,6,0,L|472:40,1,119.999992847443,4|0,0:0|0:0,0:0:0:0:
428,80,85566,2,0,P|412:124|420:176,1,79.9999952316285,8|2,0:0|0:0,0:0:0:0:
404,332,85894,2,0,P|420:288|412:236,1,79.9999952316285,0|2,0:0|0:0,0:0:0:0:
500,208,86222,1,8,0:0:0:0:
336,212,86386,2,0,L|232:220,1,79.9999952316285,0|4,0:0|0:0,0:0:0:0:
160,224,86714,5,0,0:0:0:0:
160,224,86796,1,0,0:0:0:0:
160,224,86878,1,8,0:0:0:0:
304,320,87042,1,2,0:0:0:0:
244,132,87206,1,0,0:0:0:0:
200,328,87370,1,2,0:0:0:0:
336,212,87533,1,8,0:0:0:0:
160,224,87697,1,2,0:0:0:0:
336,212,87861,6,0,P|380:212|456:180,1,119.999992847443,4|0,0:0|0:0,0:0:0:0:
488,112,88189,2,0,P|452:104|400:128,1,79.9999952316285,8|0,0:0|0:0,0:0:0:0:
336,212,88517,1,0,0:0:0:0:
480,96,88681,2,0,P|444:88|392:112,1,79.9999952316285,0|8,0:0|0:0,0:0:0:0:
336,212,89009,1,4,0:0:0:0:
60,92,89173,5,0,0:0:0:0:
52,116,89255,1,0,0:0:0:0:
44,140,89337,1,0,0:0:0:0:
36,164,89419,1,0,0:0:0:0:
28,188,89501,2,0,L|56:300,1,79.9999952316285,8|0,0:0|0:0,0:0:0:0:
252,260,89829,1,0,0:0:0:0:
252,260,89911,1,0,0:0:0:0:
252,260,89992,2,0,P|260:304|308:352,1,79.9999952316285,0|8,0:0|0:0,0:0:0:0:
440,232,90320,1,0,0:0:0:0:
252,260,90484,5,4,0:0:0:0:
424,208,90648,1,0,0:0:0:0:
236,236,90812,1,8,0:0:0:0:
408,184,90976,1,2,0:0:0:0:
220,212,91140,1,0,0:0:0:0:
288,84,91304,1,2,0:0:0:0:
288,84,91386,1,0,0:0:0:0:
288,84,91468,2,0,P|248:64|184:52,1,79.9999952316285,8|2,0:0|0:0,0:0:0:0:
116,44,91796,5,4,0:0:0:0:
0,192,91960,1,0,0:0:0:0:
288,84,92124,1,8,0:0:0:0:
112,56,92288,1,0,0:0:0:0:
4,204,92452,1,0,0:0:0:0:
292,96,92615,1,0,0:0:0:0:
296,108,92943,1,4,0:0:0:0:
432,184,93271,5,2,0:0:0:0:
300,120,93435,2,0,P|260:124|224:141,1,79.9999952316285,8|2,0:0|0:0,0:0:0:0:
284,212,93763,1,0,0:0:0:0:
100,204,93927,2,0,P|104:165|123:130,1,79.9999952316285,2|8,0:0|0:0,0:0:0:0:
216,292,94255,1,4,0:0:0:0:
216,292,94337,1,0,0:0:0:0:
216,292,94419,6,0,L|184:348,3,39.9999976158142,0|0|0|0,0:0|0:0|0:0|0:0,0:0:0:0:
292,344,94747,2,0,L|324:400,3,39.9999976158142,8|0|0|0,0:0|0:0|0:0|0:0,0:0:0:0:
372,304,95074,2,0,L|432:296,3,39.9999976158142,0|0|0|0,0:0|0:0|0:0|0:0,0:0:0:0:
368,220,95402,1,8,0:0:0:0:
336,184,95484,1,8,0:0:0:0:
292,164,95566,1,8,0:0:0:0:
244,156,95648,1,8,0:0:0:0:
196,160,95730,6,0,L|60:140,1,119.999992847443,4|0,0:0|0:0,0:0:0:0:
56,108,96058,2,0,L|140:120,1,79.9999952316285,8|2,0:0|0:0,0:0:0:0:
248,288,96386,1,0,0:0:0:0:
504,192,96550,1,2,0:0:0:0:
196,160,96714,1,8,0:0:0:0:
408,308,96878,1,2,0:0:0:0:
360,80,97042,6,0,L|208:88,1,119.999992847443,4|0,0:0|0:0,0:0:0:0:
252,104,97370,2,0,P|276:148|268:196,1,79.9999952316285,8|0,0:0|0:0,0:0:0:0:
44,320,97697,1,8,0:0:0:0:
92,308,97779,1,8,0:0:0:0:
140,308,97861,1,8,0:0:0:0:
188,316,97943,1,8,0:0:0:0:
232,336,98025,1,8,0:0:0:0:
260,244,98189,1,8,0:0:0:0:
512,208,98353,5,4,0:0:0:0:
0,120,98681,1,12,0:0:0:0:
432,192,99009,1,4,0:0:0:0:
76,136,99173,1,4,0:0:0:0:
356,176,99501,1,4,0:0:0:0:
168,300,99992,5,4,0:0:0:0:
248,48,100320,1,8,0:0:0:0:
168,300,100484,1,8,0:0:0:0:
328,24,100812,2,0,L|356:180,1,119.999992847443,4|0,0:0|0:0,0:0:0:0:
356,176,101140,2,0,P|308:164|248:176,1,79.9999952316285,2|8,0:0|0:0,0:0:0:0:
16,192,101468,1,2,0:0:0:0:
16,192,101550,1,0,0:0:0:0:
16,192,101632,2,0,L|24:276,1,79.9999952316285,0|2,0:0|0:0,0:0:0:0:
36,376,101960,1,8,0:0:0:0:
132,248,102124,1,2,0:0:0:0:
284,300,102288,6,0,L|384:308,1,79.9999952316285
408,152,102615,2,0,L|308:144,1,79.9999952316285,8|0,0:0|0:0,0:0:0:0:
144,196,102943,2,0,L|244:204,1,79.9999952316285
268,48,103271,1,8,0:0:0:0:
244,44,103353,1,8,0:0:0:0:
220,40,103435,1,8,0:0:0:0:
196,36,103517,1,8,0:0:0:0:
172,32,103599,1,4,0:0:0:0:
0,148,104091,5,4,0:0:0:0:
28,304,104255,1,4,0:0:0:0:
184,268,104419,1,4,0:0:0:0:
156,112,104583,1,4,0:0:0:0:
156,112,104911,1,8,0:0:0:0:
196,120,104992,1,0,0:0:0:0:
236,128,105074,1,0,0:0:0:0:
276,136,105156,1,0,0:0:0:0:
316,144,105238,2,0,L|384:160,3,39.9999976158142,8|0|0|0,0:0|0:0|0:0|0:0,0:0:0:0:
336,228,105566,2,0,L|404:244,3,39.9999976158142,8|0|0|0,0:0|0:0|0:0|0:0,0:0:0:0:
360,312,105894,2,0,L|428:328,3,39.9999976158142,8|0|8|0,0:0|0:0|0:0|0:0,0:0:0:0:
96,320,106222,6,0,P|76:276|80:220,2,79.9999952316285,6|2|2,0:0|0:0|0:0,0:0:0:0:
196,248,106714,2,0,P|216:204|212:148,2,79.9999952316285,2|2|2,0:0|0:0|0:0,0:0:0:0:
52,172,107206,1,2,0:0:0:0:
188,88,107370,2,0,B|240:72|276:104|276:104|376:84,1,159.999990463257,2|2,0:0|0:0,0:0:0:0:
384,244,107861,1,2,0:0:0:0:
256,196,108025,1,2,0:0:0:0:
208,324,108189,1,2,0:0:0:0:
336,368,108353,1,0,0:0:0:0:
344,364,108517,1,2,0:0:0:0:
212,328,108681,1,2,0:0:0:0:
248,196,108845,5,2,0:0:0:0:
376,236,109009,1,2,0:0:0:0:
368,232,109173,1,2,0:0:0:0:
236,196,109337,1,2,0:0:0:0:
204,328,109501,1,2,0:0:0:0:
332,368,109665,1,2,0:0:0:0:
324,372,109829,1,2,0:0:0:0:
196,328,109992,1,2,0:0:0:0:
188,328,110320,5,2,0:0:0:0:
56,292,110484,1,2,0:0:0:0:
24,160,110648,1,2,0:0:0:0:
120,64,110812,1,2,0:0:0:0:
32,168,110976,1,2,0:0:0:0:
68,300,111140,1,2,0:0:0:0:
204,324,111304,1,2,0:0:0:0:
256,196,111468,5,2,0:0:0:0:
356,288,111632,1,2,0:0:0:0:
220,308,111796,1,2,0:0:0:0:
276,184,111960,1,2,0:0:0:0:
376,276,112124,1,2,0:0:0:0:
240,292,112288,1,2,0:0:0:0:
300,168,112452,1,2,0:0:0:0:
396,264,112615,1,2,0:0:0:0:
396,264,112943,5,2,0:0:0:0:
436,168,113107,1,2,0:0:0:0:
380,80,113271,1,2,0:0:0:0:
276,68,113435,1,2,0:0:0:0:
196,132,113599,1,2,0:0:0:0:
192,236,113763,1,2,0:0:0:0:
272,304,113927,1,2,0:0:0:0:
376,296,114091,1,2,0:0:0:0:
256,192,116058,12,4,116714,0:0:0:0:
80,92,117042,5,2,0:0:0:0:
124,192,117370,1,0,3:0:0:0:
224,228,117697,1,2,0:0:0:0:
124,192,117861,1,0,3:0:0:0:
80,92,118189,1,0,3:0:0:0:
124,192,118353,1,2,0:0:0:0:
124,192,118681,1,0,3:0:0:0:
388,192,119009,1,2,0:0:0:0:
256,96,119173,1,0,0:0:0:0:
124,192,119337,5,4,0:0:0:0:
124,192,119665,1,2,0:0:0:0:
256,96,119992,1,0,3:0:0:0:
388,192,120320,1,2,0:0:0:0:
256,96,120484,1,0,3:0:0:0:
124,192,120812,1,0,3:0:0:0:
256,96,120976,1,2,0:0:0:0:
256,96,121304,1,0,3:0:0:0:
256,96,121632,1,2,0:0:0:0:
388,192,121796,1,0,0:0:0:0:
432,92,121960,5,4,0:0:0:0:
388,192,122288,1,2,0:0:0:0:
288,228,122615,1,0,3:0:0:0:
432,92,122943,1,2,0:0:0:0:
388,192,123107,1,0,3:0:0:0:
288,228,123435,1,0,0:0:0:0:
388,192,123599,1,2,0:0:0:0:
388,192,123927,1,0,3:0:0:0:
388,192,124255,1,2,0:0:0:0:
256,328,124419,1,0,0:0:0:0:
124,192,124583,5,4,0:0:0:0:
124,192,124911,1,2,0:0:0:0:
256,328,125238,1,0,3:0:0:0:
388,192,125566,1,2,0:0:0:0:
256,328,125730,1,0,3:0:0:0:
124,192,125894,1,0,0:0:0:0:
388,192,126058,1,0,3:0:0:0:
256,328,126222,1,2,0:0:0:0:
256,328,126550,2,0,B|304:368|188:368|255:280|255:280|256:208,1,179.999996137619,0|0,3:0|0:0,0:0:0:0:
256,204,127124,1,0,0:0:0:0:
256,176,127206,5,4,0:0:0:0:
256,92,127370,1,0,0:0:0:0:
184,136,127533,1,2,0:3:0:0:
328,136,127697,1,0,0:0:0:0:
256,328,127861,1,0,3:0:0:0:
172,328,128025,1,0,0:0:0:0:
88,328,128189,2,0,P|72:296|60:248,1,59.9999987125397,2|0,0:3|3:0,0:0:0:0:
424,56,128681,1,0,0:0:0:0:
424,56,128763,1,0,0:0:0:0:
424,56,128845,2,0,P|440:88|452:136,1,59.9999987125397,2|0,0:3|0:0,0:0:0:0:
452,140,129173,1,0,3:0:0:0:
452,172,129337,1,0,0:0:0:0:
448,200,129501,1,2,0:3:0:0:
440,228,129665,1,0,0:0:0:0:
428,256,129829,6,0,P|384:276|304:280,1,119.999997425079,4|2,3:0|0:3,0:0:0:0:
84,256,130484,2,0,P|128:276|208:280,1,119.999997425079,0|2,3:0|0:3,0:0:0:0:
212,256,130976,1,0,3:0:0:0:
224,228,131140,1,0,0:0:0:0:
236,200,131304,1,0,0:0:0:0:
248,172,131468,1,2,0:3:0:0:
260,144,131796,1,0,3:0:0:0:
0,192,132124,1,2,0:3:0:0:
512,192,132288,1,0,0:0:0:0:
512,192,132370,1,0,0:0:0:0:
512,192,132452,6,0,L|380:184,1,119.999997425079,0|2,0:0|0:3,0:0:0:0:
364,180,132943,1,0,0:0:0:0:
336,176,133107,1,0,3:0:0:0:
308,172,133271,1,0,0:0:0:0:
84,52,133599,1,0,0:0:0:0:
76,80,133927,1,0,0:0:0:0:
68,108,134091,1,2,0:3:0:0:
60,136,134255,1,0,0:0:0:0:
52,164,134419,1,0,3:0:0:0:
44,192,134583,1,0,0:0:0:0:
256,356,134747,1,2,0:3:0:0:
284,352,134911,1,0,0:0:0:0:
312,348,135074,5,4,3:0:0:0:
336,344,135402,1,2,0:3:0:0:
364,340,135730,1,0,3:0:0:0:
496,192,136058,1,2,0:3:0:0:
364,340,136222,1,0,3:0:0:0:
316,216,136386,1,0,0:0:0:0:
484,324,136550,1,0,3:0:0:0:
276,304,136714,1,2,0:3:0:0:
248,284,137042,1,0,3:0:0:0:
220,260,137370,1,2,0:3:0:0:
0,192,137697,5,4,0:0:0:0:
36,184,137861,1,0,0:0:0:0:
72,176,138025,1,2,0:3:0:0:
108,168,138189,1,0,0:0:0:0:
144,160,138353,2,0,L|228:140,1,59.9999987125397,0|0,3:0|0:0,0:0:0:0:
512,192,138845,1,0,0:0:0:0:
476,180,139173,1,0,0:0:0:0:
440,172,139337,1,2,0:3:0:0:
404,164,139501,2,0,L|320:144,2,59.9999987125397,0|0|0,0:0|3:0|0:0,0:0:0:0:
256,336,139992,1,2,0:3:0:0:
116,120,140156,1,0,0:0:0:0:
52,336,140320,6,0,L|40:208,1,119.999997425079,0|2,0:0|0:3,0:0:0:0:
264,112,140976,2,0,L|276:240,1,119.999997425079,0|2,3:0|0:3,0:0:0:0:
312,240,141468,1,0,3:0:0:0:
372,164,141632,1,0,0:0:0:0:
384,344,141796,1,0,0:0:0:0:
440,272,141960,1,2,0:3:0:0:
440,272,142288,1,0,3:0:0:0:
448,236,142615,1,2,0:3:0:0:
456,200,142943,5,4,3:0:0:0:
464,164,143107,1,0,0:0:0:0:
472,128,143271,1,2,0:3:0:0:
480,92,143435,1,0,0:0:0:0:
488,56,143599,1,0,3:0:0:0:
256,112,143763,2,0,L|124:124,1,119.999997425079
76,224,144419,5,0,0:0:0:0:
112,220,144583,1,0,0:0:0:0:
148,216,144747,1,0,0:0:0:0:
184,212,144911,1,0,0:0:0:0:
220,208,145074,1,0,0:0:0:0:
256,204,145238,1,0,0:0:0:0:
292,200,145402,1,0,0:0:0:0:
328,200,145566,5,4,3:0:0:0:
336,208,145648,1,0,0:0:0:0:
344,216,145730,1,0,0:0:0:0:
352,224,145812,1,0,0:0:0:0:
360,232,145894,1,0,0:0:0:0:
368,240,145976,1,0,0:0:0:0:
376,248,146058,1,0,0:0:0:0:
384,256,146140,1,0,0:0:0:0:
392,276,146222,1,0,0:0:0:0:
396,304,146304,1,0,0:0:0:0:
392,332,146386,1,0,0:0:0:0:
372,356,146468,1,0,0:0:0:0:
340,368,146550,1,0,0:0:0:0:
304,368,146632,1,0,0:0:0:0:
256,360,146714,6,0,L|208:368,15,39.9999976158142,4|0|0|0|0|0|0|0|0|0|0|0|0|0|0|0,0:0|0:0|0:0|0:0|0:0|0:0|0:0|0:0|0:0|0:0|0:0|0:0|0:0|0:0|0:0|0:0,0:0:0:0:
128,328,147370,1,4,0:0:0:0:
68,148,147533,1,8,0:0:0:0:
188,140,147697,1,4,0:0:0:0:
20,264,147861,1,4,0:0:0:0:
228,252,148025,1,8,0:0:0:0:
68,148,148189,2,0,L|204:140,1,119.999992847443,4|0,0:0|0:0,0:0:0:0:
236,136,148517,2,0,P|228:176|248:240,1,79.9999952316285,8|2,0:0|0:0,0:0:0:0:
416,264,148845,2,0,P|422:224|414:185,1,79.9999952316285,2|0,0:0|0:0,0:0:0:0:
360,36,149173,1,8,0:0:0:0:
236,136,149337,1,2,0:3:0:0:
68,148,149501,6,0,P|72:212|96:284,1,119.999992847443
164,296,149829,2,0,P|168:256|144:204,1,79.9999952316285,8|2,0:0|0:0,0:0:0:0:
0,152,150156,2,0,P|-4:192|20:244,1,79.9999952316285,2|0,0:0|0:0,0:0:0:0:
164,296,150484,1,8,0:0:0:0:
236,136,150648,1,2,0:3:0:0:
348,252,150812,6,0,L|456:248,1,79.9999952316285,4|0,0:0|0:0,0:0:0:0:
496,104,151140,2,0,L|388:100,1,79.9999952316285,8|2,0:0|0:0,0:0:0:0:
156,220,151468,2,0,L|264:216,1,79.9999952316285,2|0,0:0|0:0,0:0:0:0:
304,72,151796,2,0,L|196:68,1,79.9999952316285,8|0,0:0|0:0,0:0:0:0:
64,60,152124,5,4,0:0:0:0:
156,220,152288,1,4,0:0:0:0:
304,72,152452,1,4,0:0:0:0:
416,184,152615,1,4,0:0:0:0:
156,220,152943,1,2,0:3:0:0:
156,220,153025,1,2,0:3:0:0:
156,220,153107,1,8,0:0:0:0:
248,348,153271,1,2,0:3:0:0:
248,348,153353,1,2,0:3:0:0:
248,348,153435,6,0,L|276:256,1,79.9999952316285,4|0,0:0|0:0,0:0:0:0:
180,140,153763,2,0,L|152:232,1,79.9999952316285,8|2,0:0|0:0,0:0:0:0:
416,184,154091,2,0,P|436:136|444:80,1,79.9999952316285,2|0,0:0|0:0,0:0:0:0:
296,40,154419,2,0,P|276:88|268:144,1,79.9999952316285,8|2,0:0|0:3,0:0:0:0:
328,268,154747,5,0,0:0:0:0:
168,248,154911,1,0,0:0:0:0:
304,164,155074,1,8,0:0:0:0:
164,88,155238,1,2,0:0:0:0:
60,208,155402,1,2,0:0:0:0:
156,336,155566,2,0,L|268:320,1,79.9999952316285,0|8,0:0|0:0,0:0:0:0:
304,164,155894,6,0,L|416:180,1,79.9999952316285,2|0,0:3|0:0,0:0:0:0:
383,175,156140,1,0,0:0:0:0:
383,175,156222,1,0,0:0:0:0:
420,332,156386,1,8,0:0:0:0:
476,184,156550,1,0,0:0:0:0:
248,312,156878,1,0,0:0:0:0:
304,164,157042,1,8,0:0:0:0:
148,200,157206,1,0,0:0:0:0:
148,200,157288,1,0,0:0:0:0:
148,200,157370,6,0,L|264:176,1,79.9999952316285
156,40,157697,1,8,0:0:0:0:
32,144,157861,1,2,0:0:0:0:
192,128,158025,1,2,0:0:0:0:
192,288,158189,1,0,0:0:0:0:
40,240,158353,1,8,0:0:0:0:
108,96,158517,1,2,0:3:0:0:
224,208,158681,6,0,L|336:200,1,79.9999952316285
464,188,159009,1,0,0:0:0:0:
224,208,159173,1,0,0:0:0:0:
224,208,159501,1,0,0:0:0:0:
464,188,159665,1,0,0:0:0:0:
464,188,159992,6,0,L|480:132,2,39.9999976158142,4|0|0,0:0|0:0|0:0,0:0:0:0:
360,312,160320,1,0,0:0:0:0:
224,208,160484,1,0,0:0:0:0:
224,208,160812,1,0,0:0:0:0:
360,312,160976,1,0,0:0:0:0:
360,312,161304,5,0,0:0:0:0:
224,208,161468,1,0,0:0:0:0:
288,60,161632,1,0,0:0:0:0:
224,208,161796,1,0,0:0:0:0:
224,208,162124,1,0,0:0:0:0:
360,312,162288,1,0,0:0:0:0:
360,312,162615,6,0,L|376:256,2,39.9999976158142,4|0|0,0:0|0:0|0:0,0:0:0:0:
224,208,162943,1,0,0:0:0:0:
108,320,163107,1,0,0:0:0:0:
108,320,163435,1,0,0:0:0:0:
224,208,163599,2,0,B|252:216|252:216|320:192,1,79.9999952316285
124,160,163927,5,8,0:3:0:0:
224,208,164091,1,2,0:3:0:0:
420,156,164255,1,2,0:0:0:0:
128,184,164419,5,8,0:3:0:0:
240,224,164583,1,2,0:3:0:0:
432,136,164747,1,2,0:0:0:0:
132,208,164911,5,4,0:0:0:0:
260,240,165074,1,0,0:0:0:0:
444,116,165238,1,2,0:0:0:0:
136,232,165402,5,4,0:0:0:0:
280,256,165566,1,0,0:0:0:0:
456,96,165730,1,2,0:0:0:0:
140,256,165894,6,0,L|148:312,2,39.9999976158142,4|0|2,0:0|0:0|0:0,0:0:0:0:
172,112,166222,1,4,0:0:0:0:
456,192,166386,1,2,0:0:0:0:
280,256,166550,5,8,0:3:0:0:
172,112,166714,1,2,0:3:0:0:
448,176,166878,1,2,0:0:0:0:
280,256,167042,5,8,0:3:0:0:
172,112,167206,1,2,0:3:0:0:
440,160,167370,1,2,0:0:0:0:
280,256,167533,5,4,0:0:0:0:
172,112,167697,1,2,0:3:0:0:
432,144,167861,1,2,0:0:0:0:
280,256,168025,5,4,0:0:0:0:
172,112,168189,1,2,0:3:0:0:
424,128,168353,1,0,0:0:0:0:
280,256,168517,5,4,0:0:0:0:
172,112,168681,1,0,0:0:0:0:
416,116,168845,1,6,0:0:0:0:
280,256,169009,5,0,0:0:0:0:
148,288,169173,6,0,L|20:280,1,119.999992847443,4|0,0:0|0:0,0:0:0:0:
0,236,169501,2,0,L|96:240,1,79.9999952316285,8|0,0:0|0:0,0:0:0:0:
359,261,169829,2,0,L|280:256,1,79.9999952316285
124,176,170156,1,8,0:0:0:0:
284,196,170320,1,2,0:0:0:0:
372,60,170484,5,2,0:0:0:0:
212,68,170648,1,0,0:0:0:0:
196,228,170812,2,0,L|208:312,1,79.9999952316285,8|0,0:0|0:0,0:0:0:0:
360,264,171140,2,0,L|372:348,1,79.9999952316285
348,184,171468,1,8,0:0:0:0:
192,148,171632,2,0,L|12:136,1,159.999990463257
32,137,172042,1,0,0:0:0:0:
32,137,172124,1,8,0:0:0:0:
72,292,172288,5,8,0:0:0:0:
96,304,172370,1,8,0:0:0:0:
120,316,172452,1,8,0:0:0:0:
276,336,172615,1,4,0:0:0:0:
348,192,172779,1,8,0:0:0:0:
204,264,172943,1,4,0:0:0:0:
204,264,173271,1,0,0:0:0:0:
348,192,173435,1,8,0:0:0:0:
252,64,173599,1,0,0:0:0:0:
124,164,173763,1,0,0:0:0:0:
272,220,173927,1,0,0:0:0:0:
332,72,174091,1,8,0:0:0:0:
428,200,174255,1,0,0:0:0:0:
428,200,174337,1,0,0:0:0:0:
428,200,174419,6,0,L|440:336,1,119.999992847443,4|0,0:0|0:0,0:0:0:0:
372,364,174747,2,0,L|364:276,1,79.9999952316285,8|2,0:0|0:0,0:0:0:0:
196,224,175074,2,0,L|204:304,1,79.9999952316285,2|0,0:0|0:0,0:0:0:0:
360,196,175402,2,0,L|352:108,1,79.9999952316285,8|0,0:0|0:0,0:0:0:0:
185,57,175730,6,0,L|192:136,1,79.9999952316285
292,264,176058,1,8,0:0:0:0:
452,288,176222,1,2,0:0:0:0:
492,132,176386,1,2,0:0:0:0:
348,200,176550,1,0,0:0:0:0:
348,40,176714,1,8,0:0:0:0:
184,56,176878,1,4,0:0:0:0:
184,56,177206,5,0,0:0:0:0:
152,136,177370,1,8,0:0:0:0:
120,216,177533,1,0,0:0:0:0:
92,296,177697,1,0,0:0:0:0:
64,372,177861,1,8,0:0:0:0:
64,372,177943,1,8,0:0:0:0:
64,372,178025,1,8,0:0:0:0:
352,276,178189,1,4,0:0:0:0:
352,276,178517,5,0,0:0:0:0:
332,116,178681,1,8,0:0:0:0:
436,236,178845,1,0,0:0:0:0:
284,188,179009,1,0,0:0:0:0:
204,308,179173,1,0,0:0:0:0:
204,308,179337,1,8,0:0:0:0:
180,304,179419,1,8,0:0:0:0:
156,300,179501,1,8,0:0:0:0:
132,296,179583,1,8,0:0:0:0:
108,292,179665,6,0,L|16:276,1,79.9999952316285,4|0,0:0|0:0,0:0:0:0:
68,124,179992,2,0,L|160:140,1,79.9999952316285,8|2,0:0|0:0,0:0:0:0:
304,100,180320,1,2,0:0:0:0:
196,216,180484,1,0,0:0:0:0:
352,248,180648,1,8,0:0:0:0:
472,140,180812,1,0,0:0:0:0:
364,20,180976,6,0,P|320:20|260:40,1,79.9999952316285
205,196,181304,2,0,P|245:196|284:188,1,79.9999952316285,8|0,0:0|0:0,0:0:0:0:
92,48,181632,2,0,L|76:176,1,119.999992847443
48,184,181960,2,0,L|36:280,1,79.9999952316285,8|0,0:0|0:0,0:0:0:0:
184,336,182288,5,0,0:0:0:0:
184,336,182370,1,0,0:0:0:0:
184,336,182452,2,0,L|272:328,2,79.9999952316285,0|8|0,0:0|0:0|0:0,0:0:0:0:
24,352,182943,1,0,0:0:0:0:
312,244,183107,1,0,0:0:0:0:
312,244,183435,1,4,0:0:0:0:
40,32,183763,5,8,0:0:0:0:
40,32,183845,1,8,0:0:0:0:
40,32,183927,1,8,0:0:0:0:
32,192,184091,1,4,0:0:0:0:
176,264,184255,1,8,0:0:0:0:
328,212,184419,1,8,0:0:0:0:
40,32,184747,1,4,0:0:0:0:
328,212,185074,5,0,0:0:0:0:
176,264,185238,2,0,L|144:352,1,79.9999952316285,8|2,0:0|0:0,0:0:0:0:
104,184,185566,2,0,L|40:268,1,79.9999952316285,2|0,0:0|0:0,0:0:0:0:
200,176,185894,1,8,0:0:0:0:
328,212,186058,2,0,L|352:272,2,39.9999976158142,0|0|0,0:0|0:0|0:0,0:0:0:0:
296,56,186386,5,0,0:0:0:0:
136,52,186550,1,8,0:0:0:0:
272,136,186714,1,0,0:0:0:0:
120,184,186878,1,0,0:0:0:0:
276,216,187042,1,0,0:0:0:0:
172,336,187206,1,8,0:0:0:0:
172,336,187533,6,0,L|324:328,1,119.999992847443
328,328,187861,2,0,L|440:320,1,79.9999952316285,8|0,0:0|0:0,0:0:0:0:
172,336,188189,1,8,0:0:0:0:
172,336,188271,1,8,0:0:0:0:
172,336,188353,1,4,0:0:0:0:
44,240,188517,1,0,0:0:0:0:
328,328,188681,1,0,0:0:0:0:
44,240,188845,5,4,0:0:0:0:
180,56,189009,1,4,0:0:0:0:
328,96,189173,1,4,0:0:0:0:
328,328,189337,1,4,0:0:0:0:
128,184,189501,2,0,B|200:236|200:236|332:252,1,179.999996137619,8|0,0:3|0:0,0:0:0:0:
468,224,189829,2,0,B|376:232|376:232|368:176|304:164,1,179.999996137619,2|0,0:3|0:0,0:0:0:0:
168,112,190156,6,0,L|260:140,1,79.9999952316285,4|2,0:0|0:0,0:0:0:0:
52,288,190484,2,0,P|24:256|8:196,1,79.9999952316285,8|2,0:0|0:0,0:0:0:0:
149,25,190812,2,0,P|122:55|108:92,1,79.9999952316285,0|4,0:0|0:0,0:0:0:0:
204,220,191140,1,8,0:0:0:0:
176,376,191304,1,0,0:0:0:0:
324,312,191468,5,4,0:0:0:0:
288,156,191632,1,2,0:0:0:0:
128,160,191796,1,8,0:0:0:0:
264,72,191960,1,2,0:0:0:0:
416,124,192124,2,0,L|432:224,1,79.9999952316285,0|4,0:0|0:0,0:0:0:0:
216,298,192452,2,0,L|204:220,1,79.9999952316285,8|0,0:0|0:0,0:0:0:0:
336,124,192779,6,0,L|352:224,1,79.9999952316285,4|2,0:0|0:0,0:0:0:0:
136,298,193107,2,0,L|123:219,1,79.9999952316285,8|2,0:0|0:0,0:0:0:0:
92,60,193435,1,0,0:0:0:0:
216,164,193599,1,0,0:0:0:0:
56,156,193763,1,8,0:0:0:0:
200,84,193927,1,4,0:0:0:0:
200,84,194255,5,4,0:0:0:0:
56,156,194419,1,8,0:0:0:0:
216,164,194583,1,4,0:0:0:0:
92,60,194747,1,4,0:0:0:0:
128,212,194911,1,4,0:0:0:0:
0,288,195074,1,8,0:0:0:0:
68,320,195156,1,8,0:0:0:0:
144,328,195238,1,8,0:0:0:0:
220,320,195320,1,8,0:0:0:0:
288,284,195402,6,0,L|424:260,1,119.999992847443,4|0,0:0|0:0,0:0:0:0:
408,188,195730,2,0,L|300:208,1,79.9999952316285,8|2,0:0|0:0,0:0:0:0:
128,212,196058,2,0,P|108:160|104:112,1,79.9999952316285,0|2,0:0|0:0,0:0:0:0:
244,72,196386,2,0,P|264:124|268:172,1,79.9999952316285,8|0,0:0|0:0,0:0:0:0:
128,212,196714,5,4,0:0:0:0:
264,148,196878,1,0,0:0:0:0:
412,188,197042,1,8,0:0:0:0:
264,148,197206,1,0,0:0:0:0:
128,212,197370,1,0,0:0:0:0:
264,148,197533,1,4,0:0:0:0:
268,176,197861,5,4,0:0:0:0:
272,200,198189,5,4,0:0:0:0:
276,224,198353,1,8,0:0:0:0:
280,248,198517,1,4,0:0:0:0:
284,272,198681,1,4,0:0:0:0:
84,192,198845,1,8,0:0:0:0:
84,192,198927,1,12,0:0:0:0:
84,192,199009,1,8,0:0:0:0:
108,360,199173,1,4,0:0:0:0:
108,360,199501,5,4,0:0:0:0:
140,352,199665,1,8,0:0:0:0:
172,344,199829,1,4,0:0:0:0:
204,336,199992,1,4,0:0:0:0:
236,328,200156,1,0,0:0:0:0:
0,288,200320,1,8,0:0:0:0:
32,280,200402,1,8,0:0:0:0:
64,272,200484,1,8,0:0:0:0:
96,264,200566,1,8,0:0:0:0:
128,256,200648,6,0,L|272:224,1,119.999992847443,4|0,0:0|0:0,0:0:0:0:
248,196,200976,2,0,L|364:212,1,79.9999952316285,8|2,0:0|0:0,0:0:0:0:
488,232,201304,1,0,0:0:0:0:
368,336,201468,1,6,0:0:0:0:
288,100,201632,1,8,0:0:0:0:
80,128,201796,1,0,0:0:0:0:
248,196,201960,6,0,L|396:176,1,119.999992847443,4|0,0:0|0:0,0:0:0:0:
448,168,202288,1,8,0:0:0:0:
164,208,202452,1,0,0:0:0:0:
72,340,202615,2,0,P|44:304|40:260,1,79.9999952316285,0|4,0:0|0:0,0:0:0:0:
140,148,202943,1,8,0:0:0:0:
16,48,203107,1,0,0:0:0:0:
28,192,203271,5,4,0:0:0:0:
432,84,203599,1,8,0:0:0:0:
92,256,203927,1,8,0:0:0:0:
348,52,204091,1,4,0:0:0:0:
180,284,204419,1,4,0:0:0:0:
264,48,204911,5,4,0:0:0:0:
268,280,205238,1,8,0:0:0:0:
180,68,205402,1,8,0:0:0:0:
352,260,205730,1,4,0:0:0:0:
40,192,206058,5,4,0:0:0:0:
132,324,206222,1,8,0:0:0:0:
236,200,206386,1,4,0:0:0:0:
384,260,206550,1,4,0:0:0:0:
484,136,206714,1,0,0:0:0:0:
348,56,206878,1,8,0:0:0:0:
192,96,207042,1,4,0:0:0:0:
328,176,207206,6,0,L|432:184,1,79.9999952316285,4|0,0:0|0:0,0:0:0:0:
280,332,207533,2,0,L|384:340,1,79.9999952316285,8|0,0:0|0:0,0:0:0:0:
184,208,207861,2,0,L|80:200,1,79.9999952316285
48,56,208189,1,8,0:0:0:0:
84,60,208271,1,8,0:0:0:0:
120,64,208353,1,8,0:0:0:0:
156,68,208435,1,8,0:0:0:0:
192,72,208517,1,12,0:0:0:0:
76,196,209009,5,4,0:0:0:0:
112,200,209173,1,4,0:0:0:0:
148,204,209337,1,4,0:0:0:0:
184,208,209501,1,4,0:0:0:0:
508,136,209829,5,0,0:0:0:0:
472,132,209911,1,0,0:0:0:0:
436,128,209993,1,0,0:0:0:0:
400,124,210075,1,0,0:0:0:0:
368,120,210156,1,0,0:0:0:0:
336,116,210238,1,0,0:0:0:0:
304,112,210320,2,0,L|252:104,8,39.9999976158142,0|0|0|0|0|0|0|0|0,0:0|0:0|0:0|0:0|0:0|0:0|0:0|0:0|0:0,0:0:0:0:
168,88,210812,1,8,0:0:0:0:
140,84,210976,1,0,0:0:0:0:
36,164,211140,5,4,0:0:0:0:
32,192,211304,1,0,0:0:0:0:
108,332,211468,1,0,0:0:0:0:
132,328,211632,1,0,0:0:0:0:
156,324,211796,1,8,0:0:0:0:
180,320,211960,1,0,0:0:0:0:
360,196,212288,2,0,L|472:176,1,79.9999952316285
336,200,212615,5,0,0:0:0:0:
312,204,212779,1,4,0:0:0:0:
288,208,212943,1,0,0:0:0:0:
264,212,213107,1,8,0:0:0:0:
240,216,213271,1,0,0:0:0:0:
116,236,213435,2,0,L|12:256,2,79.9999952316285,0|0|4,0:0|0:0|0:0,0:0:0:0:
156,120,214091,5,0,0:0:0:0:
188,108,214419,1,8,0:0:0:0:
220,96,214747,1,0,0:0:0:0:
252,84,214911,1,0,0:0:0:0:
284,72,215074,1,0,0:0:0:0:
312,60,215238,2,0,L|424:72,1,79.9999952316285,0|4,0:0|0:0,0:0:0:0:
348,192,215730,1,8,0:0:0:0:
352,224,216058,1,0,0:0:0:0:
220,96,216386,5,4,0:0:0:0:
224,128,216550,1,0,0:0:0:0:
228,160,216714,1,0,0:0:0:0:
232,192,216878,1,0,0:0:0:0:
236,224,217042,2,0,L|248:312,1,79.9999952316285,8|0,0:3|0:0,0:0:0:0:
100,308,217370,1,0,0:0:0:0:
40,252,217533,1,0,0:0:0:0:
68,176,217697,5,0,0:0:0:0:
148,188,217861,1,0,0:0:0:0:
168,264,218025,1,4,0:0:0:0:
236,304,218189,1,0,0:0:0:0:
316,296,218353,2,0,L|416:284,1,79.9999952316285,8|0,0:3|0:0,0:0:0:0:
368,212,218681,2,0,L|468:200,1,79.9999952316285
491,122,219009,6,0,L|316:148,2,159.999990463257,4|0|8,0:0|0:0|0:3,0:0:0:0:
232,104,219992,1,0,0:0:0:0:
232,104,220156,2,0,P|224:148|240:196,2,79.9999952316285,0|0|0,0:0|0:0|0:0,0:0:0:0:
276,36,220648,1,4,0:0:0:0:
356,164,220812,1,0,0:0:0:0:
248,264,220976,2,0,L|144:268,1,79.9999952316285,8|0,0:3|0:0,0:0:0:0:
64,192,221304,1,0,0:0:0:0:
64,192,221386,1,0,0:0:0:0:
64,192,221468,1,0,0:0:0:0:
64,192,221550,1,0,0:0:0:0:
64,192,221632,6,0,L|176:188,2,79.9999952316285,4|0|0,0:0|0:0|0:0,0:0:0:0:
84,116,222124,1,0,0:0:0:0:
148,64,222288,1,8,0:0:0:0:
228,52,222452,1,0,0:0:0:0:
308,64,222615,1,0,0:0:0:0:
372,112,222779,1,0,0:0:0:0:
404,184,222943,5,0,0:0:0:0:
404,264,223107,1,0,0:0:0:0:
364,332,223271,1,4,0:0:0:0:
296,376,223435,1,0,0:0:0:0:
216,380,223599,1,8,0:0:0:0:
140,360,223763,1,0,0:0:0:0:
88,296,223927,1,0,0:0:0:0:
72,216,224091,1,0,0:0:0:0:
104,144,224255,5,4,0:0:0:0:
168,96,224419,1,0,0:0:0:0:
248,88,224583,1,0,0:0:0:0:
324,116,224747,1,0,0:0:0:0:
364,184,224911,1,8,0:0:0:0:
372,264,225074,1,0,0:0:0:0:
324,328,225238,1,0,0:0:0:0:
248,348,225402,1,0,0:0:0:0:
172,328,225566,5,0,0:0:0:0:
120,268,225730,1,4,0:0:0:0:
124,188,225894,1,4,0:0:0:0:
180,128,226058,1,0,0:0:0:0:
260,116,226222,1,8,0:0:0:0:
332,152,226386,1,0,0:0:0:0:
352,228,226550,1,0,0:0:0:0:
312,296,226714,1,0,0:0:0:0:
232,312,226878,5,4,0:3:0:0:
164,272,227042,1,0,0:0:0:0:
160,192,227206,1,0,0:0:0:0:
220,136,227370,1,0,0:0:0:0:
300,144,227533,1,8,0:3:0:0:
344,212,227697,1,0,0:0:0:0:
304,284,227861,1,0,0:0:0:0:
224,272,228025,1,4,0:3:0:0:
204,196,228189,5,0,0:0:0:0:
264,144,228353,1,0,0:0:0:0:
332,184,228517,1,0,0:0:0:0:
380,248,228681,2,0,L|472:256,1,79.9999952316285,0|8,0:0|0:3,0:0:0:0:
412,112,229009,2,0,L|320:104,1,79.9999952316285
184,92,229337,2,0,L|88:84,1,79.9999952316285,0|4,0:0|0:3,0:0:0:0:
96,108,229583,5,0,0:0:0:0:
88,128,229665,1,0,0:0:0:0:
80,148,229747,1,0,0:0:0:0:
72,168,229829,1,0,0:0:0:0:
64,188,229911,1,0,0:0:0:0:
56,208,229992,1,0,0:0:0:0:
48,228,230074,1,0,0:0:0:0:
40,252,230156,2,0,L|16:308,1,39.9999976158142,8|0,0:3|0:0,0:0:0:0:
112,300,230320,2,0,L|88:356,1,39.9999976158142
212,280,230484,2,0,L|188:336,1,39.9999976158142
308,312,230648,6,0,L|296:340,12,19.9999988079071,4|0|0|0|0|0|0|0|0|0|0|0|0,0:0|0:0|0:0|0:0|0:0|0:0|0:0|0:0|0:0|0:0|0:0|0:0|0:0,0:0:0:0:
392,280,231304,1,4,0:3:0:0:
284,172,231468,1,8,0:3:0:0:
440,140,231632,1,4,0:3:0:0:
300,60,231796,1,4,0:3:0:0:
380,200,231960,1,8,0:3:0:0:
228,248,232124,6,0,B|196:256|196:256|80:244,1,119.999992847443,4|0,0:0|0:0,0:0:0:0:
28,232,232452,2,0,L|8:324,1,79.9999952316285,8|0,0:0|0:0,0:0:0:0:
88,168,232779,1,0,0:0:0:0:
248,144,232943,1,0,0:0:0:0:
328,284,233107,1,8,0:0:0:0:
456,184,233271,1,0,0:0:0:0:
344,72,233435,6,0,L|208:60,1,119.999992847443
148,92,233763,2,0,L|256:104,1,79.9999952316285,8|0,0:0|0:0,0:0:0:0:
152,240,234091,1,0,0:0:0:0:
300,300,234255,1,0,0:0:0:0:
392,168,234419,1,8,0:0:0:0:
436,324,234583,1,0,0:0:0:0:
312,220,234747,5,0,0:0:0:0:
356,64,234911,1,0,0:0:0:0:
216,140,235074,1,8,0:0:0:0:
344,44,235238,1,0,0:0:0:0:
236,164,235402,1,0,0:0:0:0:
328,32,235566,1,0,0:0:0:0:
260,176,235730,1,8,0:0:0:0:
300,20,235894,1,0,0:0:0:0:
284,180,236058,6,0,L|416:164,1,119.999992847443
436,160,236386,2,0,P|428:196|436:248,1,79.9999952316285,8|0,0:0|0:0,0:0:0:0:
324,356,236714,2,0,P|284:360|245:352,1,79.9999952316285
104,276,237042,1,8,0:0:0:0:
224,172,237206,1,0,0:0:0:0:
64,180,237370,6,0,L|72:36,1,119.999992847443
148,40,237697,2,0,L|144:124,1,79.9999952316285,8|0,0:0|0:0,0:0:0:0:
220,252,238025,2,0,L|224:168,1,79.9999952316285
316,40,238353,2,0,L|312:124,1,79.9999952316285,8|0,0:0|0:0,0:0:0:0:
456,192,238681,5,0,0:0:0:0:
368,328,238845,1,0,0:0:0:0:
300,184,239009,1,8,0:0:0:0:
144,224,239173,1,0,0:0:0:0:
44,100,239337,1,0,0:0:0:0:
32,260,239501,1,0,0:0:0:0:
132,136,239665,1,8,0:0:0:0:
240,252,239829,1,0,0:0:0:0:
400,240,239992,5,0,0:0:0:0:
452,88,240156,1,0,0:0:0:0:
240,252,240320,1,8,0:0:0:0:
452,88,240484,1,0,0:0:0:0:
452,88,240976,1,8,0:0:0:0:
292,80,241140,1,0,0:0:0:0:
364,216,241304,1,0,0:0:0:0:
240,148,241468,1,0,0:0:0:0:
224,308,241632,1,8,0:0:0:0:
80,236,241796,2,0,L|48:240,12,19.9999988079071,0|0|0|0|0|0|0|0|0|0|0|0|0,0:0|0:0|0:0|0:0|0:0|0:0|0:0|0:0|0:0|0:0|0:0|0:0|0:0,0:0:0:0:
48,196,242452,1,0,0:0:0:0:
288,176,242615,6,0,L|176:184,1,79.9999952316285
48,196,242943,1,0,0:0:0:0:
288,176,243107,1,0,0:0:0:0:
288,176,243435,1,0,0:0:0:0:
48,196,243599,1,0,0:0:0:0:
48,196,243927,6,0,L|32:252,2,39.9999976158142,4|0|0,0:0|0:0|0:0,0:0:0:0:
152,72,244255,1,0,0:0:0:0:
288,176,244418,1,0,0:0:0:0:
288,176,244746,1,0,0:0:0:0:
152,72,244910,1,0,0:0:0:0:
152,72,245238,5,0,0:0:0:0:
288,176,245402,1,0,0:0:0:0:
224,324,245566,1,0,0:0:0:0:
288,176,245730,1,0,0:0:0:0:
288,176,246058,1,0,0:0:0:0:
152,72,246222,1,0,0:0:0:0:
152,72,246550,6,0,L|136:128,2,39.9999976158142,4|0|0,0:0|0:0|0:0,0:0:0:0:
288,176,246877,1,0,0:0:0:0:
404,64,247041,1,0,0:0:0:0:
404,64,247369,1,0,0:0:0:0:
288,176,247533,2,0,B|260:168|260:168|192:192,1,79.9999952316285
388,224,247861,5,8,0:3:0:0:
288,176,248025,1,0,0:0:0:0:
92,228,248189,1,0,0:0:0:0:
384,200,248353,5,8,0:3:0:0:
272,160,248517,1,0,0:0:0:0:
80,248,248681,1,0,0:0:0:0:
380,176,248845,5,4,0:0:0:0:
252,144,249008,1,0,0:0:0:0:
68,268,249172,1,0,0:0:0:0:
376,152,249336,5,4,0:0:0:0:
232,128,249500,1,0,0:0:0:0:
56,288,249664,1,0,0:0:0:0:
372,128,249828,6,0,L|364:72,2,39.9999976158142,4|0|0,0:0|0:0|0:0,0:0:0:0:
340,272,250156,1,4,0:0:0:0:
56,192,250320,1,0,0:0:0:0:
232,128,250484,5,8,0:3:0:0:
340,272,250648,1,0,0:0:0:0:
64,208,250812,1,0,0:0:0:0:
232,128,250976,5,8,0:3:0:0:
340,272,251140,1,0,0:0:0:0:
72,224,251304,1,0,0:0:0:0:
232,128,251467,5,4,0:0:0:0:
340,272,251631,1,0,0:0:0:0:
80,240,251795,1,0,0:0:0:0:
232,128,251959,5,4,0:0:0:0:
340,272,252123,1,0,0:0:0:0:
88,256,252287,1,0,0:0:0:0:
232,128,252451,5,8,0:3:0:0:
340,272,252615,1,0,0:0:0:0:
96,268,252779,1,8,0:3:0:0:
340,272,252943,5,0,0:0:0:0:
364,96,253107,6,0,L|492:104,1,119.999992847443,4|0,0:1|0:0,0:0:0:0:
512,148,253435,2,0,L|416:144,1,79.9999952316285,8|0,0:0|0:0,0:0:0:0:
153,123,253763,2,0,L|232:128,1,79.9999952316285,0|4,0:0|0:0,0:0:0:0:
388,208,254090,1,8,0:0:0:0:
228,188,254254,1,0,0:0:0:0:
140,324,254418,5,4,0:0:0:0:
300,316,254582,1,0,0:0:0:0:
316,156,254747,2,0,L|304:72,1,79.9999952316285,8|0,0:0|0:0,0:0:0:0:
152,120,255074,2,0,L|140:36,1,79.9999952316285,0|4,0:0|0:0,0:0:0:0:
164,200,255402,1,8,0:0:0:0:
320,236,255566,2,0,L|500:248,1,159.999990463257,0|0,0:0|0:0,0:0:0:0:
480,247,255976,1,0,0:0:0:0:
480,247,256058,1,8,0:0:0:0:
440,92,256222,5,0,0:0:0:0:
416,80,256304,1,0,0:0:0:0:
392,68,256386,1,0,0:0:0:0:
236,48,256549,1,4,0:0:0:0:
164,192,256713,1,8,0:0:0:0:
308,120,256878,1,0,0:0:0:0:
148,96,257042,5,4,0:0:0:0:
64,232,257206,1,0,0:0:0:0:
172,352,257370,2,0,L|264:312,1,79.9999952316285,8|0,0:0|0:0,0:0:0:0:
384,240,257697,2,0,L|488:256,1,79.9999952316285,0|4,0:0|0:0,0:0:0:0:
424,96,258025,1,8,0:0:0:0:
272,48,258189,1,0,0:0:0:0:
116,80,258353,6,0,L|44:88,1,39.9999976158142,4|0,0:0|0:0,0:0:0:0:
116,184,258517,2,0,L|48:192,1,39.9999976158142,0|0,0:0|0:0,0:0:0:0:
244,100,258681,2,0,L|172:108,1,39.9999976158142,8|0,0:0|0:0,0:0:0:0:
244,204,258845,2,0,L|176:212,1,39.9999976158142,0|0,0:0|0:0,0:0:0:0:
380,72,259009,2,0,L|308:80,1,39.9999976158142
380,176,259173,2,0,L|312:184,1,39.9999976158142,4|0,0:0|0:0,0:0:0:0:
512,96,259337,2,0,L|440:104,1,39.9999976158142,8|0,0:0|0:0,0:0:0:0:
512,200,259501,2,0,L|444:208,1,39.9999976158142
388,320,259665,5,4,0:0:0:0:
352,328,259747,1,0,0:0:0:0:
316,332,259829,1,0,0:0:0:0:
280,328,259911,1,0,0:0:0:0:
244,320,259992,1,8,0:0:0:0:
212,300,260074,1,0,0:0:0:0:
184,276,260156,1,0,0:0:0:0:
164,244,260238,1,0,0:0:0:0:
152,212,260320,2,0,L|140:168,1,39.9999976158142
281,161,260484,2,0,L|292:200,1,39.9999976158142,4|0,0:0|0:0,0:0:0:0:
118,94,260648,2,0,L|106:50,1,39.9999976158142,8|0,0:0|0:0,0:0:0:0:
248,44,260812,2,0,L|258:82,1,39.9999976158142,0|0,0:0|0:0,0:0:0:0:
256,192,260976,12,4,262288,0:0:0:0:
136,80,262943,5,0,0:0:0:0:
144,104,263271,1,0,3:0:0:0:
148,116,263353,1,0,3:0:0:0:
152,128,263435,1,0,3:0:0:0:
156,140,263517,1,0,3:0:0:0:
160,152,263599,6,0,L|256:160,1,79.9999952316285,4|0,0:0|0:0,0:0:0:0:
336,168,263927,1,8,0:3:0:0:
248,300,264091,1,0,0:0:0:0:
204,304,264173,1,0,0:0:0:0:
160,300,264255,1,0,0:0:0:0:
120,280,264337,1,0,0:0:0:0:
92,248,264419,1,4,0:0:0:0:
60,164,264583,1,8,0:3:0:0:
336,168,264747,1,0,0:0:0:0:
220,36,264911,6,0,L|216:120,2,79.9999952316285,4|0|8,0:0|0:0|0:3,0:0:0:0:
328,44,265402,1,0,0:0:0:0:
356,48,265484,1,0,0:0:0:0:
384,56,265566,1,0,0:0:0:0:
408,68,265648,1,0,0:0:0:0:
428,88,265730,1,4,0:0:0:0:
456,296,265894,2,0,L|372:280,1,79.9999952316285,8|0,0:3|0:0,0:0:0:0:
334,142,266222,6,0,L|256:128,1,79.9999952316285,4|0,0:0|0:0,0:0:0:0:
152,104,266550,1,8,0:3:0:0:
32,116,266714,2,0,L|-16:124,1,39.9999976158142
48,204,266878,2,0,L|24:272,1,39.9999976158142
128,252,267042,2,0,L|188:348,2,79.9999952316285,4|8|0,0:0|0:3|0:0,0:0:0:0:
256,72,267533,5,4,0:0:0:0:
412,112,267697,1,0,0:0:0:0:
268,184,267861,1,8,0:3:0:0:
388,292,268025,1,0,0:0:0:0:
348,316,268107,1,0,0:0:0:0:
304,328,268189,2,0,L|232:320,1,39.9999976158142,0|0,0:0|0:0,0:0:0:0:
176,312,268353,2,0,L|80:320,2,79.9999952316285,4|8|0,0:0|0:3|0:0,0:0:0:0:
140,96,268845,6,0,L|156:200,1,79.9999952316285,4|0,0:0|0:0,0:0:0:0:
256,264,269173,2,0,L|272:160,1,79.9999952316285,8|0,0:3|0:0,0:0:0:0:
300,180,269419,1,0,0:0:0:0:
332,176,269501,1,0,0:0:0:0:
364,172,269583,1,0,0:0:0:0:
396,168,269665,1,4,0:0:0:0:
324,32,269829,1,8,0:3:0:0:
300,180,269992,1,0,0:0:0:0:
140,96,270156,6,0,L|152:212,1,79.9999952316285,4|4,0:0|0:0,0:0:0:0:
168,336,270484,2,0,L|156:220,1,79.9999952316285,8|0,0:3|0:0,0:0:0:0:
0,236,270812,1,0,0:0:0:0:
140,96,270976,1,4,0:0:0:0:
140,96,271304,5,0,0:0:0:0:
0,236,271468,1,4,0:0:0:0:
168,336,271632,2,0,L|264:328,1,79.9999952316285,4|8,0:0|0:3,0:0:0:0:
408,316,271960,2,0,L|480:340,1,39.9999976158142
436,236,272124,2,0,L|504:216,1,39.9999976158142
352,252,272288,2,0,L|264:260,2,79.9999952316285,4|8|0,0:0|0:3|0:0,0:0:0:0:
360,92,272779,5,4,0:0:0:0:
208,140,272943,1,4,0:0:0:0:
52,112,273107,1,8,0:3:0:0:
108,264,273271,1,0,0:0:0:0:
108,264,273353,1,0,0:0:0:0:
108,264,273435,2,0,L|100:300,7,19.9999988079071,0|0|0|0|0|0|0|0,0:0|0:0|0:0|0:0|0:0|0:0|0:0|0:0,0:0:0:0:
196,304,273763,2,0,L|208:336,7,19.9999988079071,8|0|0|0|0|0|0|0,0:3|0:0|0:0|0:0|0:0|0:0|0:0|0:0,0:0:0:0:
288,272,274091,6,0,L|432:264,1,119.999992847443,4|0,0:0|0:0,0:0:0:0:
488,264,274419,2,0,L|512:164,1,79.9999952316285,8|0,0:0|0:0,0:0:0:0:
360,52,274747,2,0,L|378:129,1,79.9999952316285
288,272,275074,1,8,0:0:0:0:
236,120,275238,1,0,0:0:0:0:
84,64,275402,6,0,L|72:208,1,119.999992847443
72,216,275730,2,0,L|64:312,1,79.9999952316285,8|0,0:0|0:0,0:0:0:0:
224,332,276058,1,0,0:0:0:0:
288,184,276222,1,0,0:0:0:0:
180,64,276386,1,8,0:0:0:0:
288,332,276550,1,0,0:0:0:0:
292,172,276714,5,4,0:0:0:0:
512,80,277042,1,4,0:0:0:0:
292,172,277370,1,4,0:0:0:0:
512,80,277533,1,4,0:0:0:0:
292,172,277861,1,4,0:0:0:0:
0,80,278353,1,4,0:0:0:0:
220,172,278681,1,12,0:0:0:0:
0,80,278845,1,8,0:0:0:0:
0,80,279173,6,0,L|8:168,1,79.9999952316285,4|0,0:0|0:0,0:0:0:0:
20,320,279501,1,0,0:0:0:0:
112,192,279665,1,8,0:0:0:0:
256,264,279829,1,0,0:0:0:0:
404,208,279992,2,0,L|420:108,1,79.9999952316285
224,56,280320,2,0,L|236:134,1,79.9999952316285,8|0,0:0|0:0,0:0:0:0:
432,188,280648,6,0,L|448:88,1,79.9999952316285,4|0,0:0|0:0,0:0:0:0:
192,72,280976,2,0,L|204:150,1,79.9999952316285,8|0,0:0|0:0,0:0:0:0:
456,172,281304,2,0,L|472:72,1,79.9999952316285,4|4,0:0|0:0,0:0:0:0:
164,88,281632,1,8,0:0:0:0:
96,132,281714,1,0,0:0:0:0:
28,172,281796,1,0,0:0:0:0:
96,216,281878,1,0,0:0:0:0:
164,260,281960,5,0,0:0:0:0:
236,296,282042,2,0,L|232:328,1,19.9999988079071
272,300,282124,2,0,L|276:328,1,19.9999988079071
308,296,282206,2,0,L|320:328,1,19.9999988079071
348,288,282288,2,0,L|360:312,1,19.9999988079071
388,280,282370,2,0,L|404:308,1,19.9999988079071
424,264,282452,2,0,L|448:292,1,19.9999988079071
456,244,282533,2,0,L|472:260,1,19.9999988079071
484,220,282615,2,0,L|516:232,1,19.9999988079071
496,188,282697,2,0,L|520:188,1,19.9999988079071
468,104,282779,2,0,L|456:72,1,19.9999988079071
424,108,282861,2,0,L|408:84,1,19.9999988079071
380,116,282943,2,0,L|364:88,1,19.9999988079071
344,132,283025,2,0,L|324:104,1,19.9999988079071
312,152,283107,2,0,L|292:124,1,19.9999988079071
288,176,283189,2,0,L|264:160,1,19.9999988079071
268,204,283271,6,0,L|232:208,15,19.9999988079071,0|0|0|0|0|0|0|0|0|0|0|0|0|0|0|0,0:0|0:0|0:0|0:0|0:0|0:0|0:0|0:0|0:0|0:0|0:0|0:0|0:0|0:0|0:0|0:0,0:0:0:0:
152,112,283927,2,0,L|128:96,14,19.9999988079071,0|0|0|0|0|0|0|0|0|0|0|0|0|0|0,0:0|0:0|0:0|0:0|0:0|0:0|0:0|0:0|0:0|0:0|0:0|0:0|0:0|0:0|0:0,0:0:0:0:
56,188,284583,1,4,0:0:0:0:
156,312,284747,1,0,0:0:0:0:
228,168,284911,1,8,0:0:0:0:
368,248,285074,1,0,0:0:0:0:
460,116,285238,2,0,L|472:224,1,79.9999952316285,0|4,0:0|0:0,0:0:0:0:
348,88,285566,1,8,0:0:0:0:
176,172,285730,2,0,L|280:164,1,79.9999952316285,0|4,0:0|0:0,0:0:0:0:
352,160,286058,5,8,0:0:0:0:
352,160,286140,1,8,0:0:0:0:
352,160,286222,1,8,0:0:0:0:
208,64,286386,1,4,0:0:0:0:
268,252,286550,1,0,0:0:0:0:
312,56,286714,1,4,0:0:0:0:
176,172,286877,1,8,0:0:0:0:
352,160,287041,1,0,0:0:0:0:
176,172,287206,6,0,P|132:172|56:204,1,119.999992847443,4|0,0:0|0:0,0:0:0:0:
24,272,287533,2,0,P|60:280|112:256,1,79.9999952316285,8|0,0:0|0:0,0:0:0:0:
176,172,287861,1,4,0:0:0:0:
32,288,288025,2,0,P|68:296|120:272,1,79.9999952316285,4|8,0:0|0:0,0:0:0:0:
176,172,288353,1,4,0:0:0:0:
452,292,288517,5,8,0:0:0:0:
460,268,288599,1,8,0:0:0:0:
468,244,288681,1,12,0:0:0:0:
476,220,288763,1,8,0:0:0:0:
484,196,288845,2,0,L|456:84,1,79.9999952316285,8|4,0:0|0:0,0:0:0:0:
260,124,289173,1,8,0:0:0:0:
260,124,289255,1,8,0:0:0:0:
260,124,289337,2,0,P|252:80|204:32,1,79.9999952316285,4|8,0:0|0:0,0:0:0:0:
72,152,289664,1,0,0:0:0:0:
260,124,289828,5,4,0:0:0:0:
88,176,289992,1,0,0:0:0:0:
276,148,290156,1,8,0:0:0:0:
104,200,290320,1,0,0:0:0:0:
292,172,290484,1,0,0:0:0:0:
224,300,290648,1,4,0:0:0:0:
224,300,290730,1,0,0:0:0:0:
224,300,290812,2,0,P|264:320|328:332,1,79.9999952316285,8|0,0:0|0:0,0:0:0:0:
396,340,291140,5,4,0:0:0:0:
512,192,291304,1,0,0:0:0:0:
224,300,291468,1,8,0:0:0:0:
400,328,291632,1,0,0:0:0:0:
508,180,291796,1,0,0:0:0:0:
220,288,291959,1,0,0:0:0:0:
216,276,292287,1,4,0:0:0:0:
80,200,292615,5,4,0:0:0:0:
212,264,292779,2,0,P|252:260|288:243,1,79.9999952316285,8|0,0:0|0:0,0:0:0:0:
228,172,293107,1,4,0:0:0:0:
412,180,293271,2,0,P|408:219|389:254,1,79.9999952316285,4|8,0:0|0:0,0:0:0:0:
296,92,293599,1,4,0:0:0:0:
296,92,293681,1,0,0:0:0:0:
296,92,293763,6,0,L|328:36,3,39.9999976158142,0|0|4|0,0:0|0:0|0:0|0:0,0:0:0:0:
220,40,294091,2,0,L|188:-16,3,39.9999976158142,8|0|0|0,0:0|0:0|0:0|0:0,0:0:0:0:
140,80,294419,2,0,L|80:88,3,39.9999976158142,8|4|8|4,0:0|0:0|0:0|0:0,0:0:0:0:
144,164,294746,1,8,0:0:0:0:
176,200,294828,1,8,0:0:0:0:
220,220,294910,1,8,0:0:0:0:
268,228,294992,1,8,0:0:0:0:
316,224,295074,6,0,L|452:244,1,119.999992847443,4|0,0:0|0:0,0:0:0:0:
456,276,295402,2,0,L|372:264,1,79.9999952316285,8|0,0:0|0:0,0:0:0:0:
264,96,295730,1,0,0:0:0:0:
8,192,295894,1,4,0:0:0:0:
316,224,296058,1,8,0:0:0:0:
104,76,296222,1,0,0:0:0:0:
152,304,296386,6,0,L|304:296,1,119.999992847443,4|0,0:0|0:0,0:0:0:0:
260,280,296714,2,0,P|236:236|244:188,1,79.9999952316285,8|4,0:0|0:0,0:0:0:0:
468,64,297041,1,8,0:0:0:0:
420,76,297123,1,8,0:0:0:0:
372,76,297205,1,12,0:0:0:0:
324,68,297287,1,8,0:0:0:0:
280,48,297369,1,8,0:0:0:0:
252,140,297533,1,4,0:0:0:0:
0,176,297697,5,8,0:0:0:0:
512,264,298025,1,12,0:0:0:0:
80,192,298353,1,4,0:0:0:0:
436,248,298517,1,4,0:0:0:0:
156,208,298845,1,4,0:0:0:0:
344,84,299336,5,4,0:0:0:0:
264,336,299664,1,8,0:0:0:0:
344,84,299828,1,8,0:0:0:0:
184,360,300156,2,0,L|156:204,1,119.999992847443,4|0,0:0|0:0,0:0:0:0:
156,208,300484,2,0,P|204:220|264:208,1,79.9999952316285,4|8,0:0|0:0,0:0:0:0:
496,192,300812,1,0,0:0:0:0:
496,192,300894,1,0,0:0:0:0:
496,192,300976,2,0,L|488:108,1,79.9999952316285,4|4,0:0|0:0,0:0:0:0:
476,8,301304,1,8,0:0:0:0:
380,136,301468,1,0,0:0:0:0:
228,84,301632,6,0,L|128:76,1,79.9999952316285,4|0,0:0|0:0,0:0:0:0:
104,232,301960,2,0,L|204:240,1,79.9999952316285,8|0,0:0|0:0,0:0:0:0:
368,188,302288,2,0,L|268:180,1,79.9999952316285,4|4,0:0|0:0,0:0:0:0:
244,336,302615,1,8,0:0:0:0:
268,340,302697,1,0,0:0:0:0:
292,344,302779,1,0,0:0:0:0:
316,348,302861,1,0,0:0:0:0:
340,352,302943,1,4,0:0:0:0:
512,236,303435,5,4,0:0:0:0:
484,80,303599,1,4,0:0:0:0:
328,116,303763,1,4,0:0:0:0:
356,272,303927,1,4,0:0:0:0:
356,272,304255,5,8,0:0:0:0:
316,264,304336,1,0,0:0:0:0:
276,256,304418,1,0,0:0:0:0:
236,248,304500,1,0,0:0:0:0:
196,240,304583,2,0,L|128:224,3,39.9999976158142,8|0|0|0,0:0|0:0|0:0|0:0,0:0:0:0:
176,156,304910,2,0,L|108:140,3,39.9999976158142,8|0|0|0,0:0|0:0|0:0|0:0,0:0:0:0:
152,72,305238,2,0,L|84:56,3,39.9999976158142,8|0|8|0,0:0|0:0|0:0|0:0,0:0:0:0:
360,76,305566,6,0,L|372:176,1,79.9999952316285,4|0,0:0|0:0,0:0:0:0:
448,168,305812,1,0,0:0:0:0:
448,168,305894,2,0,L|464:276,1,79.9999952316285,8|0,0:0|0:0,0:0:0:0:
316,324,306222,1,8,0:0:0:0:
164,272,306386,1,0,0:0:0:0:
320,228,306550,1,8,0:0:0:0:
212,108,306714,2,0,L|40:136,1,159.999990463257,4|0,0:0|0:0,0:0:0:0:
54,133,307124,1,0,0:0:0:0:
54,133,307206,1,8,0:0:0:0:
20,292,307370,1,0,0:0:0:0:
20,292,307452,1,0,0:0:0:0:
20,292,307533,1,8,0:0:0:0:
144,188,307697,1,0,0:0:0:0:
144,188,307779,1,0,0:0:0:0:
144,188,307861,1,8,0:0:0:0:
188,340,308025,1,0,0:0:0:0:
292,220,308189,6,0,L|316:324,1,79.9999952316285,4|4,0:0|0:0,0:0:0:0:
456,232,308517,2,0,L|432:128,1,79.9999952316285,8|0,0:0|0:0,0:0:0:0:
300,68,308845,1,8,0:0:0:0:
140,68,309009,1,0,0:0:0:0:
72,212,309173,1,8,0:0:0:0:
208,128,309337,2,0,L|368:148,1,159.999990463257,4|0,0:0|0:0,0:0:0:0:
448,152,309747,2,0,L|516:132,1,39.9999976158142,0|8,0:0|0:0,0:0:0:0:
296,256,309992,1,0,0:0:0:0:
364,300,310074,2,0,L|420:332,1,39.9999976158142,0|8,0:0|0:0,0:0:0:0:
124,280,310320,1,0,0:0:0:0:
44,288,310402,2,0,L|-4:288,1,39.9999976158142,0|8,0:0|0:0,0:0:0:0:
60,136,310648,1,0,0:0:0:0:
212,180,310812,6,0,L|320:168,1,79.9999952316285,4|4,0:0|0:0,0:0:0:0:
232,20,311140,1,8,0:0:0:0:
140,152,311304,1,0,0:0:0:0:
240,276,311468,1,8,0:0:0:0:
388,212,311632,1,0,0:0:0:0:
436,312,311796,1,8,0:0:0:0:
428,132,311960,2,0,L|256:112,1,159.999990463257,4|0,0:0|0:0,0:0:0:0:
269,113,312370,1,0,0:0:0:0:
269,113,312452,1,8,0:0:0:0:
112,92,312615,1,0,0:0:0:0:
88,252,312779,1,8,0:0:0:0:
248,276,312943,1,0,0:0:0:0:
269,113,313107,1,8,0:0:0:0:
108,108,313271,1,0,0:0:0:0:
100,268,313435,6,0,L|180:308,1,79.9999952316285,4|4,0:0|0:0,0:0:0:0:
328,260,313763,2,0,L|416:252,1,79.9999952316285,8|0,0:0|0:0,0:0:0:0:
440,96,314091,1,8,0:0:0:0:
212,212,314255,1,0,0:0:0:0:
364,164,314419,1,8,0:0:0:0:
176,64,314583,1,4,0:0:0:0:
188,236,314911,5,4,0:0:0:0:
396,172,315074,1,8,0:0:0:0:
140,44,315238,1,4,0:0:0:0:
164,260,315566,5,4,0:0:0:0:
424,176,315730,1,8,0:0:0:0:
108,24,315894,1,4,0:0:0:0:
32,252,316058,6,0,B|40:296|40:296|108:344,1,119.999997425079,4|4,0:0|0:0,0:0:0:0:
308,356,316386,2,0,P|332:294|340:236,1,119.999997425079,8|4,0:0|0:0,0:0:0:0:
196,144,316714,2,0,P|171:205|164:264,1,119.999997425079,8|4,0:0|0:0,0:0:0:0:
308,356,317042,1,8,0:0:0:0:
424,176,317206,2,0,B|364:180|348:244|348:244|284:268|200:224,1,239.999994850159,4|4,0:0|0:0,0:0:0:0:
221,234,317615,1,0,0:0:0:0:
221,234,317697,1,8,0:0:0:0:
40,140,317861,1,4,0:0:0:0:
88,340,318025,1,8,0:0:0:0:
136,140,318189,1,4,0:0:0:0:
332,76,318353,1,8,0:0:0:0:
292,276,318517,1,4,0:0:0:0:
136,140,318681,6,0,L|124:268,1,119.999997425079,4|4,0:0|0:0,0:0:0:0:
304,156,319009,2,0,L|292:284,1,119.999997425079,8|4,0:0|0:0,0:0:0:0:
488,340,319337,1,8,0:0:0:0:
468,136,319501,1,4,0:0:0:0:
368,228,319665,1,8,0:0:0:0:
32,192,319829,2,0,B|104:128|104:128|188:172|256:80,1,239.999994850159,4|4,0:0|0:0,0:0:0:0:
148,0,320320,1,8,0:0:0:0:
132,244,320484,2,0,L|120:368,1,119.999997425079,4|8,0:0|0:0,0:0:0:0:
324,328,320812,1,4,0:0:0:0:
200,168,320976,1,8,0:0:0:0:
404,152,321140,1,4,0:0:0:0:
376,24,321304,6,0,P|316:52|276:104,1,119.999997425079,4|4,0:0|0:0,0:0:0:0:
324,327,321632,2,0,P|378:304|418:259,1,119.999997425079,8|4,0:0|0:0,0:0:0:0:
200,168,321960,2,0,L|128:132,1,59.9999987125397,8|0,0:0|0:0,0:0:0:0:
56,92,322124,1,4,0:0:0:0:
64,296,322288,1,8,0:0:0:0:
324,328,322452,2,0,P|396:256|372:128,1,239.999994850159,4|4,0:0|0:0,0:0:0:0:
292,64,322861,2,0,L|204:48,1,59.9999987125397,0|8,0:0|0:0,0:0:0:0:
88,172,323107,2,0,L|16:204,2,59.9999987125397,4|0|8,0:0|0:0|0:0,0:0:0:0:
208,336,323435,1,4,0:0:0:0:
220,132,323599,1,8,0:0:0:0:
412,212,323763,1,4,0:0:0:0:
216,256,323927,6,0,L|52:248,1,119.999997425079,8|4,0:0|0:0,0:0:0:0:
104,44,324255,2,0,L|268:52,1,119.999997425079,8|4,0:0|0:0,0:0:0:0:
428,64,324583,1,8,0:0:0:0:
316,236,324747,1,4,0:0:0:0:
168,216,324911,1,8,0:0:0:0:
104,44,325074,2,0,P|232:44|340:136,1,239.999994850159,4|4,0:0|0:0,0:0:0:0:
168,216,325566,1,8,0:0:0:0:
268,36,325730,2,0,P|368:132|376:264,1,239.999994850159,4|4,0:0|0:0,0:0:0:0:
344,324,326140,1,0,0:0:0:0:
244,340,326222,1,8,0:0:0:0:
60,248,326386,1,4,0:0:0:0:
256,192,326550,1,4,0:0:0:0:
256,192,326714,12,0,337206,0:0:0:0:
256,192,337370,5,0,0:0:0:0:
