osu file format v13

[General]
AudioFilename: Secret Sister Complex.mp3
AudioLeadIn: 2000
PreviewTime: 305454
Countdown: 0
SampleSet: Soft
StackLeniency: 0.7
Mode: 0
LetterboxInBreaks: 0
WidescreenStoryboard: 0

[Editor]
Bookmarks: 73493,111140,202121
DistanceSpacing: 1
BeatDivisor: 8
GridSize: 4
TimelineZoom: 4.899998

[Metadata]
Title:Secret Sister Complex
TitleUnicode:Secret Sister Complex
Artist:Halozy
ArtistUnicode:Halozy
Creator:moonlightleaf
Version:Flandre Scarlet
Source:Touhou
Tags:U.N. Owen was her? Remilia Ritsuka Sumijun
BeatmapID:293193
BeatmapSetID:112941

[Difficulty]
HPDrainRate:7
CircleSize:4
OverallDifficulty:7
ApproachRate:8
SliderMultiplier:1.8
SliderTickRate:2

[Events]
//Background and Video events
0,0,"Flandre-Scarlet.jpg",0,0
//Break Periods
2,254086,265685
//Storyboard Layer 0 (Background)
//Storyboard Layer 1 (Fail)
//Storyboard Layer 2 (Pass)
//Storyboard Layer 3 (Foreground)
//Storyboard Sound Samples
//Background Colour Transformations
3,100,255,255,255

[TimingPoints]
1337,392.156862745098,4,2,1,50,1,0
1337,-166.666666666667,4,2,1,50,0,0
6042,-166.666666666667,4,2,1,70,0,0
7611,-166.666666666667,4,2,1,50,0,0
13886,-166.666666666667,4,1,0,50,0,0
15454,-100,4,1,0,50,0,0
18101,-100,4,1,0,65,0,0
18395,-100,4,1,0,80,0,0
18689,-100,4,2,1,70,0,0
43689,-100,4,1,0,60,0,0
45258,-100,4,2,1,50,0,0
59180,-100,4,2,1,60,0,0
83493,-100,4,2,1,50,0,0
84474,-100,4,2,1,60,0,0
95552,-100,4,2,1,50,0,0
97023,-100,4,2,1,60,0,0
109572,-100,4,1,0,60,0,0
109670,-100,4,2,1,60,0,0
111140,-100,4,2,1,60,0,1
135454,-142.857142857143,4,2,1,60,0,0
137023,-100,4,2,1,60,0,1
137807,-100,4,2,1,60,0,1
138003,-100,4,2,1,60,0,0
148787,-100,4,2,1,50,0,0
150356,-100,4,2,1,60,0,1
161337,-100,4,2,1,50,0,1
162905,-100,4,2,1,60,0,0
168591,-100,4,2,1,50,0,0
169180,-100,4,2,1,60,0,0
173886,-166.666666666667,4,2,1,60,0,0
174670,-100,4,2,1,50,0,0
175454,-100,4,2,1,60,0,0
181337,-100,4,2,1,50,0,0
181729,-100,4,2,1,60,0,0
186533,-100,4,2,1,50,0,0
188003,-100,4,2,1,60,0,0
200552,-100,4,1,0,60,0,0
202121,-100,4,2,1,60,0,1
220160,-100,4,2,1,50,0,1
220944,-100,4,2,1,60,0,1
226435,-100,4,2,1,60,0,0
228787,-100,4,2,1,60,0,1
229180,-100,4,2,1,60,0,0
239768,-100,4,2,1,50,0,1
241336,-100,4,2,1,60,0,1
252317,-100,4,2,1,50,0,1
253886,-100,4,1,0,50,0,0
266042,-142.857142857143,4,2,1,60,0,0
268787,-166.666666666667,4,2,1,60,0,0
269180,-166.666666666667,4,2,1,5,0,0
269327,-142.857142857143,4,2,1,60,0,0
280454,-100,4,2,1,60,0,0
304082,-100,4,1,0,50,0,0
304278,-100,4,2,1,35,0,0
305650,-100,4,2,1,60,0,1
329964,-100,4,2,1,60,0,0
332317,-100,4,2,1,60,0,1
332709,-100,4,2,1,60,0,0
343297,-100,4,2,1,50,0,1
344866,-100,4,2,1,60,0,1
345258,-100,4,2,1,60,0,0
355846,-100,4,2,1,50,0,0
357415,-100,4,1,0,50,0,0

[Colours]
Combo1 : 196,173,17
Combo2 : 255,108,255
Combo3 : 85,255,255
SliderBorder : 255,255,255

[HitObjects]
364,192,1337,5,2,0:0:0:0:
224,152,1729,1,0,0:0:0:0:
80,136,2121,2,0,P|99:183|146:221,1,107.999996704102,2|0,0:0|0:0,0:0:0:0:
286,235,2709,2,0,P|265:185|224:152,1,107.999996704102,2|0,0:0|0:0,0:0:0:0:
142,219,3297,1,0,0:0:0:0:
168,308,3493,1,0,0:0:0:0:
256,336,3689,1,0,0:0:0:0:
224,152,4082,1,2,0:0:0:0:
384,72,4474,5,2,0:0:0:0:
384,160,4670,1,0,0:0:0:0:
304,112,4866,1,2,0:0:0:0:
304,200,5062,1,0,0:0:0:0:
224,152,5258,1,2,0:0:0:0:
224,240,5454,1,2,0:0:0:0:
228,260,5552,1,2,0:0:0:0:
232,280,5650,1,2,0:0:0:0:
140,336,5846,1,0,0:0:0:0:
140,336,6042,5,2,0:0:0:0:
116,144,6435,1,2,0:0:0:0:
320,188,6827,1,2,0:0:0:0:
320,188,7219,2,0,L|320:256,1,53.9999983520508,2|0,0:0|0:0,0:0:0:0:
248,256,7611,2,0,P|208:216|136:216,1,107.999996704102,2|0,0:0|0:0,0:0:0:0:
24,224,8395,5,2,0:0:0:0:
168,296,8591,1,0,0:0:0:0:
24,312,8787,1,0,0:0:0:0:
72,152,8984,2,0,P|107:127|169:110,1,107.999996704102,2|0,0:0|0:0,0:0:0:0:
256,160,9572,1,0,0:0:0:0:
256,248,9768,1,0,0:0:0:0:
342,109,9964,2,0,P|395:122|440:152,1,107.999996704102,2|2,0:0|0:0,0:0:0:0:
256,160,10748,5,2,0:0:0:0:
256,248,10944,1,0,0:0:0:0:
168,212,11140,2,0,L|159:158,1,53.9999983520508,2|0,0:0|0:0,0:0:0:0:
64,136,11533,1,0,0:0:0:0:
64,240,11729,1,2,0:0:0:0:
64,240,11827,1,2,0:0:0:0:
64,240,11925,1,2,0:0:0:0:
152,304,12121,1,0,0:0:0:0:
256,288,12317,5,2,0:0:0:0:
352,248,12513,1,0,0:0:0:0:
248,232,12709,1,0,0:0:0:0:
344,192,12905,1,0,0:0:0:0:
240,176,13101,1,0,0:0:0:0:
336,136,13297,1,0,0:0:0:0:
232,120,13493,1,0,0:0:0:0:
328,80,13689,1,0,0:0:0:0:
224,64,13886,5,4,0:0:0:0:
248,320,15454,6,0,L|200:320,2,45,4|4|4,0:0|0:0|0:0,0:0:0:0:
364,319,15846,2,0,P|396:289|419:250,1,90,4|4,0:0|0:0,0:0:0:0:
456,120,16238,1,4,0:0:0:0:
336,28,16533,1,4,0:0:0:0:
192,68,16827,1,4,0:0:0:0:
136,152,17023,5,4,0:0:0:0:
136,152,17121,1,4,0:0:0:0:
136,152,17219,1,4,0:0:0:0:
224,160,17415,1,4,0:0:0:0:
240,248,17611,1,4,0:0:0:0:
160,288,17807,1,4,0:0:0:0:
264,160,18101,1,0,0:0:0:0:
304,312,18395,1,0,0:0:0:0:
304,312,18591,6,0,L|400:312,1,90,4|0,0:0|0:0,0:0:0:0:
232,360,18984,2,0,L|136:360,1,90,2|0,0:0|0:0,0:0:0:0:
288,208,19376,2,0,L|288:64,2,135,0|0|2,0:0|0:0|0:0,0:0:0:0:
452,104,20160,2,2,P|414:80|370:71,1,90
206,175,20552,2,2,P|244:199|288:208,1,90
400,232,20944,2,0,P|442:244|475:275,2,90,0|0|2,0:0|0:0|0:0,0:0:0:0:
220,256,21533,1,0,0:0:0:0:
104,144,21729,5,2,0:0:0:0:
168,80,21925,1,0,0:0:0:0:
256,124,22121,1,2,0:0:0:0:
324,188,22317,1,0,0:0:0:0:
408,144,22513,1,2,0:0:0:0:
344,80,22709,1,0,0:0:0:0:
256,124,22905,1,2,0:0:0:0:
188,188,23101,5,0,0:0:0:0:
136,256,23297,1,2,0:0:0:0:
212,320,23493,1,0,0:0:0:0:
376,256,23689,1,2,0:0:0:0:
300,320,23886,1,0,0:0:0:0:
256,236,24082,1,2,0:0:0:0:
256,124,24278,2,0,L|256:34,2,90,0|2|0,0:0|0:0|0:0,0:0:0:0:
142,81,24866,6,0,B|104:120|168:224|143:255,2,180,2|2|2,0:0|0:0|0:0,0:0:0:0:
256,36,25846,1,0,0:0:0:0:
256,124,26042,1,2,0:0:0:0:
368,80,26238,6,0,B|408:120|344:224|376:272,2,180,2|0|0,0:0|0:0|0:0,0:0:0:0:
256,124,27218,1,2,0:0:0:0:
256,204,27415,1,0,0:0:0:0:
256,284,27611,2,0,L|256:336|256:376,1,90,2|0,0:0|0:0,0:0:0:0:
168,272,28003,6,0,P|144:186|162:98,2,180,2|2|2,0:0|0:0|0:0,0:0:0:0:
256,204,28984,1,0,0:0:0:0:
256,52,29180,1,0,0:0:0:0:
350,98,29376,2,0,P|367:186|344:272,2,180,2|0|0,0:0|0:0|0:0,0:0:0:0:
256,52,30356,1,2,0:0:0:0:
164,100,30552,1,0,0:0:0:0:
80,320,30944,5,0,0:0:0:0:
72,296,31042,1,0,0:0:0:0:
72,272,31140,1,12,0:0:0:0:
104,188,31337,1,0,0:0:0:0:
60,112,31533,2,0,P|28:142|16:188,1,90,8|0,0:0|0:0,0:0:0:0:
179,151,31925,2,0,P|224:149|256:119,1,90,0|0,0:0|0:0,0:0:0:0:
347,89,32317,2,0,P|326:50|288:28,1,90,8|0,0:0|0:0,0:0:0:0:
184,64,32709,5,8,0:0:0:0:
196,248,32905,1,0,0:0:0:0:
256,116,33101,1,8,0:0:0:0:
268,300,33297,1,0,0:0:0:0:
180,152,33493,2,0,B|132:168|112:208,1,90,8|0,0:0|0:0,0:0:0:0:
128,304,33886,2,0,B|176:288|196:248,1,90,8|0,0:0|0:0,0:0:0:0:
112,207,34278,6,0,L|22:207,1,90,4|0,0:0|0:0,0:0:0:0:
108,88,34670,1,8,0:0:0:0:
180,152,34866,1,0,0:0:0:0:
272,196,35062,2,0,P|311:173|342:140,1,90,0|0,0:0|0:0,0:0:0:0:
249,96,35454,2,0,P|210:119|180:152,1,90,8|0,0:0|0:0,0:0:0:0:
196,248,35846,5,0,0:0:0:0:
336,316,36042,1,0,0:0:0:0:
391,168,36238,1,8,0:0:0:0:
249,96,36435,1,0,0:0:0:0:
272,196,36631,2,0,B|340:232|340:232|392:264|437:235,1,180,0|8,0:0|0:0,0:0:0:0:
488,128,37219,5,0,0:0:0:0:
488,128,37317,1,0,0:0:0:0:
488,128,37415,2,0,P|466:89|426:69,1,90,4|0,0:0|0:0,0:0:0:0:
310,37,37807,2,0,P|270:57|248:96,1,90,8|0,0:0|0:0,0:0:0:0:
209,254,38199,2,0,P|249:234|272:196,2,90,8|0|8,0:0|0:0|0:0,0:0:0:0:
81,233,38787,1,0,0:0:0:0:
81,233,38984,1,8,0:0:0:0:
48,120,39180,5,0,0:0:0:0:
132,40,39376,1,8,0:0:0:0:
236,88,39572,1,0,0:0:0:0:
389,70,39768,2,0,P|355:43|311:35,1,90,8|0,0:0|0:0,0:0:0:0:
192,168,40160,2,0,P|220:201|263:209,1,90,8|0,0:0|0:0,0:0:0:0:
390,71,40552,6,0,P|345:74|310:101,1,90,4|0,0:0|0:0,0:0:0:0:
268,280,40944,2,0,P|312:276|347:249,1,90,8|0,0:0|0:0,0:0:0:0:
260,144,41337,1,8,0:0:0:0:
144,224,41533,2,0,P|128:268|132:324,2,90,0|8|0,0:0|0:0|0:0,0:0:0:0:
208,77,42121,6,0,P|244:102|260:144,1,90,8|0,0:0|0:0,0:0:0:0:
268,280,42513,2,0,P|232:255|216:213,1,90,8|0,0:0|0:0,0:0:0:0:
312,196,42905,2,0,P|349:170|367:129,1,90,8|0,0:0|0:0,0:0:0:0:
344,48,43297,2,0,P|307:74|289:115,1,90,8|0,0:0|0:0,0:0:0:0:
268,280,43689,1,4,0:0:0:0:
206,98,45258,5,4,0:0:0:0:
172,104,45356,1,0,0:0:0:0:
144,116,45454,1,0,0:0:0:0:
120,136,45552,1,0,0:0:0:0:
108,164,45650,1,0,0:0:0:0:
100,196,45748,1,0,0:0:0:0:
104,228,45846,1,0,0:0:0:0:
116,256,45944,1,0,0:0:0:0:
136,280,46042,2,0,P|184:320|272:328,2,135,2|2|2,0:0|0:0|0:0,0:0:0:0:
108,164,46827,5,4,0:0:0:0:
228,232,47023,1,0,0:0:0:0:
324,360,47219,2,0,B|339:316|307:276,1,90,8|0,0:0|0:0,0:0:0:0:
268,152,47611,1,0,0:0:0:0:
376,172,47807,1,2,0:0:0:0:
376,172,47905,1,2,0:0:0:0:
376,173,48003,2,0,B|389:133|357:88,1,90,8|2,0:0|0:0,0:0:0:0:
256,72,48395,5,0,0:0:0:0:
208,236,48591,1,0,0:0:0:0:
328,336,48788,1,8,0:0:0:0:
376,172,48984,1,0,0:0:0:0:
204,316,49180,2,0,P|133:267|148:183,1,180,2|8,0:0|0:0,0:0:0:0:
506,242,49964,6,0,P|483:203|448:176,1,90,8|0,0:0|0:0,0:0:0:0:
280,175,50356,2,0,P|318:152|362:143,1,90,8|0,0:0|0:0,0:0:0:0:
416,264,50748,1,0,0:0:0:0:
336,304,50944,1,0,0:0:0:0:
336,304,51042,1,2,0:0:0:0:
336,304,51140,1,8,0:0:0:0:
244,272,51337,1,0,0:0:0:0:
208,184,51533,5,0,0:0:0:0:
72,128,51729,1,0,0:0:0:0:
216,96,51925,1,8,0:0:0:0:
120,200,52121,1,0,0:0:0:0:
136,64,52317,1,8,0:0:0:0:
280,176,52513,5,0,0:0:0:0:
184,304,52709,1,8,0:0:0:0:
184,304,53101,6,0,L|184:214,1,90,4|0,0:0|0:0,0:0:0:0:
184,172,53395,1,0,0:0:0:0:
160,140,53493,2,0,B|73:114,1,90,8|0,0:0|0:0,0:0:0:0:
80,252,53886,2,0,L|96:204,2,45
76,292,54180,1,2,0:0:0:0:
92,319,54278,2,0,P|120:352|176:372,1,90,2|2,0:0|0:0,0:0:0:0:
264,320,54670,5,0,0:0:0:0:
184,216,54866,1,0,0:0:0:0:
320,192,55062,2,0,P|356:217|381:254,1,90,8|0,0:0|0:0,0:0:0:0:
184,216,55454,2,0,P|147:190|122:153,1,90,8|0,0:0|0:0,0:0:0:0:
320,88,55846,1,8,0:0:0:0:
320,192,56042,1,0,0:0:0:0:
231,27,56238,6,0,P|186:34|148:56,1,90,4|0,0:0|0:0,0:0:0:0:
85,230,56631,2,0,P|86:185|104:144,1,90,8|0,0:0|0:0,0:0:0:0:
288,152,57023,1,0,0:0:0:0:
244,248,57219,1,2,0:0:0:0:
244,248,57317,1,2,0:0:0:0:
244,248,57415,1,8,0:0:0:0:
188,152,57611,1,0,0:0:0:0:
328,72,57807,5,2,0:0:0:0:
360,80,57905,1,2,0:0:0:0:
388,96,58003,1,2,0:0:0:0:
412,116,58101,1,2,0:0:0:0:
428,140,58199,1,2,0:0:0:0:
444,168,58297,1,2,0:0:0:0:
452,200,58395,2,0,P|460:272|440:340,2,135,2|4|4,0:0|0:0|0:0,0:0:0:0:
314,266,59180,5,2,0:0:0:0:
314,266,59278,1,2,0:0:0:0:
314,266,59376,1,4,0:0:0:0:
256,160,59572,1,0,0:0:0:0:
183,104,59768,2,0,P|166:188|230:245,1,180,8|0,0:0|0:0,0:0:0:0:
314,266,60356,1,2,0:0:0:0:
314,266,60454,2,0,B|328:216|304:176|256:160,1,135,2|2,0:0|0:0,0:0:0:0:
93,167,60944,5,0,0:0:0:0:
230,245,61140,1,0,0:0:0:0:
266,76,61336,2,0,P|222:81|184:104,1,90,8|0,0:0|0:0,0:0:0:0:
72,248,61729,2,0,P|116:242|154:220,1,90,8|0,0:0|0:0,0:0:0:0:
266,75,62121,2,0,P|310:81|348:104,1,90,8|0,0:0|0:0,0:0:0:0:
424,188,62513,5,0,0:0:0:0:
395,345,62709,1,2,0:0:0:0:
325,201,62905,1,10,0:0:0:0:
467,276,63101,1,0,0:0:0:0:
308,298,63297,1,0,0:0:0:0:
424,188,63493,2,0,L|456:152,2,45,2|2|10,0:0|0:0|0:0,0:0:0:0:
308,298,63886,1,0,0:0:0:0:
172,260,64082,5,0,0:0:0:0:
88,328,64278,1,0,0:0:0:0:
152,164,64474,1,8,0:0:0:0:
68,232,64670,1,0,0:0:0:0:
192,356,64866,5,0,0:0:0:0:
308,298,65062,1,0,0:0:0:0:
172,260,65258,1,8,0:0:0:0:
288,202,65454,1,0,0:0:0:0:
407,111,65650,6,0,P|444:192|418:276,1,180,4|8,0:0|0:0,0:0:0:0:
308,298,66238,1,0,0:0:0:0:
244,180,66435,1,0,0:0:0:0:
148,88,66631,1,0,0:0:0:0:
120,92,66729,1,2,0:0:0:0:
99,104,66827,2,0,P|64:136|50:177,1,90,2|2,0:0|0:0,0:0:0:0:
88,296,67219,5,0,0:0:0:0:
200,236,67415,1,0,0:0:0:0:
240,356,67611,1,8,0:0:0:0:
352,296,67807,1,0,0:0:0:0:
452,292,68003,2,0,P|413:215|327:198,1,180,0|8,0:0|0:0,0:0:0:0:
327,197,68787,5,4,0:0:0:0:
272,272,68984,1,2,0:0:0:0:
187,311,69180,2,0,P|148:292|125:254,1,90,10|0,0:0|0:0,0:0:0:0:
80,176,69572,1,8,0:0:0:0:
80,92,69768,2,0,B|80:36,2,45,2|2|8,0:0|0:0|0:0,0:0:0:0:
125,254,70160,1,0,0:0:0:0:
196,208,70356,5,2,0:0:0:0:
228,192,70454,1,2,0:0:0:0:
256,172,70552,1,2,0:0:0:0:
280,144,70650,1,2,0:0:0:0:
300,116,70748,1,2,0:0:0:0:
308,80,70846,1,2,0:0:0:0:
304,44,70944,2,0,B|344:28|400:44|432:76,2,135,0|4|4,0:0|0:0|0:0,0:0:0:0:
312,332,71925,5,4,0:0:0:0:
196,208,72121,1,0,0:0:0:0:
296,240,72317,2,0,P|336:220|367:188,1,90,2|0,0:0|0:0,0:0:0:0:
184,116,72709,2,0,P|144:136|113:168,1,90,2|0,0:0|0:0,0:0:0:0:
132,284,73101,1,0,0:0:0:0:
196,208,73297,1,0,0:0:0:0:
260,284,73493,1,2,0:0:0:0:
353,284,73689,1,0,0:0:0:0:
353,284,73886,6,0,B|404:288|428:244,1,90,2|0,0:0|0:0,0:0:0:0:
260,284,74278,2,0,B|209:287|185:244,1,90,0|0,0:0|0:0,0:0:0:0:
262,192,74670,2,0,B|352:192,1,90,0|2,0:0|0:0,0:0:0:0:
216,104,75062,6,0,P|176:80|128:64,1,90,4|0,0:0|0:0,0:0:0:0:
60,196,75454,1,0,0:0:0:0:
141,321,75650,2,0,P|181:300|216:272,1,90,4|0,0:0|0:0,0:0:0:0:
320,192,76042,1,2,0:0:0:0:
190,192,76238,6,0,B|100:192,1,90,2|0,0:0|0:0,0:0:0:0:
216,104,76631,1,2,0:0:0:0:
320,76,76827,1,2,0:0:0:0:
396,152,77023,1,2,0:0:0:0:
368,256,77219,1,2,0:0:0:0:
264,284,77415,1,0,0:0:0:0:
264,192,77611,5,2,0:0:0:0:
236,192,77709,1,0,0:0:0:0:
212,192,77807,1,0,0:0:0:0:
188,192,77905,1,0,0:0:0:0:
164,192,78003,1,0,0:0:0:0:
140,192,78101,1,0,0:0:0:0:
116,192,78199,1,4,0:0:0:0:
72,276,78395,6,0,B|32:252|24:204,1,90,2|0,0:0|0:0,0:0:0:0:
176,192,78787,1,0,0:0:0:0:
204,340,78984,2,0,B|249:331|273:288,1,90,0|2,0:0|2:0,0:0:0:0:
344,204,79376,1,2,0:0:0:0:
392,100,79572,2,0,L|420:64,2,45
280,168,79964,5,2,0:0:0:0:
116,168,80160,1,2,0:0:0:0:
200,120,80356,1,0,0:0:0:0:
200,298,80552,2,0,L|200:208,1,90,2|0,0:0|0:0,0:0:0:0:
120,316,80944,1,2,0:0:0:0:
280,316,81140,1,0,0:0:0:0:
426,247,81337,6,0,P|436:203|428:160,1,90,4|0,0:0|0:0,0:0:0:0:
396,68,81729,1,2,0:0:0:0:
298,72,81925,2,0,P|288:115|296:159,1,90,4|0,0:0|0:0,0:0:0:0:
348,264,82317,1,0,0:0:0:0:
428,160,82513,5,2,0:0:0:0:
296,159,82709,1,0,0:0:0:0:
348,264,82905,1,8,0:0:0:0:
296,160,83101,2,0,P|260:186|238:225,1,90,0|2,0:0|0:0,0:0:0:0:
308,347,83493,6,0,P|374:352|425:311,1,135,0|8,0:0|0:0,0:0:0:0:
448,272,83886,1,0,0:0:0:0:
364,176,84082,1,8,0:0:0:0:
268,80,84278,5,8,0:0:0:0:
268,80,84376,1,8,0:0:0:0:
268,80,84474,2,0,B|218:78|187:114,1,90,4|0,0:0|0:0,0:0:0:0:
40,184,84866,1,2,0:0:0:0:
96,112,85062,1,2,0:0:0:0:
95,111,85160,2,0,P|131:167|119:232,1,135,2|0,0:0|0:0,0:0:0:0:
64,312,85650,1,2,0:0:0:0:
40,184,85846,1,0,0:0:0:0:
168,159,86042,1,0,0:0:0:0:
208,244,86238,6,0,B|200:296|160:317,2,90,0|2|0,0:0|0:0|0:0,0:0:0:0:
112,234,86827,1,0,0:0:0:0:
168,158,87023,2,0,P|210:147|256:160,1,90,2|0,0:0|0:0,0:0:0:0:
295,260,87415,1,0,0:0:0:0:
316,347,87611,6,0,P|233:325|207:243,1,180,4|2,0:0|0:0,0:0:0:0:
295,260,88199,2,0,P|379:277|411:358,2,180,4|0|0,0:0|0:0|0:0,0:0:0:0:
224,320,89180,1,0,0:0:0:0:
172,200,89376,1,2,0:0:0:0:
152,296,89572,1,2,0:0:0:0:
100,176,89768,2,0,L|65:92,2,90,2|0|0,0:0|0:0|0:0,0:0:0:0:
224,248,90356,5,0,0:0:0:0:
244,232,90454,1,0,0:0:0:0:
268,216,90552,1,0,0:0:0:0:
288,200,90650,1,0,0:0:0:0:
312,184,90748,1,4,0:0:0:0:
424,166,90944,5,0,0:0:0:0:
424,256,91140,2,0,B|424:144,1,90,2|0,0:0|0:0,0:0:0:0:
424,72,91533,1,2,0:0:0:0:
299,106,91729,2,0,B|304:56|344:32,1,90,2|2,0:0|0:0,0:0:0:0:
424,166,92121,1,0,0:0:0:0:
299,106,92317,6,0,P|248:92|204:96,1,90
100,120,92709,1,2,0:0:0:0:
40,216,92905,1,2,0:0:0:0:
40,216,93003,2,0,P|112:272|168:288,1,135,2|2,0:0|0:0,0:0:0:0:
176,288,93395,1,0,0:0:0:0:
200,288,93493,1,2,0:0:0:0:
224,288,93591,1,0,0:0:0:0:
248,288,93689,1,0,0:0:0:0:
272,288,93787,1,0,0:0:0:0:
296,288,93886,6,0,P|394:233|421:158,1,180,4|2,0:0|0:0,0:0:0:0:
428,56,94474,2,0,P|329:110|304:168,1,180,4|2,0:0|0:0,0:0:0:0:
296,288,95062,5,0,0:0:0:0:
240,144,95258,2,0,P|190:100|123:93,2,135,2|8|8,0:0|0:0|0:0,0:0:0:0:
148,200,96042,2,0,L|108:224,2,45,8|8|0,0:0|0:0|0:0,0:0:0:0:
240,144,96435,1,8,0:0:0:0:
324,104,96631,1,8,0:0:0:0:
412,86,96827,5,8,0:0:0:0:
412,86,96925,1,8,0:0:0:0:
412,86,97023,1,4,0:0:0:0:
380,228,97219,1,0,0:0:0:0:
254,300,97415,1,8,0:0:0:0:
148,200,97611,1,0,0:0:0:0:
76,72,97807,6,0,P|67:116|71:160,1,90
146,289,98199,2,0,P|150:244|148:200,1,90,8|0,0:0|0:0,0:0:0:0:
212,68,98591,2,0,P|216:112|212:160,1,90
288,284,98984,2,0,P|284:240|288:194,1,90,8|0,0:0|0:0,0:0:0:0:
414,117,99376,2,0,P|441:199|384:264,1,180,0|8,0:0|0:0,0:0:0:0:
316,76,99964,1,0,0:0:0:0:
212,68,100160,6,0,P|167:65|128:86,1,90
167,239,100552,2,0,P|191:202|192:158,1,90,8|0,0:0|0:0,0:0:0:0:
42,111,100944,2,0,P|62:151|100:174,1,90,0|0,0:0|0:0,0:0:0:0:
256,200,101337,1,8,0:0:0:0:
256,200,101533,1,0,0:0:0:0:
316,76,101729,6,0,P|380:137|391:225,1,180,0|8,0:0|0:0,0:0:0:0:
256,200,102317,1,0,0:0:0:0:
124,176,102513,2,0,P|135:263|199:324,1,180,0|8,0:0|0:0,0:0:0:0:
374,260,103101,2,0,L|328:176,1,90,0|4,0:0|0:0,0:0:0:0:
378,364,103493,5,0,0:0:0:0:
280,288,103689,1,8,0:0:0:0:
483,294,103886,1,0,0:0:0:0:
323,169,104082,1,0,0:0:0:0:
448,173,104278,1,0,0:0:0:0:
256,76,104474,6,0,L|252:165,1,90,8|0,0:0|0:0,0:0:0:0:
280,288,104866,2,0,L|204:372,1,90
108,308,105258,2,0,L|56:228,1,90,8|0,0:0|0:0,0:0:0:0:
64,112,105650,1,0,0:0:0:0:
184,208,105846,1,0,0:0:0:0:
320,288,106042,1,8,0:0:0:0:
320,124,106238,1,0,0:0:0:0:
220,72,106435,5,0,0:0:0:0:
188,160,106631,1,0,0:0:0:0:
236,240,106827,1,8,0:0:0:0:
320,288,107023,1,0,0:0:0:0:
404,240,107219,5,0,0:0:0:0:
452,160,107415,1,0,0:0:0:0:
420,72,107611,1,8,0:0:0:0:
320,124,107807,1,0,0:0:0:0:
220,72,108003,5,0,0:0:0:0:
111,203,108199,1,0,0:0:0:0:
199,346,108395,1,8,0:0:0:0:
380,330,108591,1,0,0:0:0:0:
416,194,108787,1,0,0:0:0:0:
388,187,108886,1,0,0:0:0:0:
365,187,108984,2,0,P|320:195|284:222,1,90,0|8,0:0|0:0,0:0:0:0:
204,275,109376,1,2,0:0:0:0:
169,278,109474,1,2,0:0:0:0:
141,271,109572,1,4,0:0:0:0:
256,192,109670,12,2,110748,0:0:0:0:
95,327,111140,6,0,P|56:249|82:165,1,180,4|8,0:0|0:0,0:0:0:0:
160,240,111729,1,0,0:0:0:0:
232,192,111925,2,0,B|256:232|236:278,1,90
160,240,112317,1,8,0:0:0:0:
301,133,112513,6,0,P|224:96|152:148,1,180
160,240,113101,1,8,0:0:0:0:
267,359,113297,1,0,0:0:0:0:
318,205,113493,1,0,0:0:0:0:
248,268,113689,1,0,0:0:0:0:
370,308,113886,2,0,P|403:276|426:238,1,90,8|0,0:0|0:0,0:0:0:0:
404,124,114278,5,4,0:0:0:0:
318,205,114474,1,0,0:0:0:0:
216,142,114670,2,0,P|245:109|285:88,1,90,8|0,0:0|0:0,0:0:0:0:
318,205,115062,1,0,0:0:0:0:
292,312,115258,1,0,0:0:0:0:
292,312,115356,1,0,0:0:0:0:
292,312,115454,1,8,0:0:0:0:
204,312,115650,1,0,0:0:0:0:
136,256,115846,5,0,0:0:0:0:
204,44,116042,1,0,0:0:0:0:
228,232,116238,1,8,0:0:0:0:
112,86,116434,1,0,0:0:0:0:
188,148,116631,5,2,0:0:0:0:
216,144,116729,1,2,0:0:0:0:
248,132,116827,1,2,0:0:0:0:
360,124,117023,1,10,0:0:0:0:
388,136,117121,1,2,0:0:0:0:
412,156,117219,1,2,0:0:0:0:
455,251,117415,6,0,P|380:300|292:312,1,180,4|8,0:0|0:0,0:0:0:0:
260,208,118003,1,0,0:0:0:0:
152,200,118199,2,0,B|152:290,1,90
60,232,118591,2,0,B|60:142,2,90,8|0|0,0:0|0:0|0:0,0:0:0:0:
152,290,119180,1,0,0:0:0:0:
208,136,119376,1,8,0:0:0:0:
308,104,119572,2,0,B|316:148|302:193,1,90
392,56,119964,1,0,0:0:0:0:
478,193,120160,2,0,B|464:148|472:104,1,90,8|0,0:0|0:0,0:0:0:0:
384,332,120552,5,0,0:0:0:0:
384,240,120748,2,0,L|384:136,1,90,0|8,0:0|0:0,0:0:0:0:
392,56,121140,1,0,0:0:0:0:
308,104,121336,1,0,0:0:0:0:
216,80,121533,1,0,0:0:0:0:
196,64,121631,1,0,0:0:0:0:
172,56,121729,1,8,0:0:0:0:
60,124,121925,2,0,P|28:212|44:308,1,180
128,312,122513,1,8,0:0:0:0:
216,312,122709,2,0,P|256:256|264:184,1,135
264,168,123101,5,2,0:0:0:0:
272,148,123199,1,2,0:0:0:0:
288,132,123297,1,2,0:0:0:0:
308,124,123395,1,2,0:0:0:0:
332,120,123493,1,2,0:0:0:0:
352,128,123591,1,2,0:0:0:0:
368,144,123689,6,0,P|395:181|408:224,1,90,4|0,0:0|0:0,0:0:0:0:
324,352,124082,2,0,P|297:316|284:273,1,90,8|0,0:0|0:0,0:0:0:0:
296,140,124474,2,0,P|323:176|336:219,2,90,0|0|8,0:0|0:0|0:0,0:0:0:0:
228,224,125062,1,0,0:0:0:0:
192,332,125258,5,0,0:0:0:0:
48,248,125454,1,0,0:0:0:0:
120,200,125650,1,8,0:0:0:0:
120,288,125846,1,0,0:0:0:0:
48,168,126042,1,0,0:0:0:0:
48,324,126238,5,0,0:0:0:0:
192,332,126435,1,8,0:0:0:0:
320,268,126631,1,0,0:0:0:0:
248,192,126827,5,0,0:0:0:0:
360,140,127023,1,0,0:0:0:0:
280,72,127219,1,8,0:0:0:0:
392,20,127415,1,0,0:0:0:0:
488,124,127611,2,0,P|484:168|476:216,1,90
404,348,128003,2,0,P|396:303|392:258,1,90,2|0,0:0|0:0,0:0:0:0:
288,152,128395,5,0,0:0:0:0:
408,192,128591,1,0,0:0:0:0:
272,220,128787,1,8,0:0:0:0:
392,258,128984,5,0,0:0:0:0:
272,284,129180,1,2,0:0:0:0:
272,252,129278,1,2,0:0:0:0:
272,220,129376,1,2,0:0:0:0:
184,316,129572,1,10,0:0:0:0:
164,308,129670,1,2,0:0:0:0:
144,300,129768,1,2,0:0:0:0:
124,292,129866,1,2,0:0:0:0:
104,280,129964,6,0,P|64:192|112:112,2,180,4|8|0,0:0|0:0|0:0,0:0:0:0:
160,200,130944,1,0,0:0:0:0:
184,200,131042,1,0,0:0:0:0:
208,200,131140,1,8,0:0:0:0:
280,200,131337,2,0,B|376:200,1,90
456,200,131729,1,0,0:0:0:0:
492,312,131925,1,8,0:0:0:0:
392,256,132121,1,0,0:0:0:0:
356,144,132317,1,0,0:0:0:0:
244,88,132513,5,0,0:0:0:0:
156,176,132709,1,8,0:0:0:0:
280,200,132905,1,0,0:0:0:0:
172,100,133101,6,0,P|132:79|88:80,1,90
56,204,133493,1,8,0:0:0:0:
168,268,133689,1,0,0:0:0:0:
224,160,133886,1,2,0:0:0:0:
240,144,133984,1,2,0:0:0:0:
256,127,134082,2,0,P|290:99|332:84,1,90,0|8,0:0|0:0,0:0:0:0:
448,168,134474,1,0,0:0:0:0:
419,327,134670,1,2,0:0:0:0:
295,222,134866,1,0,0:0:0:0:
445,209,135062,5,2,0:0:0:0:
392,304,135258,1,0,0:0:0:0:
337,209,135454,2,0,P|314:117|354:34,1,188.999994232178,2|0,0:0|0:0,0:0:0:0:
464,48,136238,5,2,0:0:0:0:
464,72,136337,1,0,0:0:0:0:
456,96,136435,1,0,0:0:0:0:
448,112,136533,1,0,0:0:0:0:
432,128,136631,1,2,0:0:0:0:
416,144,136729,1,0,0:0:0:0:
400,152,136827,1,0,0:0:0:0:
376,160,136925,1,0,0:0:0:0:
352,168,137023,2,0,P|256:144|224:104,2,135,2|0|2,0:0|0:0|0:0,0:0:0:0:
312,80,137807,6,0,P|272:48|216:40,1,90,4|0,0:0|0:0,0:0:0:0:
56,64,138199,2,0,P|87:95|131:104,1,90,4|0,0:0|0:0,0:0:0:0:
233,120,138591,1,0,0:0:0:0:
188,200,138787,1,2,0:0:0:0:
176,228,138886,1,0,0:0:0:0:
172,256,138984,1,8,0:0:0:0:
264,312,139180,1,0,0:0:0:0:
420,203,139376,6,0,P|440:243|439:288,1,90,8|0,0:0|0:0,0:0:0:0:
279,225,139768,2,0,P|304:188|344:168,1,90,8|0,0:0|0:0,0:0:0:0:
346,338,140160,2,0,P|301:335|264:312,1,90,8|0,0:0|0:0,0:0:0:0:
260,264,140454,1,0,0:0:0:0:
279,225,140552,2,0,P|304:188|344:168,1,90,8|0,0:0|0:0,0:0:0:0:
136,140,140944,6,0,P|95:123|63:92,2,90,4|0|8,0:0|0:0|0:0,0:0:0:0:
248,184,141533,1,0,0:0:0:0:
288,296,141729,1,0,0:0:0:0:
200,320,141925,1,2,0:0:0:0:
176,328,142023,1,2,0:0:0:0:
152,328,142121,1,8,0:0:0:0:
72,288,142317,1,0,0:0:0:0:
87,128,142513,6,0,P|52:160|40:204,1,90,4|0,0:0|0:0,0:0:0:0:
222,197,142905,2,0,P|206:155|173:125,1,90,12|0,0:0|0:0,0:0:0:0:
132,212,143297,5,4,0:0:0:0:
200,320,143493,1,0,0:0:0:0:
298,242,143689,1,12,0:0:0:0:
408,36,144082,5,4,0:0:0:0:
456,144,144278,1,0,0:0:0:0:
456,144,144376,1,0,0:0:0:0:
456,144,144474,2,0,P|448:240|392:312,1,180,4|0,0:0|0:0,0:0:0:0:
332,352,145062,1,2,0:0:0:0:
312,336,145160,1,2,0:0:0:0:
299,313,145258,2,0,B|291:269|292:224,1,90,8|2,0:0|0:0,0:0:0:0:
288,144,145650,5,0,0:0:0:0:
200,252,145846,1,0,0:0:0:0:
200,116,146042,1,8,0:0:0:0:
112,224,146238,1,0,0:0:0:0:
156,40,146435,1,0,0:0:0:0:
68,148,146631,1,0,0:0:0:0:
96,136,146729,1,0,0:0:0:0:
124,124,146827,1,8,0:0:0:0:
288,144,147023,1,0,0:0:0:0:
432,168,147219,6,0,P|421:124|393:90,1,90,4|0,0:0|0:0,0:0:0:0:
249,66,147611,2,0,P|259:109|288:144,1,90,8|0,0:0|0:0,0:0:0:0:
368,228,148003,1,0,0:0:0:0:
480,260,148199,1,2,0:0:0:0:
480,292,148297,1,2,0:0:0:0:
480,324,148395,1,10,0:0:0:0:
380,332,148591,1,0,0:0:0:0:
296,288,148787,5,2,0:0:0:0:
280,296,148886,1,2,0:0:0:0:
264,296,148984,1,2,0:0:0:0:
248,292,149082,1,2,0:0:0:0:
232,284,149180,1,2,0:0:0:0:
220,272,149278,1,2,0:0:0:0:
208,256,149376,2,0,P|160:208|96:192,2,135,0|4|4,0:0|0:0|0:0,0:0:0:0:
128,340,150160,5,2,0:0:0:0:
128,308,150258,1,2,0:0:0:0:
120,280,150356,1,4,0:0:0:0:
40,232,150552,1,0,0:0:0:0:
32,216,150650,1,0,0:0:0:0:
24,200,150748,2,0,P|16:144|24:104,1,90,8|0,0:0|0:0,0:0:0:0:
104,72,151140,1,8,0:0:0:0:
196,160,151337,1,0,0:0:0:0:
208,132,151435,1,0,0:0:0:0:
232,112,151533,1,8,0:0:0:0:
295,227,151729,6,0,P|381:206|441:141,1,180,2|8,0:0|0:0,0:0:0:0:
320,80,152317,1,8,0:0:0:0:
296,228,152513,1,0,0:0:0:0:
208,132,152709,1,8,0:0:0:0:
184,280,152905,1,0,0:0:0:0:
196,304,153003,1,0,0:0:0:0:
212,320,153101,1,8,0:0:0:0:
344,320,153297,1,8,0:0:0:0:
231,191,153493,6,0,P|144:187|88:254,1,180,4|8,0:0|0:0,0:0:0:0:
184,280,154082,1,0,0:0:0:0:
344,320,154278,1,8,0:0:0:0:
272,124,154474,1,2,0:0:0:0:
272,124,154572,1,2,0:0:0:0:
272,124,154670,1,8,0:0:0:0:
412,184,154866,1,0,0:0:0:0:
348,232,155062,5,8,0:0:0:0:
476,336,155258,1,0,0:0:0:0:
348,144,155454,1,8,0:0:0:0:
476,240,155650,1,0,0:0:0:0:
348,48,155846,1,8,0:0:0:0:
476,144,156042,5,0,0:0:0:0:
248,40,156238,1,8,0:0:0:0:
120,152,156631,6,0,P|77:163|43:191,1,90,4|0,0:0|0:0,0:0:0:0:
40,320,157023,2,0,P|84:310|118:280,1,90,8|0,0:0|0:0,0:0:0:0:
224,208,157415,1,0,0:0:0:0:
284,128,157611,1,2,0:0:0:0:
308,104,157709,1,0,0:0:0:0:
336,84,157807,2,0,P|375:62|419:55,1,90,2|0,0:0|0:0,0:0:0:0:
483,234,158199,6,0,P|479:189|456:152,1,90,8|0,0:0|0:0,0:0:0:0:
312,208,158591,1,8,0:0:0:0:
268,288,158787,1,0,0:0:0:0:
224,208,158984,1,8,0:0:0:0:
184,288,159180,1,0,0:0:0:0:
160,276,159278,1,0,0:0:0:0:
139,260,159376,2,0,P|109:227|89:187,1,90,8|0,0:0|0:0,0:0:0:0:
120,64,159768,6,0,P|150:96|170:136,1,90,4|0,0:0|0:0,0:0:0:0:
224,208,160160,1,8,0:0:0:0:
268,288,160356,1,0,0:0:0:0:
312,208,160552,1,8,0:0:0:0:
348,124,160748,2,0,B|348:79,2,45,2|2|8,0:0|0:0|0:0,0:0:0:0:
388,208,161140,1,0,0:0:0:0:
480,152,161337,5,2,0:0:0:0:
480,176,161435,1,2,0:0:0:0:
480,200,161533,1,2,0:0:0:0:
480,224,161631,1,2,0:0:0:0:
480,248,161729,1,2,0:0:0:0:
480,272,161827,1,2,0:0:0:0:
480,296,161925,2,0,P|408:328|344:328,2,135,2|4|4,0:0|0:0|0:0,0:0:0:0:
288,256,162905,5,4,0:0:0:0:
176,312,163101,1,0,0:0:0:0:
80,244,163297,1,2,0:0:0:0:
132,116,163493,1,0,0:0:0:0:
152,132,163591,1,0,0:0:0:0:
176,144,163689,2,0,P|220:144|259:123,1,90,2|0,0:0|0:0,0:0:0:0:
344,88,164082,2,0,P|319:50|279:31,1,90,8|0,0:0|0:0,0:0:0:0:
188,68,164474,5,8,0:0:0:0:
160,232,164670,1,0,0:0:0:0:
132,116,164866,1,2,0:0:0:0:
256,216,165062,1,0,0:0:0:0:
272,256,165160,1,0,0:0:0:0:
275,296,165258,1,8,0:0:0:0:
144,340,165454,2,0,P|60:296|48:196,1,180,0|2,0:0|0:0,0:0:0:0:
32,119,166042,6,0,P|76:123|109:152,1,90,2|2,0:0|0:0,0:0:0:0:
196,256,166435,1,0,0:0:0:0:
356,120,166631,2,0,P|311:123|278:152,1,90,2|2,0:0|0:0,0:0:0:0:
196,256,167023,1,0,0:0:0:0:
320,312,167219,1,2,0:0:0:0:
437,259,167415,2,0,P|485:188|452:109,1,180,0|0,0:0|0:0,0:0:0:0:
356,120,168003,1,0,0:0:0:0:
240,192,168199,1,0,0:0:0:0:
168,52,168395,1,0,0:0:0:0:
60,136,168591,5,2,0:0:0:0:
56,160,168689,1,2,0:0:0:0:
56,184,168787,1,2,0:0:0:0:
56,208,168886,1,2,0:0:0:0:
60,236,168984,1,2,0:0:0:0:
64,260,169082,1,2,0:0:0:0:
72,284,169180,1,4,0:0:0:0:
152,344,169376,5,0,0:0:0:0:
255,343,169572,2,0,P|300:343|343:328,1,90
380,296,169866,1,0,0:0:0:0:
366,247,169964,2,0,P|321:247|280:263,1,90
424,320,170356,1,0,0:0:0:0:
480,216,170552,1,0,0:0:0:0:
448,100,170748,1,0,0:0:0:0:
360,48,170944,5,0,0:0:0:0:
284,160,171140,1,2,0:0:0:0:
208,48,171337,1,0,0:0:0:0:
184,56,171435,2,0,P|136:104|128:208,1,135
120,192,171827,1,0,0:0:0:0:
124,220,171925,2,0,B|124:264|148:305,1,90,2|2,0:0|0:0,0:0:0:0:
280,304,172317,5,4,0:0:0:0:
418,250,172513,1,2,0:0:0:0:
284,160,172709,1,2,0:0:0:0:
418,250,172905,2,0,P|424:161|376:88,2,180,4|2|4,0:0|0:0|0:0,0:0:0:0:
280,64,173886,6,0,P|184:115|147:220,1,215.999993408203,0|2,0:0|0:0,0:0:0:0:
184,272,174866,5,8,0:0:0:0:
248,304,175062,1,8,0:0:0:0:
320,304,175258,2,0,B|320:326,4,22.5,8|0|12|0|8,0:0|0:0|0:0|0:0|0:0,0:0:0:0:
400,256,175650,5,0,0:0:0:0:
440,160,175846,1,2,0:0:0:0:
356,56,176042,1,0,0:0:0:0:
316,152,176238,1,2,0:0:0:0:
224,228,176435,1,0,0:0:0:0:
184,132,176631,1,2,0:0:0:0:
316,152,176827,1,0,0:0:0:0:
221,55,177023,6,0,P|191:88|184:132,1,90,2|0,0:0|0:0,0:0:0:0:
225,228,177415,1,2,0:0:0:0:
112,268,177611,1,0,0:0:0:0:
112,268,177709,1,0,0:0:0:0:
112,268,177807,2,0,L|76:360,1,90,2|0,0:0|0:0,0:0:0:0:
144,184,178199,1,2,0:0:0:0:
40,248,178395,1,2,0:0:0:0:
168,343,178591,6,0,P|256:351|328:300,1,180,4|2,0:0|0:0,0:0:0:0:
383,183,179180,2,0,P|296:176|224:227,1,180,4|2,0:0|0:0,0:0:0:0:
280,340,179768,1,2,0:0:0:0:
380,348,179964,1,0,0:0:0:0:
416,256,180160,5,2,0:0:0:0:
432,160,180356,1,2,0:0:0:0:
344,108,180552,1,0,0:0:0:0:
328,204,180748,1,2,0:0:0:0:
335,32,180944,2,0,P|295:48|271:86,1,90,2|0,0:0|0:0,0:0:0:0:
264,108,181238,5,0,0:0:0:0:
260,132,181337,1,2,0:0:0:0:
252,152,181435,1,2,0:0:0:0:
240,172,181533,1,2,0:0:0:0:
224,188,181631,1,2,0:0:0:0:
208,204,181729,2,0,L|223:292,1,90,4|0,0:0|0:0,0:0:0:0:
140,180,182121,5,2,0:0:0:0:
304,220,182317,1,0,0:0:0:0:
100,308,182513,2,0,B|130:349|174:353,1,90,0|0,0:0|0:0,0:0:0:0:
276,344,182905,1,8,0:0:0:0:
304,220,183101,1,0,0:0:0:0:
388,304,183297,1,2,0:0:0:0:
500,348,183493,5,0,0:0:0:0:
472,232,183689,1,8,0:0:0:0:
464,120,183886,1,0,0:0:0:0:
448,112,183984,1,2,0:0:0:0:
432,104,184082,1,0,0:0:0:0:
416,96,184180,1,0,0:0:0:0:
396,92,184278,1,0,0:0:0:0:
376,88,184376,1,0,0:0:0:0:
355,87,184474,2,0,P|312:79|268:89,1,90,2|2,0:0|0:0,0:0:0:0:
184,136,184866,6,0,P|144:200|184:288,1,180,4|2,0:0|0:0,0:0:0:0:
327,288,185454,2,0,P|368:212|328:136,1,180,0|0,0:0|0:0,0:0:0:0:
256,192,186042,5,2,0:0:0:0:
256,192,186238,2,0,B|256:336,2,135,0|8|8,0:0|0:0|0:0,0:0:0:0:
256,104,187023,1,0,0:0:0:0:
256,104,187121,1,8,0:0:0:0:
256,104,187219,1,2,0:0:0:0:
336,144,187415,5,8,0:0:0:0:
176,144,187611,1,8,0:0:0:0:
256,248,187807,1,8,0:0:0:0:
256,248,187905,1,8,0:0:0:0:
256,248,188003,6,0,P|208:248|160:280,1,90,4|0,0:0|0:0,0:0:0:0:
232,336,188395,2,0,P|280:336|328:304,1,90,8|0,0:0|0:0,0:0:0:0:
344,232,188787,2,0,P|380:212|428:212,1,90,2|0,0:0|0:0,0:0:0:0:
496,280,189180,2,0,P|452:300|395:291,1,90,8|0,0:0|0:0,0:0:0:0:
344,232,189572,5,2,0:0:0:0:
232,88,189768,1,0,0:0:0:0:
88,160,189964,1,8,0:0:0:0:
232,232,190160,1,0,0:0:0:0:
144,88,190356,1,2,0:0:0:0:
144,232,190552,1,0,0:0:0:0:
288,160,190748,5,8,0:0:0:0:
344,232,190944,1,0,0:0:0:0:
448,183,191140,2,0,P|411:104|328:80,1,180,2|8,0:0|0:0,0:0:0:0:
280,224,191729,1,0,0:0:0:0:
253,359,191925,2,0,P|177:313|144:231,1,180,2|8,0:0|0:0,0:0:0:0:
280,224,192513,1,0,0:0:0:0:
292,68,192709,2,0,P|377:48|449:99,1,180,2|8,0:0|0:0,0:0:0:0:
352,192,193297,1,0,0:0:0:0:
208,272,193493,5,0,0:0:0:0:
160,192,193689,1,0,0:0:0:0:
304,272,193886,1,8,0:0:0:0:
208,120,194082,1,0,0:0:0:0:
352,192,194278,5,4,0:0:0:0:
304,120,194474,1,0,0:0:0:0:
256,192,194670,1,8,0:0:0:0:
208,272,194866,1,0,0:0:0:0:
160,192,195062,1,0,0:0:0:0:
104,120,195258,1,0,0:0:0:0:
56,192,195454,1,8,0:0:0:0:
104,272,195650,1,0,0:0:0:0:
160,192,195846,6,0,B|200:112,1,90
208,272,196238,2,0,B|168:352,1,90,8|0,0:0|0:0,0:0:0:0:
295,252,196631,2,0,P|245:182|160:192,1,180,0|8,0:0|0:0,0:0:0:0:
208,272,197219,1,0,0:0:0:0:
279,327,197415,6,0,P|324:336|368:332,1,90
423,168,197807,2,0,P|449:205|464:248,1,90,8|0,0:0|0:0,0:0:0:0:
252,196,198199,2,0,P|266:153|292:116,1,90,0|0,0:0|0:0,0:0:0:0:
440,20,198591,2,0,P|425:62|399:99,1,90,8|0,0:0|0:0,0:0:0:0:
252,196,198984,5,0,0:0:0:0:
176,132,199180,1,0,0:0:0:0:
124,216,199376,1,8,0:0:0:0:
92,84,199572,1,0,0:0:0:0:
228,52,199768,5,0,0:0:0:0:
252,72,199866,1,0,0:0:0:0:
272,96,199964,2,0,B|308:128|328:188,1,90,0|8,0:0|0:0,0:0:0:0:
352,260,200356,1,8,0:0:0:0:
360,284,200454,1,8,0:0:0:0:
364,304,200552,1,4,0:0:0:0:
128,40,202121,6,0,P|56:96|88:208,1,180,4|8,0:0|0:0,0:0:0:0:
156,140,202709,1,0,0:0:0:0:
193,232,202905,2,0,P|256:173|244:88,1,180,0|8,0:0|0:0,0:0:0:0:
116,204,203493,6,0,P|128:280|224:308,1,180
240,152,204082,1,8,0:0:0:0:
328,80,204278,2,0,B|356:44|403:32,1,90,0|8,0:0|0:0,0:0:0:0:
451,200,204670,2,0,B|423:236|376:248,1,90,0|8,0:0|0:0,0:0:0:0:
240,152,205062,1,0,0:0:0:0:
87,87,205258,6,0,P|175:91|240:152,1,180,0|8,0:0|0:0,0:0:0:0:
292,276,205846,1,0,0:0:0:0:
360,144,206042,1,0,0:0:0:0:
172,176,206238,1,0,0:0:0:0:
148,212,206336,1,0,0:0:0:0:
144,248,206435,1,8,0:0:0:0:
252,336,206631,1,0,0:0:0:0:
408,208,206827,2,0,P|360:220|312:208,1,90
435,121,207219,2,0,P|491:188|471:273,1,180,8|0,0:0|0:0,0:0:0:0:
320,256,207807,5,2,0:0:0:0:
300,232,207905,1,2,0:0:0:0:
280,208,208003,1,10,0:0:0:0:
160,128,208199,1,2,0:0:0:0:
136,136,208297,1,2,0:0:0:0:
112,144,208395,1,4,0:0:0:0:
112,144,208787,5,8,0:0:0:0:
152,320,208984,1,0,0:0:0:0:
49,201,209180,2,0,P|72:163|112:143,1,90
132,228,209572,1,8,0:0:0:0:
151,319,209768,2,0,P|216:263|208:176,1,180
175,84,210356,2,0,B|130:96|112:144,1,90,8|0,0:0|0:0,0:0:0:0:
132,228,210748,5,0,0:0:0:0:
268,72,210944,1,0,0:0:0:0:
353,84,211140,2,0,P|336:124|300:150,1,90,8|0,0:0|0:0,0:0:0:0:
188,188,211533,1,0,0:0:0:0:
268,72,211729,5,0,0:0:0:0:
345,210,211925,2,0,P|322:248|284:271,1,90,8|0,0:0|0:0,0:0:0:0:
212,120,212317,1,0,0:0:0:0:
76,180,212513,2,0,B|48:140,2,45,2|0|8,0:0|0:0|0:0,0:0:0:0:
192,276,212905,2,0,P|236:344|344:352,1,180,4|8,0:0|0:0,0:0:0:0:
468,196,213493,1,2,0:0:0:0:
412,288,213689,1,0,0:0:0:0:
396,112,213886,2,0,B|373:85|341:101|314:81,1,90,0|8,0:0|0:0,0:0:0:0:
220,48,214278,5,0,0:0:0:0:
192,48,214376,1,2,0:0:0:0:
164,52,214474,1,2,0:0:0:0:
140,64,214572,1,2,0:0:0:0:
115,80,214670,2,0,P|56:145|37:232,2,180,4|8|0,0:0|0:0|0:0,0:0:0:0:
176,152,215650,1,0,0:0:0:0:
176,240,215846,1,8,0:0:0:0:
116,312,216042,6,0,P|76:340|32:344,2,90
176,240,216631,1,8,0:0:0:0:
313,344,216827,2,0,P|296:303|268:268,1,90
176,152,217219,5,0,0:0:0:0:
112,88,217415,1,8,0:0:0:0:
48,156,217611,1,0,0:0:0:0:
48,240,217807,5,0,0:0:0:0:
112,304,218003,1,0,0:0:0:0:
176,240,218199,1,8,0:0:0:0:
176,152,218395,1,0,0:0:0:0:
111,88,218591,2,0,P|194:63|217:76,1,90,0|0,0:0|0:0,0:0:0:0:
285,124,218984,1,8,0:0:0:0:
384,162,219180,2,0,P|381:80|296:17,1,180,0|0,0:0|0:0,0:0:0:0:
285,124,219768,1,8,0:0:0:0:
192,63,219964,1,0,0:0:0:0:
88,116,220160,5,2,0:0:0:0:
80,140,220258,1,2,0:0:0:0:
76,164,220356,1,2,0:0:0:0:
76,188,220454,1,2,0:0:0:0:
84,212,220552,2,0,L|108:256,1,45,2|2,0:0|0:0,0:0:0:0:
200,264,220748,2,0,L|176:220,1,45,2|2,0:0|0:0,0:0:0:0:
144,312,220944,6,0,P|222:355|308:339,2,180,4|8|4,0:0|0:0|0:0,0:0:0:0:
304,240,221925,1,0,0:0:0:0:
307,339,222121,1,8,0:0:0:0:
352,160,222317,2,0,P|266:153|212:224,1,180
307,339,222905,1,8,0:0:0:0:
392,224,223101,2,0,B|396:320,1,90
308,340,223493,1,0,0:0:0:0:
212,221,223689,2,0,L|213:311,1,90,8|0,0:0|0:0,0:0:0:0:
68,272,224082,5,0,0:0:0:0:
212,221,224278,1,0,0:0:0:0:
68,172,224474,1,8,0:0:0:0:
176,144,224670,1,0,0:0:0:0:
100,88,224866,1,0,0:0:0:0:
140,232,225062,1,0,0:0:0:0:
148,264,225160,1,0,0:0:0:0:
160,300,225258,1,8,0:0:0:0:
256,324,225454,6,0,P|341:339|401:273,1,180,4|2,0:0|0:0,0:0:0:0:
441,157,226042,1,2,0:0:0:0:
353,173,226238,1,2,0:0:0:0:
313,253,226435,1,2,0:0:0:0:
148,48,227219,5,2,0:0:0:0:
132,64,227317,1,0,0:0:0:0:
120,80,227415,1,0,0:0:0:0:
108,100,227513,1,0,0:0:0:0:
96,120,227611,1,2,0:0:0:0:
88,140,227709,1,0,0:0:0:0:
84,164,227807,1,0,0:0:0:0:
80,188,227905,1,0,0:0:0:0:
80,212,228003,2,0,P|88:264|132:344,2,135,2|2|2,0:0|0:0|0:0,0:0:0:0:
200,95,228787,6,0,P|274:52|354:86,1,180,4|8,0:0|0:0,0:0:0:0:
280,232,229376,1,0,0:0:0:0:
280,144,229572,1,0,0:0:0:0:
217,296,229768,1,0,0:0:0:0:
217,296,229866,2,0,P|275:327|336:304,1,135,2|0,0:0|0:0,0:0:0:0:
280,232,230356,1,0,0:0:0:0:
148,144,230552,1,0,0:0:0:0:
148,232,230748,5,8,0:0:0:0:
280,144,230944,1,0,0:0:0:0:
214,187,231140,1,0,0:0:0:0:
222,48,231336,1,0,0:0:0:0:
222,48,231435,1,0,0:0:0:0:
221,48,231533,2,0,P|309:41|376:98,1,180,8|4,0:0|0:0,0:0:0:0:
448,216,232121,5,0,0:0:0:0:
408,288,232317,1,8,0:0:0:0:
360,216,232513,1,0,0:0:0:0:
320,288,232709,2,0,B|272:296|216:288,1,90,0|2,0:0|0:0,0:0:0:0:
208,288,233003,1,2,0:0:0:0:
184,288,233101,2,0,B|168:240|172:192,1,90,8|0,0:0|0:0,0:0:0:0:
208,112,233493,5,8,0:0:0:0:
384,112,233689,1,0,0:0:0:0:
296,272,233886,1,8,0:0:0:0:
296,96,234082,1,0,0:0:0:0:
384,248,234278,1,8,0:0:0:0:
208,256,234474,5,0,0:0:0:0:
296,96,234670,1,8,0:0:0:0:
472,48,235062,5,4,0:0:0:0:
472,136,235258,1,0,0:0:0:0:
472,160,235356,1,0,0:0:0:0:
472,184,235454,1,8,0:0:0:0:
452,312,235650,1,0,0:0:0:0:
332,176,235846,1,8,0:0:0:0:
196,296,236042,1,0,0:0:0:0:
220,308,236141,1,0,0:0:0:0:
243,316,236239,2,0,P|287:317|327:297,1,90,8|0,0:0|0:0,0:0:0:0:
437,212,236631,2,0,B|472:184,2,45
280,240,237023,5,8,0:0:0:0:
200,120,237219,1,0,0:0:0:0:
128,264,237415,1,0,0:0:0:0:
100,93,237611,1,0,0:0:0:0:
116,77,237709,1,0,0:0:0:0:
132,60,237807,2,0,P|170:38|214:30,1,90,8|0,0:0|0:0,0:0:0:0:
424,120,238199,5,2,0:0:0:0:
325,168,238395,2,0,P|292:197|280:240,2,90,0|8|0,0:0|0:0|0:0,0:0:0:0:
472,200,238984,1,0,0:0:0:0:
432,280,239180,1,2,0:0:0:0:
416,296,239278,1,2,0:0:0:0:
400,312,239376,1,8,0:0:0:0:
316,360,239572,1,0,0:0:0:0:
220,336,239768,5,2,0:0:0:0:
200,324,239866,1,2,0:0:0:0:
184,308,239964,1,2,0:0:0:0:
168,292,240062,1,2,0:0:0:0:
156,272,240160,1,2,0:0:0:0:
148,252,240258,1,2,0:0:0:0:
144,228,240356,2,0,P|160:164|248:132,2,135,0|4|4,0:0|0:0|0:0,0:0:0:0:
232,216,241140,5,2,0:0:0:0:
248,208,241238,1,2,0:0:0:0:
264,200,241336,2,0,B|344:160,1,90,0|0,0:0|0:0,0:0:0:0:
432,144,241729,2,0,P|416:102|376:76,1,90,8|0,0:0|0:0,0:0:0:0:
344,159,242121,1,0,0:0:0:0:
312,280,242317,1,0,0:0:0:0:
312,280,242415,1,0,0:0:0:0:
311,279,242513,2,0,P|340:311|345:355,1,90,8|0,0:0|0:0,0:0:0:0:
227,344,242905,6,0,B|272:344,2,45
85,182,243297,1,8,0:0:0:0:
227,210,243493,1,0,0:0:0:0:
96,272,243689,1,8,0:0:0:0:
166,144,243886,1,0,0:0:0:0:
184,289,244082,1,8,0:0:0:0:
284,272,244474,5,4,0:0:0:0:
320,188,244670,1,0,0:0:0:0:
252,128,244866,1,8,0:0:0:0:
128,128,245062,1,0,0:0:0:0:
60,188,245258,1,0,0:0:0:0:
96,272,245454,1,2,0:0:0:0:
104,288,245552,1,2,0:0:0:0:
112,304,245650,1,8,0:0:0:0:
200,328,245846,1,0,0:0:0:0:
240,248,246042,5,0,0:0:0:0:
400,176,246238,1,0,0:0:0:0:
248,72,246435,1,8,0:0:0:0:
328,240,246631,1,0,0:0:0:0:
376,64,246827,1,0,0:0:0:0:
224,176,247023,5,0,0:0:0:0:
400,176,247219,1,8,0:0:0:0:
240,248,247415,5,0,0:0:0:0:
208,248,247513,1,0,0:0:0:0:
176,248,247611,2,0,B|128:240|108:184,1,90,4|0,0:0|0:0,0:0:0:0:
108,108,248003,2,0,B|56:112|38:157,1,90,8|0,0:0|0:0,0:0:0:0:
144,248,248395,1,0,0:0:0:0:
196,148,248591,1,0,0:0:0:0:
208,120,248689,1,2,0:0:0:0:
232,92,248787,2,0,B|260:56|302:37,1,90,2|0,0:0|0:0,0:0:0:0:
412,104,249180,6,0,P|436:144|436:200,1,90
384,252,249572,2,0,P|360:212|357:169,1,90,8|0,0:0|0:0,0:0:0:0:
464,256,249964,1,0,0:0:0:0:
304,256,250160,1,0,0:0:0:0:
384,328,250356,2,0,B|384:390,2,45,8|0|0,0:0|0:0|0:0,0:0:0:0:
148,244,250748,6,0,P|187:223|232:221,1,90,4|0,0:0|0:0,0:0:0:0:
344,292,251140,1,8,0:0:0:0:
216,340,251336,2,0,P|175:358|131:354,1,90
80,284,251729,1,2,0:0:0:0:
68,252,251827,1,2,0:0:0:0:
64,216,251925,1,8,0:0:0:0:
132,140,252121,1,0,0:0:0:0:
232,128,252317,5,2,0:0:0:0:
252,136,252415,1,2,0:0:0:0:
268,152,252513,1,2,0:0:0:0:
276,172,252611,1,2,0:0:0:0:
284,192,252709,1,2,0:0:0:0:
292,212,252807,1,2,0:0:0:0:
300,232,252905,2,0,P|332:296|388:328,2,135,2|4|0,0:0|0:0|0:0,0:0:0:0:
256,64,253886,5,4,0:0:0:0:
64,96,266435,6,0,P|48:136|48:192,1,83.9999974365235
128,160,266827,2,0,P|125:200|109:240,1,83.9999974365235
80,320,267219,2,0,P|120:317|160:301,1,83.9999974365235
240,280,267611,2,0,P|237:239|221:199,1,83.9999974365235
304,168,268003,2,0,P|306:208|322:248,1,83.9999974365235
296,328,268395,2,0,L|344:328,2,41.9999987182618
268,304,268787,2,0,P|215:303|165:284,1,107.999996704102
88,188,269376,1,0,0:0:0:0:
116,176,269474,1,0,0:0:0:0:
144,159,269572,6,0,P|161:147|172:130,2,41.9999987182618
163,228,269964,2,0,P|146:239|135:256,2,41.9999987182618
228,196,270356,2,0,P|260:156|268:116,1,83.9999974365235
384,160,270748,2,0,P|354:189|315:203,1,83.9999974365235
384,252,271140,2,0,P|434:246|468:223,1,83.9999974365235
508,288,271533,2,0,P|492:300|473:309,3,41.9999987182618
64,96,272709,2,0,P|48:136|48:192,1,83.9999974365235
104,240,273101,6,0,P|120:199|122:159,1,83.9999974365235
144,80,273493,2,0,P|184:77|224:61,1,83.9999974365235
208,144,273885,2,0,P|225:183|225:223,1,83.9999974365235
176,288,274278,2,0,B|160:336,2,41.999998998642,0|0|0,0:0|0:0|0:0,0:0:0:0:
288,252,274670,2,0,B|272:300,2,41.999998998642,0|0|0,0:0|0:0|0:0,0:0:0:0:
376,188,275062,1,0,0:0:0:0:
468,76,275650,5,0,0:0:0:0:
436,68,275748,1,0,0:0:0:0:
404,63,275846,2,0,P|362:72|327:93,1,83.9999974365235
232,200,276238,2,0,P|273:191|308:170,1,83.9999974365235
233,74,276631,2,0,P|191:82|156:104,1,83.9999974365235
155,230,277023,2,0,P|196:221|232:200,1,83.9999974365235
155,103,277415,2,0,P|60:141|23:237,1,209.999993591309,0|0,0:0|0:0,0:0:0:0:
64,320,278199,5,4,0:0:0:0:
256,192,278297,12,0,280160,0:0:0:0:
296,268,280552,6,0,L|388:268,1,90,4|0,0:0|0:0,0:0:0:0:
220,268,280944,2,0,L|128:268,1,90,2|0,0:0|0:0,0:0:0:0:
256,184,281337,2,0,B|256:80,2,90,2|0|2,0:0|0:0|0:0,0:0:0:0:
336,128,281925,2,0,P|376:96|440:96,2,90,0|2|0,0:0|0:0|0:0,0:0:0:0:
336,152,282415,1,0,0:0:0:0:
336,176,282513,1,2,0:0:0:0:
336,264,282709,1,0,0:0:0:0:
256,312,282905,1,0,0:0:0:0:
176,264,283101,2,0,B|176:208,2,45,0|0|2,0:0|0:0|0:0,0:0:0:0:
96,312,283494,1,0,0:0:0:0:
36,232,283689,6,0,P|72:204|116:184,1,90,2|0,0:0|0:0,0:0:0:0:
200,160,284082,2,0,L|312:160,1,90,2|0,0:0|0:0,0:0:0:0:
394,193,284474,2,0,P|436:212|472:240,2,90,2|0|2,0:0|0:0|0:0,0:0:0:0:
344,272,285062,6,0,B|256:320|164:272,1,180,2|0,0:0|0:0,0:0:0:0:
80,248,285650,1,2,0:0:0:0:
144,184,285847,1,0,0:0:0:0:
232,184,286042,2,0,L|328:204,2,90,2|0|2,0:0|0:0|0:0,0:0:0:0:
184,96,286631,5,0,0:0:0:0:
184,96,286729,1,0,0:0:0:0:
184,96,286827,2,0,P|264:72|368:96,1,180,2|2,0:0|0:0,0:0:0:0:
408,172,287415,1,0,0:0:0:0:
421,267,287611,2,0,P|377:264|340:240,2,90,0|0|2,0:0|0:0|0:0,0:0:0:0:
239,223,288199,6,0,P|152:223|98:291,1,180
196,316,288787,1,2,0:0:0:0:
284,296,288984,1,0,0:0:0:0:
144,152,289180,1,0,0:0:0:0:
232,132,289377,1,0,0:0:0:0:
327,163,289572,2,0,P|353:200|364:244,1,90,2|0,0:0|0:0,0:0:0:0:
444,244,289964,6,0,B|497:198|417:118|459:74,2,180,0|2|0,0:0|0:0|0:0,0:0:0:0:
376,296,290944,1,0,0:0:0:0:
280,296,291140,1,2,0:0:0:0:
197,245,291336,6,0,B|144:200|224:120|179:75,2,180
280,296,292317,1,0,0:0:0:0:
328,216,292513,1,0,0:0:0:0:
376,296,292709,1,2,0:0:0:0:
424,216,292905,5,0,0:0:0:0:
424,192,293003,1,0,0:0:0:0:
424,168,293101,2,0,B|424:72,1,90,4|0,0:0|0:0,0:0:0:0:
335,71,293493,2,0,P|292:63|248:76,1,90,2|0,0:0|0:0,0:0:0:0:
200,176,293886,2,0,P|244:184|288:175,1,90,2|0,0:0|0:0,0:0:0:0:
248,76,294278,5,2,0:0:0:0:
248,76,294474,2,0,P|160:44|72:92,1,180,2|0,0:0|0:0,0:0:0:0:
56,164,295062,1,0,0:0:0:0:
72,252,295258,1,0,0:0:0:0:
152,280,295454,2,0,P|200:256|256:256,1,90,2|0,0:0|0:0,0:0:0:0:
304,312,295846,2,0,P|277:330|221:338,1,90,2|0,0:0|0:0,0:0:0:0:
152,280,296238,6,0,P|153:236|173:196,1,90,4|0,0:0|0:0,0:0:0:0:
340,120,296631,2,0,P|340:164|319:203,1,90,0|0,0:0|0:0,0:0:0:0:
228,136,297023,2,0,P|169:119|130:130,1,90,2|0,0:0|0:0,0:0:0:0:
152,280,297415,1,0,0:0:0:0:
288,328,297611,6,0,L|284:148,1,180,2|0,0:0|0:0,0:0:0:0:
376,240,298199,2,0,L|376:330,1,90,2|2,0:0|0:0,0:0:0:0:
288,328,298591,1,0,0:0:0:0:
152,280,298787,1,2,0:0:0:0:
288,176,298984,1,2,0:0:0:0:
152,104,299180,5,0,0:0:0:0:
152,104,299278,1,0,0:0:0:0:
152,104,299376,2,0,B|72:60,1,90,4|0,0:0|0:0,0:0:0:0:
164,24,299768,2,0,B|244:68,1,90,2|0,0:0|0:0,0:0:0:0:
320,32,300160,1,0,0:0:0:0:
396,92,300356,1,0,0:0:0:0:
412,116,300454,1,0,0:0:0:0:
424,140,300552,1,2,0:0:0:0:
451,231,300748,6,0,P|459:276|454:320,1,90,2|0,0:0|0:0,0:0:0:0:
228,252,301140,1,0,0:0:0:0:
367,327,301337,2,0,P|324:338|272:324,1,90
191,168,301729,2,0,P|278:174|321:249,1,180,2|4,0:0|0:0,0:0:0:0:
116,152,302513,5,2,0:0:0:0:
116,328,302709,1,0,0:0:0:0:
36,200,302905,1,2,0:0:0:0:
36,280,303101,1,0,0:0:0:0:
172,240,303297,1,2,0:0:0:0:
280,264,303493,2,0,B|280:174,2,90,0|2|2,0:0|0:0|0:0,0:0:0:0:
280,348,304082,1,4,0:0:0:0:
256,192,304278,12,4,305650,0:0:0:0:
256,72,306042,5,8,0:0:0:0:
208,236,306239,1,0,0:0:0:0:
332,140,306435,1,0,0:0:0:0:
176,140,306631,1,0,0:0:0:0:
308,236,306827,1,8,0:0:0:0:
120,80,307023,2,0,P|98:119|99:163,2,90
368,80,307611,5,8,0:0:0:0:
308,236,307807,1,0,0:0:0:0:
404,140,308003,1,0,0:0:0:0:
256,164,308199,1,0,0:0:0:0:
264,320,308396,2,0,B|224:300|216:248,1,90,8|0,0:0|0:0,0:0:0:0:
232,96,308787,5,0,0:0:0:0:
152,224,308984,1,0,0:0:0:0:
108,308,309180,2,0,B|68:288|57:237,1,90,8|0,0:0|0:0,0:0:0:0:
40,96,309572,1,0,0:0:0:0:
136,152,309768,1,0,0:0:0:0:
136,152,309866,1,0,0:0:0:0:
136,152,309964,1,8,0:0:0:0:
232,96,310160,1,0,0:0:0:0:
328,184,310356,5,0,0:0:0:0:
364,356,310552,1,0,0:0:0:0:
232,312,310748,1,8,0:0:0:0:
392,224,310945,1,0,0:0:0:0:
268,304,311141,5,2,0:0:0:0:
232,312,311239,1,2,0:0:0:0:
200,312,311337,1,2,0:0:0:0:
100,260,311533,1,10,0:0:0:0:
80,236,311631,1,2,0:0:0:0:
68,204,311729,1,2,0:0:0:0:
68,104,311925,6,0,P|106:80|150:71,1,90,4|0,0:0|0:0,0:0:0:0:
272,200,312317,2,0,P|316:201|359:186,1,90,8|0,2:0|0:0,0:0:0:0:
336,48,312709,2,0,P|296:70|265:108,1,90
183,216,313101,2,0,P|152:247|136:289,2,90,8|0|0,0:0|0:0|0:0,0:0:0:0:
272,200,313690,1,0,0:0:0:0:
344,120,313886,1,8,0:0:0:0:
408,32,314082,2,0,B|443:60|452:106,1,90
356,252,314474,5,0,0:0:0:0:
485,283,314670,2,0,P|496:239|488:196,1,90,8|0,0:0|0:0,0:0:0:0:
199,250,315062,2,0,P|231:219|272:200,1,90
400,312,315454,2,0,P|368:343|327:362,1,90,8|0,0:0|0:0,0:0:0:0:
220,356,315846,1,0,0:0:0:0:
120,316,316043,1,0,0:0:0:0:
96,292,316141,1,0,0:0:0:0:
76,268,316239,1,8,0:0:0:0:
32,168,316435,6,0,P|9:129|2:84,2,90,2|0|0,0:0|0:0|0:0,0:0:0:0:
220,92,317023,1,8,0:0:0:0:
125,20,317219,2,0,P|98:55|96:100,1,90,0|0,0:0|0:0,0:0:0:0:
220,172,317611,2,0,B|220:228,2,45,0|0|8,0:0|0:0|0:0,0:0:0:0:
308,88,318003,5,2,0:0:0:0:
324,104,318101,1,2,0:0:0:0:
336,124,318199,2,0,B|380:204,1,90,4|0,0:0|0:0,0:0:0:0:
469,203,318591,2,0,L|379:202,1,90,8|0,0:0|0:0,0:0:0:0:
347,286,318984,2,0,L|379:202,1,90,8|0,0:0|0:0,0:0:0:0:
432,276,319376,1,8,0:0:0:0:
388,356,319572,2,0,P|344:364|292:348,1,90
216,312,319964,1,0,0:0:0:0:
192,224,320160,1,8,0:0:0:0:
264,176,320356,1,0,0:0:0:0:
336,224,320552,1,0,0:0:0:0:
304,312,320748,5,0,0:0:0:0:
120,312,320945,1,8,0:0:0:0:
40,152,321141,1,0,0:0:0:0:
96,80,321337,5,2,0:0:0:0:
152,152,321533,1,0,0:0:0:0:
264,240,321729,2,0,B|264:150,1,90,8|0,0:0|0:0,0:0:0:0:
264,60,322121,1,0,0:0:0:0:
152,152,322317,2,0,B|104:152,2,45,0|0|8,0:0|0:0|0:0,0:0:0:0:
177,240,322709,1,0,0:0:0:0:
225,164,322905,6,0,P|255:196|264:240,1,90,0|0,0:0|0:0,0:0:0:0:
264,60,323297,2,0,P|293:27|336:13,1,90,8|0,0:0|0:0,0:0:0:0:
480,88,323690,5,2,0:0:0:0:
480,112,323788,1,2,0:0:0:0:
480,136,323886,1,2,0:0:0:0:
476,160,323984,1,0,0:0:0:0:
468,180,324082,2,0,L|440:228,1,45,10|2,0:0|0:0,0:0:0:0:
352,264,324278,2,0,L|380:216,1,45,2|2,0:0|0:0,0:0:0:0:
427,296,324474,6,0,P|361:349|284:313,1,180,4|8,0:0|0:0,0:0:0:0:
216,192,325062,1,0,0:0:0:0:
140,112,325258,1,0,0:0:0:0:
116,240,325454,1,0,0:0:0:0:
128,272,325552,1,0,0:0:0:0:
144,296,325650,1,8,0:0:0:0:
256,248,325846,1,2,0:0:0:0:
140,112,326042,6,0,P|103:137|80:175,1,90,2|0,0:0|0:0,0:0:0:0:
144,296,326435,1,8,0:0:0:0:
216,192,326631,1,0,0:0:0:0:
296,192,326827,1,0,0:0:0:0:
380,296,327023,5,0,0:0:0:0:
256,328,327219,1,8,0:0:0:0:
144,296,327415,1,0,0:0:0:0:
256,248,327611,6,0,L|256:152,1,90,2|0,0:0|0:0,0:0:0:0:
344,64,328003,1,8,0:0:0:0:
256,40,328199,1,0,0:0:0:0:
168,64,328396,1,2,0:0:0:0:
75,148,328591,2,0,P|37:170|13:207,1,90,2|8,0:0|0:0,0:0:0:0:
120,260,328984,2,0,P|144:297|179:324,2,90,4|0|0,0:0|0:0|0:0,0:0:0:0:
76,148,329572,5,2,0:0:0:0:
228,168,329768,1,2,0:0:0:0:
292,288,329964,1,2,0:0:0:0:
220,48,330748,5,2,0:0:0:0:
188,52,330847,1,0,0:0:0:0:
160,60,330945,1,0,0:0:0:0:
132,76,331043,1,0,0:0:0:0:
108,96,331141,1,2,0:0:0:0:
92,124,331239,1,0,0:0:0:0:
80,152,331337,1,0,0:0:0:0:
76,184,331435,1,0,0:0:0:0:
80,216,331533,2,0,P|100:264|164:316,2,135,2|2|2,0:0|0:0|0:0,0:0:0:0:
168,216,332317,6,0,P|216:224|272:200,1,90,4|0,0:0|0:0,0:0:0:0:
360,76,332709,2,0,P|312:68|256:92,1,90,2|0,0:0|0:0,0:0:0:0:
168,216,333101,1,0,0:0:0:0:
288,220,333297,1,0,0:0:0:0:
320,204,333395,1,0,0:0:0:0:
340,172,333493,1,8,0:0:0:0:
273,79,333689,6,0,P|232:98|201:130,1,90,0|0,0:0|0:0,0:0:0:0:
168,216,334082,2,0,P|178:259|204:295,1,90,0|8,0:0|0:0,0:0:0:0:
300,356,334474,1,0,0:0:0:0:
408,336,334670,1,0,0:0:0:0:
392,240,334866,1,0,0:0:0:0:
376,224,334964,1,0,0:0:0:0:
360,208,335062,2,0,P|312:168|264:160,1,90,8|0,0:0|0:0,0:0:0:0:
168,216,335454,6,0,P|198:250|240:264,2,90,4|0|8,0:0|0:0|0:0,0:0:0:0:
228,56,336042,1,0,0:0:0:0:
252,168,336239,1,0,0:0:0:0:
140,136,336435,1,2,0:0:0:0:
140,136,336533,1,2,0:0:0:0:
140,136,336631,1,8,0:0:0:0:
64,216,336827,1,0,0:0:0:0:
136,304,337023,6,0,P|164:340|200:368,1,90,4|0,0:0|0:0,0:0:0:0:
343,265,337415,2,0,P|319:304|288:336,1,90,4|0,0:0|0:0,0:0:0:0:
164,208,337807,5,4,0:0:0:0:
260,136,338003,1,0,0:0:0:0:
372,184,338199,1,8,0:0:0:0:
80,88,338592,5,4,0:0:0:0:
160,56,338788,1,0,0:0:0:0:
184,64,338886,1,0,0:0:0:0:
208,72,338984,2,0,P|264:80|312:72,2,90,2|0|2,0:0|0:0|0:0,0:0:0:0:
160,152,339572,1,2,0:0:0:0:
144,168,339670,1,2,0:0:0:0:
132,188,339768,2,0,B|105:230|98:290,1,90,8|0,0:0|0:0,0:0:0:0:
224,272,340160,5,0,0:0:0:0:
364,336,340356,1,0,0:0:0:0:
452,184,340552,1,8,0:0:0:0:
304,216,340748,1,0,0:0:0:0:
444,276,340945,1,0,0:0:0:0:
316,124,341141,1,0,0:0:0:0:
300,116,341239,1,0,0:0:0:0:
284,108,341337,1,8,0:0:0:0:
152,180,341533,1,0,0:0:0:0:
68,335,341729,6,0,P|39:251|68:168,1,180,4|2,0:0|0:0,0:0:0:0:
116,108,342317,1,0,0:0:0:0:
144,248,342513,1,0,0:0:0:0:
232,320,342709,1,2,0:0:0:0:
256,336,342807,1,2,0:0:0:0:
280,348,342905,1,10,0:0:0:0:
376,340,343101,1,0,0:0:0:0:
432,256,343297,5,2,0:0:0:0:
432,232,343395,1,2,0:0:0:0:
432,208,343493,1,2,0:0:0:0:
432,184,343591,1,2,0:0:0:0:
432,160,343689,1,2,0:0:0:0:
432,136,343787,1,2,0:0:0:0:
432,112,343886,2,0,P|368:72|288:64,2,135,0|4|4,0:0|0:0|0:0,0:0:0:0:
344,144,344670,5,2,0:0:0:0:
328,160,344768,1,2,0:0:0:0:
312,176,344866,1,4,0:0:0:0:
240,232,345062,1,0,0:0:0:0:
240,232,345160,1,0,0:0:0:0:
240,232,345258,2,0,B|150:232,1,90,8|0,0:0|0:0,0:0:0:0:
64,232,345650,1,0,0:0:0:0:
64,144,345847,2,0,B|64:80,2,45,2|2|8,0:0|0:0|0:0,0:0:0:0:
160,155,346238,6,0,P|201:78|287:67,1,180,4|2,0:0|0:0,0:0:0:0:
256,160,346827,1,8,0:0:0:0:
256,336,347023,1,0,0:0:0:0:
204,248,347219,1,0,0:0:0:0:
336,260,347415,1,0,0:0:0:0:
352,276,347513,1,0,0:0:0:0:
368,288,347611,1,8,0:0:0:0:
432,192,347807,1,0,0:0:0:0:
334,61,348003,6,0,P|409:106|432:191,1,180,4|2,0:0|0:0,0:0:0:0:
320,176,348592,2,0,B|230:176,1,90,0|8,0:0|0:0,0:0:0:0:
144,176,348984,1,0,0:0:0:0:
120,184,349082,1,2,0:0:0:0:
96,192,349180,1,2,0:0:0:0:
72,280,349376,1,0,0:0:0:0:
152,320,349572,5,8,0:0:0:0:
240,304,349768,1,0,0:0:0:0:
292,232,349964,1,8,0:0:0:0:
368,184,350160,1,0,0:0:0:0:
480,96,350356,1,0,0:0:0:0:
352,48,350552,5,0,0:0:0:0:
368,184,350748,1,8,0:0:0:0:
348,288,351140,6,0,P|320:338|282:366,1,90,4|0,0:0|0:0,0:0:0:0:
216,232,351533,2,0,P|158:228|117:205,1,90,8|0,0:0|0:0,0:0:0:0:
244,120,351925,2,0,P|218:69|217:22,1,90,0|2,0:0|0:0,0:0:0:0:
376,120,352317,2,0,P|408:72|448:48,1,90,8|2,0:0|0:0,0:0:0:0:
492,164,352709,6,0,L|492:256,1,90,0|2,0:0|0:0,0:0:0:0:
416,336,353101,1,8,0:0:0:0:
272,264,353297,1,0,0:0:0:0:
392,248,353494,1,0,0:0:0:0:
248,180,353690,1,0,0:0:0:0:
224,168,353788,1,0,0:0:0:0:
200,156,353886,6,0,L|119:115,1,90,8|0,0:0|0:0,0:0:0:0:
36,212,354278,2,0,P|68:242|111:252,1,90,4|0,0:0|0:0,0:0:0:0:
200,156,354670,2,0,P|223:116|263:92,1,90,8|0,0:0|0:0,0:0:0:0:
348,212,355062,1,0,0:0:0:0:
424,300,355258,2,0,B|444:360,2,45,2|2|8,0:0|0:0|0:0,0:0:0:0:
408,148,355650,1,0,0:0:0:0:
328,232,355847,5,2,0:0:0:0:
312,248,355945,1,2,0:0:0:0:
296,264,356043,1,2,0:0:0:0:
280,280,356141,1,2,0:0:0:0:
264,296,356239,1,2,0:0:0:0:
248,312,356337,1,2,0:0:0:0:
232,327,356435,2,0,P|170:354|103:360,2,135,0|4|4,0:0|0:0|0:0,0:0:0:0:
256,152,357415,5,4,0:0:0:0:
