osu file format v12

[General]
AudioFilename: S.A.T.O.R.A.R.E.mp3
AudioLeadIn: 1004
PreviewTime: 109277
Countdown: 0
SampleSet: Soft
StackLeniency: 0.7
Mode: 0
LetterboxInBreaks: 0

[Editor]
Bookmarks: 1412,22985,33771,44558,66131,76917,109277
DistanceSpacing: 1
BeatDivisor: 4
GridSize: 4

[Metadata]
Title:S.A.T.O.R.A.R.E
TitleUnicode:S.A.T.O.R.A.R.E
Artist:Halozy
ArtistUnicode:Halozy
Creator:Leorda
Version:Lunatic
Source:Touhou
Tags:misato future love satori komeiji maiden 3rd eye stage 4 boss subterranean animism
BeatmapID:187727
BeatmapSetID:63563

[Difficulty]
HPDrainRate:8
CircleSize:4
OverallDifficulty:8
ApproachRate:8
SliderMultiplier:1.5
SliderTickRate:2

[Events]
//Background and Video events
0,0,"Sato-chan.jpg",0,0
//Break Periods
2,23187,33023
2,66333,76169
//Storyboard Layer 0 (Background)
//Storyboard Layer 1 (Fail)
//Storyboard Layer 2 (Pass)
//Storyboard Layer 3 (Foreground)
//Storyboard Sound Samples
//Background Colour Transformations
3,100,163,162,255

[TimingPoints]
66,337.078651685393,4,2,0,80,1,0
44558,-133.333333333333,4,2,0,80,0,0
63350,-133.333333333333,4,1,0,80,0,0
66131,-100,4,2,0,80,0,0
109279,-100,4,2,0,80,0,1
130852,-100,4,2,0,80,0,0

[Colours]
Combo1 : 198,255,140
Combo2 : 255,111,165
Combo3 : 255,198,64
Combo4 : 168,187,255

[HitObjects]
448,240,1414,1,4,1:2:0:0:
448,90,1751,1,8,0:0:0:0:
376,112,1919,1,0,0:0:0:0:
336,176,2088,2,0,B|176:176,1,150,0|8,0:0|0:0,0:0:0:0:
110,176,2594,1,0,0:0:0:0:
32,176,2762,6,0,B|32:104|64:104|64:16,1,150,0|8,0:0|0:0,0:0:0:0:
112,176,3268,2,0,B|112:248|80:248|80:321,1,150,0|0,0:0|0:0,0:0:0:0:
155,321,3773,1,8,0:0:0:0:
230,321,3942,1,0,0:0:0:0:
304,321,4110,6,0,B|357:321|397:273|371:216,1,150,0|8,1:0|0:0,0:0:0:0:
308,172,4616,1,0,0:0:0:0:
244,136,4785,2,0,B|216:80|256:24|320:24,1,150,0|8,0:0|0:0,0:0:0:0:
312,104,5290,1,0,0:0:0:0:
388,104,5459,6,0,B|468:104,1,75
480,176,5796,1,8,0:0:0:0:
460,248,5964,2,0,B|380:248,1,75
360,320,6301,1,0,0:0:0:0:
288,320,6470,2,0,B|128:320,1,150,8|0,0:0|1:0,0:0:0:0:
64,320,6976,5,0,0:0:0:0:
64,248,7144,1,8,0:0:0:0:
120,200,7313,1,0,0:0:0:0:
192,200,7481,2,0,B|192:32,1,150,0|8,0:0|0:0,0:0:0:0:
264,48,7987,1,0,0:0:0:0:
336,48,8155,6,0,B|432:48|432:152,1,150,0|8,0:0|0:0,0:0:0:0:
376,192,8661,2,0,B|280:192,2,75
432,240,9167,2,0,B|432:336|328:336,1,150,8|0,0:0|1:0,0:0:0:0:
264,328,9672,5,0,0:0:0:0:
192,320,9841,1,8,0:0:0:0:
152,256,10009,1,0,0:0:0:0:
160,184,10178,2,0,B|160:136|120:120,1,75
21,34,10515,2,0,B|21:82|56:96,1,75,8|0,0:0|0:0,0:0:0:0:
112,48,10852,6,0,B|280:48,1,150,0|8,0:0|0:0,0:0:0:0:
429,121,11358,2,0,B|279:121,1,150
248,192,11863,1,8,0:0:0:0:
288,256,12032,1,0,0:0:0:0:
328,320,12200,6,0,B|381:320|421:272|395:215,2,150,4|8|0,1:2|0:0|0:0,0:0:0:0:
256,320,13043,1,0,0:0:0:0:
184,320,13212,2,0,B|184:280|160:280|160:240,1,75,8|0,0:0|0:0,0:0:0:0:
152,176,13549,6,0,B|152:123|104:83|47:109,1,150,0|8,0:0|0:0,0:0:0:0:
0,168,14054,2,0,B|0:221|48:261|105:235,1,150,0|0,0:0|0:0,0:0:0:0:
152,176,14560,1,8,0:0:0:0:
224,152,14728,1,0,0:0:0:0:
296,176,14897,6,0,B|368:224|448:168,1,150,0|8,1:0|0:0,0:0:0:0:
448,104,15403,1,0,0:0:0:0:
377,115,15571,2,0,B|329:187|385:267,1,150,0|8,0:0|0:0,0:0:0:0:
440,304,16077,1,0,0:0:0:0:
304,288,16245,6,0,B|224:288,1,75
153,288,16582,1,8,0:0:0:0:
96,192,16751,2,0,B|176:192,1,75
247,192,17088,1,0,0:0:0:0:
296,88,17257,2,0,B|216:88,2,75,8|0|0,0:0|0:0|1:0,0:0:0:0:
352,40,17762,5,0,0:0:0:0:
368,112,17931,1,8,0:0:0:0:
416,168,18099,1,0,0:0:0:0:
480,200,18268,2,0,B|528:264|480:344,1,150,0|8,0:0|0:0,0:0:0:0:
408,360,18773,1,0,0:0:0:0:
344,320,18942,6,0,B|267:274|200:328,1,150,0|8,0:0|0:0,0:0:0:0:
168,256,19448,2,0,B|224:208|312:224,1,150
336,152,19953,2,0,B|256:128|176:160,1,150,8|0,0:0|1:0,0:0:0:0:
120,184,20459,5,0,0:0:0:0:
48,160,20627,1,8,0:0:0:0:
104,112,20796,1,0,0:0:0:0:
120,184,20964,2,0,B|120:256|88:256|88:329,1,150,0|8,0:0|0:0,0:0:0:0:
163,329,21470,1,0,0:0:0:0:
240,328,21639,6,0,B|320:328,1,75
384,288,21976,1,8,0:0:0:0:
440,240,22144,2,0,B|472:216,2,37.5,0|0|8,0:0|0:0|0:0,0:0:0:0:
368,216,22481,1,0,0:0:0:0:
296,184,22650,2,0,B|264:152|216:176,1,75,8|0,0:0|0:0,0:0:0:0:
176,232,22987,5,4,1:2:0:0:
88,336,33773,5,4,1:2:0:0:
40,280,33942,2,0,P|54:192|99:189,1,150
168,224,34448,1,0,0:0:0:0:
232,264,34616,2,0,P|278:260|300:232,1,75
328,176,34953,1,0,0:0:0:0:
288,112,35122,5,0,3:0:0:0:
232,64,35290,2,0,P|176:72|144:168,1,150
168,224,35796,1,0,0:0:0:0:
232,264,35964,2,0,P|200:296|152:296,1,75
104,264,36301,1,0,0:0:0:0:
168,224,36470,5,4,1:2:0:0:
232,184,36639,2,0,P|296:208|312:296,1,150
328,352,37144,1,0,0:0:0:0:
400,336,37313,1,0,0:0:0:0:
464,304,37481,2,0,L|464:216,1,75
456,152,37818,5,0,3:0:0:0:
432,80,37987,2,0,P|400:48|296:64,1,150
256,120,38492,1,0,0:0:0:0:
208,176,38661,2,0,P|168:168|136:128,1,75
136,72,38998,1,0,0:0:0:0:
72,112,39167,5,4,1:2:0:0:
80,184,39335,2,0,P|120:224|216:256,1,150
280,248,39841,1,0,0:0:0:0:
352,240,40009,2,0,P|368:280|352:328,1,75
288,328,40346,1,0,0:0:0:0:
224,296,40515,5,4,3:2:0:0:
280,248,40683,2,0,P|296:192|384:176,1,150
448,192,41189,1,0,0:0:0:0:
496,136,41358,2,0,P|504:88|488:64,1,75
424,40,41695,1,0,0:0:0:0:
352,64,41863,5,4,1:2:0:0:
288,104,42032,2,0,P|240:128|160:64,1,150
232,48,42537,1,4,0:0:0:0:
288,104,42706,1,0,0:0:0:0:
320,168,42874,2,0,P|328:216|312:248,1,75
256,296,43212,5,4,0:0:0:0:
248,320,43296,1,0,0:0:0:0:
240,344,43380,1,0,0:0:0:0:
152,192,43549,5,4,0:0:0:0:
128,184,43633,1,0,0:0:0:0:
104,176,43717,1,0,0:0:0:0:
256,88,43886,5,4,0:0:0:0:
264,64,43970,1,0,0:0:0:0:
272,40,44054,1,0,0:0:0:0:
360,192,44223,5,4,0:0:0:0:
384,200,44307,1,0,0:0:0:0:
408,208,44391,1,0,0:0:0:0:
256,192,44560,5,4,1:2:0:0:
192,288,44897,1,0,0:0:0:0:
120,320,45065,2,0,P|72:312|56:248,1,112.500004291535
112,208,45571,2,0,P|112:144|64:120,1,112.500004291535
0,96,46077,2,0,P|16:32|56:24,1,112.500004291535
128,40,46582,2,0,P|168:72|240:64,1,112.500004291535
304,48,47088,1,0,0:0:0:0:
376,80,47257,5,0,0:0:0:0:
376,160,47425,1,0,0:0:0:0:
312,200,47594,1,0,0:0:0:0:
240,232,47762,2,0,P|224:272|272:320,1,112.500004291535
344,320,48268,2,0,P|408:312|424:264,1,112.500004291535
448,200,48773,1,0,0:0:0:0:
376,160,48942,1,0,0:0:0:0:
312,120,49110,2,0,P|256:128|224:80,1,112.500004291535
200,16,49616,1,0,0:0:0:0:
120,16,49785,1,0,0:0:0:0:
56,64,49953,6,0,P|16:96|32:168,1,112.500004291535
96,176,50459,2,0,P|136:208|120:280,1,112.500004291535
72,312,50964,2,0,P|104:360|168:360,1,112.500004291535
224,328,51470,1,0,0:0:0:0:
264,256,51639,1,0,0:0:0:0:
272,176,51807,2,0,P|320:152|368:192,1,112.500004291535
376,264,52313,1,0,0:0:0:0:
432,320,52481,1,0,0:0:0:0:
480,264,52650,6,0,P|512:208|496:168,1,112.500004291535
256,192,53155,12,0,55009,0:0:0:0:
248,216,55346,6,0,P|184:160|272:56,1,225.000008583069,2|0,0:0|0:0,0:0:0:0:
264,136,56189,1,0,0:0:0:0:
320,184,56358,1,0,0:0:0:0:
392,160,56526,1,0,0:0:0:0:
458,129,56695,6,0,B|512:168|481:228,1,112.500004291535,2|0,0:0|0:0,0:0:0:0:
272,312,57200,2,0,B|218:273|248:213,1,112.500004291535,2|0,0:0|0:0,0:0:0:0:
264,136,57706,1,2,0:0:0:0:
216,80,57874,1,0,0:0:0:0:
152,120,58043,6,0,B|104:144|32:128,1,112.500004291535,0|0,0:0|0:0,0:0:0:0:
88,72,58549,2,0,B|112:120|96:192,1,112.500004291535
56,240,59054,1,0,0:0:0:0:
88,304,59223,1,0,0:0:0:0:
160,280,59391,6,0,B|216:248|272:288,1,112.500004291535,2|0,0:0|0:0,0:0:0:0:
434,324,59897,2,0,B|378:356|328:320,1,112.500004291535,2|0,0:0|0:0,0:0:0:0:
464,256,60403,2,0,B|464:184|464:184,1,56.2500021457673,2|0,0:0|0:0,0:0:0:0:
440,128,60740,6,0,B|344:80|320:184|216:112,1,225.000008583069,0|0,0:0|0:0,0:0:0:0:
160,80,61582,1,0,0:0:0:0:
96,40,61751,1,0,0:0:0:0:
48,96,61919,1,0,0:0:0:0:
48,168,62088,2,0,B|48:304,1,112.500004291535,2|0,0:0|0:0,0:0:0:0:
88,344,62594,2,0,B|216:344,1,112.500004291535,2|0,0:0|0:0,0:0:0:0:
272,344,63099,1,2,0:0:0:0:
336,312,63268,1,0,0:0:0:0:
336,240,63436,5,0,0:0:0:0:
336,240,63605,1,0,0:0:0:0:
288,184,63773,1,0,0:0:0:0:
288,184,63942,1,0,0:0:0:0:
216,168,64110,1,0,0:0:0:0:
216,168,64279,1,0,0:0:0:0:
168,112,64448,1,0,0:0:0:0:
168,112,64616,1,0,0:0:0:0:
216,56,64785,5,0,0:0:0:0:
248,40,64869,1,0,0:0:0:0:
288,48,64953,1,0,0:0:0:0:
312,80,65037,1,0,0:0:0:0:
344,96,65122,1,0,0:0:0:0:
360,128,65206,1,0,0:0:0:0:
392,144,65290,1,0,0:0:0:0:
424,136,65374,1,0,0:0:0:0:
448,144,65459,2,0,L|496:192,1,56.2500021457673
448,144,65796,2,0,B|384:256,1,112.500004291535,0|4,0:0|0:0,0:0:0:0:
216,184,76919,6,0,B|112:184,2,75,4|0|0,1:2|0:0|0:0,0:0:0:0:
288,200,77425,2,0,B|392:200,2,75,4|0|0,1:2|0:0|0:0,0:0:0:0:
168,112,77931,6,0,B|64:112,2,75,4|0|0,1:2|0:0|0:0,0:0:0:0:
344,272,78436,2,0,B|448:272,2,75,4|0|0,1:2|0:0|0:0,0:0:0:0:
120,40,78942,6,0,B|16:40,1,75,4|0,1:2|0:0,0:0:0:0:
388,344,79279,2,0,B|492:344,1,75,4|0,1:2|0:0,0:0:0:0:
232,264,79616,6,0,B|216:304|176:312,1,75,4|0,1:2|0:0,0:0:0:0:
152,240,79953,1,0,0:0:0:0:
256,272,80122,2,0,B|240:312|200:320,1,75,4|0,1:2|0:0,0:0:0:0:
144,232,80459,1,0,0:0:0:0:
288,280,80627,2,0,B|272:320|232:328,1,75,4|0,1:2|0:0,0:0:0:0:
136,224,80964,1,0,0:0:0:0:
312,288,81133,2,0,B|296:328|256:336,1,75,4|0,1:2|0:0,0:0:0:0:
128,216,81470,5,0,0:0:0:0:
104,184,81554,1,0,0:0:0:0:
96,144,81639,2,0,B|112:96|160:72,1,75,4|0,1:2|0:0,0:0:0:0:
176,72,81891,1,0,0:0:0:0:
208,88,81976,2,0,B|248:112|304:80,1,75,4|0,1:2|0:0,0:0:0:0:
352,72,82313,6,0,B|352:152,1,75,4|0,1:2|0:0,0:0:0:0:
288,184,82650,1,0,0:0:0:0:
376,56,82818,2,0,B|376:136,1,75,4|0,1:2|0:0,0:0:0:0:
280,192,83155,1,0,0:0:0:0:
408,40,83324,2,0,B|408:120,1,75,4|0,1:2|0:0,0:0:0:0:
272,200,83661,1,0,0:0:0:0:
432,24,83830,2,0,B|432:104,1,75,4|0,1:2|0:0,0:0:0:0:
264,208,84167,1,0,0:0:0:0:
464,8,84335,6,0,B|464:88,1,75,4|0,1:2|0:0,0:0:0:0:
432,264,84672,2,0,B|432:184,1,75,4|0,1:2|0:0,0:0:0:0:
360,184,85009,5,4,1:2:0:0:
357,221,85094,1,0,0:0:0:0:
342,255,85178,1,0,0:0:0:0:
315,280,85262,1,0,0:0:0:0:
280,293,85346,5,4,1:2:0:0:
242,295,85431,1,0,0:0:0:0:
207,283,85515,1,0,0:0:0:0:
181,257,85599,1,0,0:0:0:0:
171,220,85683,5,4,1:2:0:0:
149,190,85768,1,0,0:0:0:0:
115,174,85852,1,0,0:0:0:0:
78,175,85936,1,0,0:0:0:0:
46,193,86021,5,4,1:2:0:0:
24,224,86105,1,0,0:0:0:0:
19,260,86189,1,0,0:0:0:0:
27,297,86273,1,0,0:0:0:0:
47,328,86357,5,4,1:2:0:0:
256,192,86400,12,0,87369,0:0:0:0:
256,64,87706,6,0,B|328:40|328:88|416:64,1,150,0|4,0:0|1:2,0:0:0:0:
464,112,88212,1,0,0:0:0:0:
480,144,88296,1,0,0:0:0:0:
472,184,88380,1,0,0:0:0:0:
400,160,88549,2,0,B|400:256,2,75,0|8|0,1:2|0:0|0:0,0:0:0:0:
328,160,89054,6,0,P|288:156|240:164,1,75,0|0,1:2|0:0,0:0:0:0:
176,176,89391,1,8,0:0:0:0:
228,232,89560,1,0,0:0:0:0:
252,160,89728,2,0,B|232:96|176:88|128:112,1,150,0|8,0:0|0:0,0:0:0:0:
96,176,90234,1,0,0:0:0:0:
72,248,90403,6,0,B|24:248|8:280,1,75,0|0,1:2|0:0,0:0:0:0:
48,344,90740,2,0,B|96:344|112:312,1,75,8|0,0:0|0:0,0:0:0:0:
184,320,91077,2,0,B|216:304|224:328|272:312,1,75,0|0,0:0|1:2,0:0:0:0:
296,304,91330,2,0,B|352:232,1,75,8|0,0:0|0:0,0:0:0:0:
368,216,91582,2,0,B|408:192|448:224,1,75,0|0,0:0|1:2,0:0:0:0:
464,288,91919,5,0,0:0:0:0:
408,344,92088,1,8,0:0:0:0:
392,272,92257,1,0,0:0:0:0:
408,240,92341,1,0,0:0:0:0:
440,216,92425,2,0,B|464:176|432:128,1,75,0|0,0:0|1:2,0:0:0:0:
416,112,92678,1,0,0:0:0:0:
376,112,92762,2,0,B|344:144|288:136,1,75,8|0,0:0|0:0,0:0:0:0:
248,88,93099,6,0,B|192:80|168:120,1,75,4|0,1:2|0:0,0:0:0:0:
120,152,93436,1,8,0:0:0:0:
104,184,93521,1,0,0:0:0:0:
104,224,93605,1,0,0:0:0:0:
120,256,93689,1,0,0:0:0:0:
152,280,93773,2,0,B|192:304|232:280,1,75,0|0,0:0|1:2,0:0:0:0:
240,248,94026,2,0,B|271:228|311:252,1,75,8|0,0:0|0:0,0:0:0:0:
336,280,94279,1,0,0:0:0:0:
272,320,94448,5,0,1:2:0:0:
240,248,94616,1,0,0:0:0:0:
304,208,94785,1,8,0:0:0:0:
336,280,94953,1,0,0:0:0:0:
272,320,95122,2,0,B|192:320,1,75,0|0,0:0|1:0,0:0:0:0:
128,304,95459,2,0,B|53:304,1,75,8|0,0:0|0:0,0:0:0:0:
0,248,95796,6,0,B|24:208|64:200,1,75,0|0,1:2|0:0,0:0:0:0:
128,208,96133,2,0,B|128:168|105:137,1,75,8|0,0:0|0:0,0:0:0:0:
96,64,96470,2,0,B|128:32|184:40,1,75,0|0,0:0|1:2,0:0:0:0:
192,64,96723,1,0,0:0:0:0:
224,48,96807,5,8,0:0:0:0:
264,48,96891,1,0,0:0:0:0:
296,56,96976,1,0,0:0:0:0:
328,80,97060,1,0,0:0:0:0:
344,112,97144,2,0,B|320:200|416:256,1,150,0|8,1:2|0:0,0:0:0:0:
424,256,97565,1,0,0:0:0:0:
456,280,97650,5,0,1:0:0:0:
464,312,97734,1,0,0:0:0:0:
440,344,97818,1,0,0:0:0:0:
400,352,97903,1,0,0:0:0:0:
368,344,97987,2,0,B|312:304|272:328,1,75,0|8,1:0|0:0,0:0:0:0:
264,336,98240,1,0,0:0:0:0:
232,352,98324,1,0,0:0:0:0:
192,360,98408,1,0,0:0:0:0:
160,352,98492,1,4,1:2:0:0:
104,304,98661,5,0,0:0:0:0:
144,240,98830,1,8,0:0:0:0:
104,176,98998,1,0,0:0:0:0:
120,144,99082,1,0,0:0:0:0:
152,128,99167,1,0,0:0:0:0:
216,160,99335,2,0,B|256:184|296:160,2,75,0|8|0,1:2|0:0|0:0,0:0:0:0:
256,96,99841,5,0,1:2:0:0:
296,88,99925,1,0,0:0:0:0:
328,96,100009,2,0,B|368:120|368:160,1,75,0|8,0:0|0:0,0:0:0:0:
336,224,100346,1,0,0:0:0:0:
312,256,100431,1,0,0:0:0:0:
296,288,100515,2,0,B|296:344|344:376|400:360,1,150,0|8,0:0|0:0,0:0:0:0:
376,288,101021,1,0,0:0:0:0:
336,224,101189,5,0,1:2:0:0:
272,184,101358,1,0,0:0:0:0:
216,232,101526,1,8,0:0:0:0:
144,208,101695,1,0,0:0:0:0:
72,176,101863,2,0,B|72:128|112:104,1,75,0|0,0:0|1:2,0:0:0:0:
144,112,102116,2,0,B|192:112|208:72,1,75,8|0,0:0|0:0,0:0:0:0:
232,48,102369,2,0,B|280:40|296:72,1,75,0|0,0:0|1:2,0:0:0:0:
336,136,102706,5,0,0:0:0:0:
408,160,102874,1,8,0:0:0:0:
464,216,103043,1,0,0:0:0:0:
472,256,103127,1,0,0:0:0:0:
456,288,103212,2,0,B|416:312|376:296,1,75,0|0,0:0|1:2,0:0:0:0:
360,272,103464,1,0,0:0:0:0:
336,248,103549,2,0,B|296:232|264:256,1,75,8|0,0:0|0:0,0:0:0:0:
216,312,103886,6,0,B|184:336|136:320,1,75,4|0,1:2|0:0,0:0:0:0:
96,264,104223,1,8,0:0:0:0:
120,232,104307,1,0,0:0:0:0:
120,192,104391,1,0,0:0:0:0:
104,160,104476,1,0,0:0:0:0:
72,136,104560,2,0,B|80:96|120:80,1,75,0|0,0:0|1:2,0:0:0:0:
152,96,104813,2,0,B|200:112|224:88,1,75,8|0,0:0|0:0,0:0:0:0:
248,56,105065,1,0,0:0:0:0:
320,40,105234,6,0,B|384:40,1,37.5,0|0,1:2|0:0,0:0:0:0:
352,80,105403,2,0,B|400:96,1,37.5
360,120,105571,2,0,B|392:160,1,37.5,8|0,0:0|0:0,0:0:0:0:
344,160,105740,2,0,B|352:208,1,37.5
312,184,105908,2,0,B|312:344,1,150,0|8,0:0|0:0,0:0:0:0:
236,334,106414,1,0,0:0:0:0:
160,336,106582,5,0,1:2:0:0:
122,336,106667,1,0,0:0:0:0:
85,333,106751,1,0,0:0:0:0:
62,306,106835,1,0,0:0:0:0:
80,276,106919,5,8,0:0:0:0:
118,270,107004,1,0,0:0:0:0:
145,247,107088,1,0,0:0:0:0:
126,219,107172,1,0,0:0:0:0:
88,213,107257,5,0,0:0:0:0:
68,184,107341,1,0,0:0:0:0:
87,155,107425,1,0,1:2:0:0:
124,148,107509,1,0,0:0:0:0:
147,121,107594,5,8,0:0:0:0:
122,97,107678,1,0,0:0:0:0:
84,96,107762,1,0,0:0:0:0:
64,64,107846,1,0,0:0:0:0:
80,32,107931,5,4,0:0:0:0:
256,192,108015,12,8,108942,0:0:0:0:
256,304,109279,5,4,1:2:0:0:
184,272,109448,1,0,0:0:0:0:
144,208,109616,2,0,B|120:160|80:160,1,75,8|0,0:0|0:0,0:0:0:0:
72,232,109953,1,0,0:0:0:0:
112,296,110122,1,0,1:2:0:0:
184,272,110290,2,0,B|208:232|256:224,1,75,8|0,0:0|0:0,0:0:0:0:
312,248,110627,6,0,B|376:248|376:288|464:288,1,150,0|8,1:2|0:0,0:0:0:0:
480,216,111133,2,0,B|401:216|401:176|337:176,1,150,0|0,0:0|1:2,0:0:0:0:
264,176,111639,1,8,0:0:0:0:
208,128,111807,1,0,0:0:0:0:
216,56,111976,6,0,B|168:48|112:104|144:168,1,150,0|8,1:2|0:0,0:0:0:0:
148,228,112481,1,0,0:0:0:0:
200,280,112650,2,0,B|240:296|272:280,1,75,0|0,0:0|1:2,0:0:0:0:
304,256,112903,1,0,0:0:0:0:
336,232,112987,2,0,B|368:215|408:231,1,75,8|0,0:0|0:0,0:0:0:0:
376,304,113324,6,0,B|416:320|464:296,1,75,0|0,1:2|0:0,0:0:0:0:
480,280,113577,2,0,B|480:232,1,37.5,0|8,0:0|0:0,0:0:0:0:
456,176,113830,1,0,0:0:0:0:
424,104,113998,2,0,P|384:104|352:128,1,75,0|0,0:0|1:2,0:0:0:0:
328,152,114251,2,0,B|272:152,1,37.5,0|8,0:0|0:0,0:0:0:0:
256,216,114504,1,0,0:0:0:0:
216,216,114588,1,0,0:0:0:0:
176,216,114672,6,0,B|120:216|88:160|120:120,1,112.5,0|0,1:2|0:0,0:0:0:0:
128,112,115009,1,8,0:0:0:0:
192,64,115178,1,0,0:0:0:0:
264,96,115346,1,0,0:0:0:0:
304,96,115431,1,0,0:0:0:0:
336,72,115515,1,0,1:2:0:0:
400,32,115683,2,0,B|448:32|472:64,1,75,8|0,0:0|0:0,0:0:0:0:
408,112,116021,6,0,B|408:224,1,112.5,0|0,1:2|0:0,0:0:0:0:
408,262,116358,1,8,0:0:0:0:
344,296,116526,1,0,0:0:0:0:
280,264,116695,2,0,B|240:280,2,37.5,0|0|0,0:0|0:0|1:2,0:0:0:0:
280,192,117032,2,0,B|280:152|240:96|160:128,1,150,8|0,0:0|1:2,0:0:0:0:
120,176,117537,5,0,0:0:0:0:
56,216,117706,1,8,0:0:0:0:
56,216,117874,1,0,0:0:0:0:
96,280,118043,1,0,0:0:0:0:
96,280,118212,1,0,1:2:0:0:
168,256,118380,1,8,0:0:0:0:
168,256,118549,1,0,0:0:0:0:
216,312,118717,6,0,B|192:352,2,37.5,0|0|0,1:2|0:0|0:0,0:0:0:0:
272,264,119054,1,8,0:0:0:0:
344,280,119223,1,0,0:0:0:0:
416,296,119391,1,0,0:0:0:0:
418,259,119476,1,0,0:0:0:0:
400,226,119560,1,0,1:2:0:0:
369,205,119644,1,0,0:0:0:0:
334,193,119728,1,8,0:0:0:0:
298,181,119813,1,0,0:0:0:0:
269,159,119897,1,0,0:0:0:0:
252,125,119981,1,0,0:0:0:0:
247,88,120065,1,4,1:2:0:0:
200,32,120234,5,0,0:0:0:0:
144,88,120403,2,0,B|112:128|64:112,1,75,8|0,0:0|0:0,0:0:0:0:
80,40,120740,1,0,0:0:0:0:
144,88,120908,1,0,1:2:0:0:
176,160,121077,2,0,B|176:192|192:192|192:232,1,75,8|0,0:0|0:0,0:0:0:0:
224,304,121414,6,0,B|272:352|336:320,1,112.5,0|0,1:2|0:0,0:0:0:0:
360,304,121751,1,8,0:0:0:0:
408,248,121919,1,0,0:0:0:0:
368,184,122088,1,0,0:0:0:0:
352,152,122172,1,0,0:0:0:0:
368,120,122257,1,0,1:2:0:0:
440,120,122425,2,0,B|456:80|440:32,1,75,8|0,0:0|0:0,0:0:0:0:
368,32,122762,6,0,B|296:32|296:64|208:64,1,150,0|8,1:2|0:0,0:0:0:0:
160,104,123268,1,0,0:0:0:0:
112,160,123436,2,0,B|152:192|136:256,1,75,0|0,0:0|1:2,0:0:0:0:
128,304,123773,1,8,0:0:0:0:
176,368,123942,1,0,0:0:0:0:
248,344,124110,6,0,B|232:304,2,37.5,0|0|0,1:2|0:0|0:0,0:0:0:0:
312,312,124448,1,8,0:0:0:0:
384,328,124616,1,0,0:0:0:0:
432,272,124785,1,0,0:0:0:0:
392,208,124953,1,0,1:0:0:0:
416,184,125037,1,0,0:0:0:0:
456,184,125122,1,8,0:0:0:0:
512,128,125290,1,0,0:0:0:0:
488,104,125374,1,0,0:0:0:0:
464,80,125459,6,0,B|344:80,1,112.5,0|0,1:2|0:0,0:0:0:0:
312,80,125796,1,8,0:0:0:0:
272,144,125964,1,0,0:0:0:0:
304,216,126133,2,0,B|320:248,2,37.5,0|0|0,0:0|0:0|1:2,0:0:0:0:
232,216,126470,2,0,B|184:216|168:168,1,75,8|0,0:0|0:0,0:0:0:0:
152,104,126807,6,0,B|136:40|64:56,1,112.5,0|0,1:2|0:0,0:0:0:0:
48,88,127144,1,8,0:0:0:0:
16,160,127313,1,0,0:0:0:0:
32,232,127481,1,0,0:0:0:0:
56,264,127565,1,0,0:0:0:0:
96,272,127650,1,0,1:2:0:0:
168,280,127818,2,0,B|216:288|232:344,1,75,8|0,0:0|0:0,0:0:0:0:
156,356,128155,5,0,1:0:0:0:
168,280,128324,1,0,0:0:0:0:
224,232,128492,1,8,0:0:0:0:
296,224,128661,2,0,P|352:160|328:104,1,150,0|0,0:0|1:0,0:0:0:0:
264,72,129167,2,0,P|288:40|344:32,1,75,8|0,0:0|0:0,0:0:0:0:
256,192,129504,12,4,130852,0:0:0:0:
