osu file format v12

[General]
AudioFilename: S.A.T.O.R.A.R.E.mp3
AudioLeadIn: 1004
PreviewTime: 109277
Countdown: 0
SampleSet: Soft
StackLeniency: 0.7
Mode: 0
LetterboxInBreaks: 0

[Editor]
Bookmarks: 1412,22985,33771,44558,64193,66131,76917,109277
DistanceSpacing: 1
BeatDivisor: 4
GridSize: 8

[Metadata]
Title:S.A.T.O.R.A.R.E
TitleUnicode:S.A.T.O.R.A.R.E
Artist:Halozy
ArtistUnicode:Halozy
Creator:Leorda
Version:Easy
Source:Touhou
Tags:misato future love satori komeiji maiden 3rd eye stage 4 boss subterranean animism
BeatmapID:226458
BeatmapSetID:63563

[Difficulty]
HPDrainRate:2
CircleSize:2
OverallDifficulty:2
ApproachRate:3
SliderMultiplier:0.600000005960464
SliderTickRate:1

[Events]
//Background and Video events
0,0,"Sato-chan.jpg",0,0
//Break Periods
2,23186,32333
2,66333,75479
//Storyboard Layer 0 (Background)
//Storyboard Layer 1 (Fail)
//Storyboard Layer 2 (Pass)
//Storyboard Layer 3 (Foreground)
//Storyboard Sound Samples
//Background Colour Transformations
3,100,163,162,255

[TimingPoints]
66,337.078651685393,4,2,0,80,1,0
44558,-133.333333333333,4,2,0,80,0,0
63350,-133.333333333333,4,1,0,80,0,0
66131,-100,4,2,0,80,0,0
109279,-100,4,2,0,80,0,1
130852,-100,4,2,0,80,0,0

[Colours]
Combo1 : 198,255,140
Combo2 : 255,111,165
Combo3 : 255,198,64
Combo4 : 168,187,255

[HitObjects]
112,328,1414,2,0,P|56:248|112:128,2,240.000002384186,4|0|0,1:2|0:0|1:0,0:0:0:0:
176,224,4785,1,0,0:0:0:0:
240,128,5459,2,0,P|294:247|238:327,1,240.000002384186,0|0,0:0|1:0,0:0:0:0:
176,224,7481,5,0,0:0:0:0:
240,128,8155,2,0,P|320:80|432:160,1,240.000002384186,0|0,0:0|1:0,0:0:0:0:
328,208,10178,1,0,0:0:0:0:
416,288,10852,2,0,P|336:336|224:256,1,240.000002384186,0|4,0:0|1:2,0:0:0:0:
160,160,12874,5,0,0:0:0:0:
56,224,13549,1,0,0:0:0:0:
152,288,14223,1,0,0:0:0:0:
248,216,14897,2,0,P|264:144|136:56,2,240.000002384186,0|0|0,1:0|0:0|1:0,0:0:0:0:
184,320,18268,5,0,0:0:0:0:
296,360,18942,1,0,0:0:0:0:
384,280,19616,1,0,0:0:0:0:
312,184,20290,2,0,P|296:120|432:56,2,240.000002384186,0|0|4,1:0|0:0|1:2,0:0:0:0:
224,296,33773,6,0,P|112:328|56:232,1,240.000002384186,4|0,1:2|3:0,0:0:0:0:
16,120,35796,1,0,0:0:0:0:
128,64,36470,2,0,P|264:53|344:109,1,240.000002384186,4|0,1:2|3:0,0:0:0:0:
432,192,38492,1,0,0:0:0:0:
384,304,39167,6,0,P|264:315|176:243,1,240.000002384186,4|0,1:2|3:0,0:0:0:0:
184,120,41189,1,0,0:0:0:0:
280,48,41863,2,0,P|399:36|487:108,2,240.000002384186,4|4|4,1:2|0:0|0:0,0:0:0:0:
280,136,45234,5,0,0:0:0:0:
328,216,45908,1,0,0:0:0:0:
296,296,46582,1,0,0:0:0:0:
208,312,47257,2,0,P|144:264|160:168,2,180.000008654595
296,280,50627,5,0,0:0:0:0:
312,192,51301,1,0,0:0:0:0:
256,120,51976,1,0,0:0:0:0:
256,192,52650,12,2,55346,0:0:0:0:
344,288,56695,6,0,P|400:240|384:144,1,180.000008654595,2|2,0:0|0:0,0:0:0:0:
312,88,58717,1,0,0:0:0:0:
232,128,59391,2,0,P|168:152|72:96,1,180.000008654595,2|2,0:0|0:0,0:0:0:0:
152,56,61414,5,0,0:0:0:0:
240,32,62088,2,0,P|304:56|328:160,1,180.000008654595
272,224,64110,1,0,0:0:0:0:
192,264,64785,1,0,0:0:0:0:
104,248,65459,1,0,0:0:0:0:
56,168,66133,1,4,0:0:0:0:
72,192,76919,6,0,P|48:288|112:344,2,180.000001788139,4|4|4,1:2|1:2|1:2,0:0:0:0:
184,232,79616,2,0,P|272:288|328:248,2,180.000001788139,4|4|4,1:2|1:2|1:2,0:0:0:0:
264,144,82313,6,0,P|296:72|392:64,2,180.000001788139,4|4|4,1:2|1:2|1:2,0:0:0:0:
368,208,85009,1,4,1:2:0:0:
288,304,85683,1,4,1:2:0:0:
256,192,86358,12,4,88043,1:2:0:0:
128,256,89054,5,0,1:0:0:0:
104,136,89728,1,0,0:0:0:0:
216,176,90403,2,0,P|320:200|376:88,1,240.000002384186,0|0,1:0|1:0,0:0:0:0:
264,56,92425,1,0,0:0:0:0:
144,80,93099,6,0,P|48:160|80:264,2,240.000002384186,0|0|0,1:0|1:0|1:0,0:0:0:0:
248,152,96470,1,0,0:0:0:0:
352,96,97144,1,0,1:0:0:0:
448,168,97818,1,0,0:0:0:0:
472,288,98492,6,0,P|432:352|296:304,1,240.000002384186,4|0,1:2|1:0,0:0:0:0:
240,200,100515,1,0,0:0:0:0:
184,96,101189,2,0,P|144:32|8:80,1,240.000002384186,0|0,1:0|1:0,0:0:0:0:
80,176,103212,1,0,0:0:0:0:
152,272,103886,6,0,P|256:312|352:240,1,240.000002384186,0|0,1:2|1:0,0:0:0:0:
328,120,105908,1,0,0:0:0:0:
256,192,106582,12,4,109279,1:2:0:0:
256,296,110627,6,0,P|368:320|416:216,1,240.000002384186,0|0,1:0|1:0,0:0:0:0:
384,104,112650,1,0,0:0:0:0:
272,56,113324,1,0,1:0:0:0:
168,120,113998,1,0,0:0:0:0:
224,232,114672,6,0,P|120:224|56:104,2,240.000002384186,0|0|0,1:0|1:0|1:0,0:0:0:0:
328,168,118043,1,0,0:0:0:0:
440,208,118717,1,0,1:0:0:0:
416,328,119391,1,0,0:0:0:0:
296,312,120065,6,0,P|232:264|72:296,2,240.000002384186,4|0|0,1:2|1:0|1:0,0:0:0:0:
392,240,123436,1,0,0:0:0:0:
328,136,124110,1,0,1:0:0:0:
208,128,124785,1,0,0:0:0:0:
152,232,125459,6,0,P|96:160|160:32,1,240.000002384186,0|0,1:0|1:0,0:0:0:0:
272,40,127481,1,0,0:0:0:0:
256,192,128155,12,4,130852,0:0:0:0:
