osu file format v14

[General]
AudioFilename: Halozy - SATORARE.mp3
AudioLeadIn: 0
PreviewTime: -1
Countdown: 0
SampleSet: Soft
StackLeniency: 0.7
Mode: 0
LetterboxInBreaks: 0
WidescreenStoryboard: 0

[Editor]
DistanceSpacing: 0.8
BeatDivisor: 4
GridSize: 4
TimelineZoom: 1

[Metadata]
Title:S.A.T.O.R.A.R.E
TitleUnicode:地霊殿 ボーカル
Artist:Halozy
ArtistUnicode:Halozy
Creator:Kyshiro
Version:Satori Komeiji
Source:
Tags:
BeatmapID:631965
BeatmapSetID:279025

[Difficulty]
HPDrainRate:7
CircleSize:4
OverallDifficulty:9
ApproachRate:9.5
SliderMultiplier:1.6
SliderTickRate:1

[Events]
//Background and Video events
0,0,"Untitled.jpg",0,0
//Break Periods
//Storyboard Layer 0 (Background)
//Storyboard Layer 1 (Fail)
//Storyboard Layer 2 (Pass)
//Storyboard Layer 3 (Foreground)
//Storyboard Sound Samples

[TimingPoints]
128,337.078651685393,4,2,0,100,1,0
22375,-71.4285714285714,4,2,0,100,0,0
22712,-133.333333333333,4,2,0,100,0,0
23049,-100,4,2,0,100,0,0
44622,-133.333333333333,4,2,0,100,0,0
56757,-100,4,2,0,100,0,0
58105,-133.333333333333,4,2,0,100,0,0
59453,-100,4,2,0,100,0,0
60802,-133.333333333333,4,2,0,100,0,0
62150,-100,4,2,0,100,0,0
76981,-83.3333333333333,4,2,0,100,0,0
87431,-133.333333333333,4,2,0,100,0,0
88105,-76.9230769230769,4,2,0,100,0,1
109341,-90.9090909090909,4,2,0,100,0,0
130914,-117.647058823529,4,2,0,100,0,0
141701,-100,4,2,0,100,0,0
163274,-133.333333333333,4,2,0,100,0,0
171363,-117.647058823529,4,2,0,100,0,0
174060,-133.333333333333,4,2,0,100,0,0
184847,-111.111111111111,4,2,0,100,0,0
195633,-100,4,2,0,100,0,0
197656,-83.3333333333333,4,2,0,100,0,0
198330,-133.333333333333,4,2,0,100,0,0
199004,-83.3333333333333,4,2,0,100,0,0
201026,-133.333333333333,4,2,0,100,0,0
201701,-100,4,2,0,100,0,0
203723,-71.4285714285714,4,2,0,100,0,0
204060,-90.9090909090909,4,2,0,100,0,0
204397,-133.333333333333,4,2,0,100,0,0
205071,-100,4,2,0,100,0,0
205914,-133.333333333333,4,2,0,100,0,0
206420,-83.3333333333333,4,2,0,100,0,0
207010,-133.333333333333,4,2,0,100,0,0
208442,-100,4,2,0,100,0,0
209116,-83.3333333333333,4,2,0,100,0,0
209790,-133.333333333333,4,2,0,100,0,0
211139,-100,4,2,0,100,0,0
211813,-133.333333333333,4,2,0,100,0,0
212403,-100,4,2,0,100,0,0
214510,-133.333333333333,4,2,0,100,0,0
214847,-100,4,2,0,100,0,0
215184,-83.3333333333333,4,2,0,100,0,0
219566,-133.333333333333,4,2,0,100,0,0
219903,-83.3333333333333,4,2,0,100,0,1
227993,-133.333333333333,4,2,0,100,0,1
228330,-90.9090909090909,4,2,0,100,0,1
228667,-71.4285714285714,4,2,0,100,0,1
230689,-83.3333333333333,4,2,0,100,0,1
241476,-100,4,2,0,100,0,0
263049,-133.333333333333,4,2,0,100,0,0
273835,-100,4,2,0,100,0,0
295408,-133.333333333333,4,2,0,100,0,0
296083,-100,4,2,0,100,0,0
298105,-83.3333333333333,4,2,0,100,0,0
298779,-100,4,2,0,100,0,0
300127,-133.333333333333,4,2,0,100,0,0
300802,-100,4,2,0,100,0,0
301476,-83.3333333333333,4,2,0,100,0,0
303161,-100,4,2,0,100,0,0
303498,-71.4285714285714,4,2,0,100,0,0
303835,-90.9090909090909,4,2,0,100,0,0
304172,-133.333333333333,4,2,0,100,0,0
304847,-100,4,2,0,100,0,0
306869,-133.333333333333,4,2,0,100,0,0
307543,-100,4,2,0,100,0,0
309566,-83.3333333333333,4,2,0,100,0,0
310914,-133.333333333333,4,2,0,100,0,0
311588,-100,4,2,0,100,0,0
312262,-83.3333333333333,4,2,0,100,0,0
314285,-133.333333333333,4,2,0,100,0,0
314622,-90.9090909090909,4,2,0,100,0,0
314959,-71.4285714285714,4,2,0,100,0,0
315633,-100,4,2,0,100,0,0
316307,-83.3333333333333,4,2,0,100,0,0

[Colours]
Combo1 : 214,145,251
Combo2 : 159,247,205
Combo3 : 149,197,255
Combo4 : 250,154,169

[HitObjects]
65,92,128,5,0,0:0:0:0:
85,95,465,5,0,0:0:0:0:
91,114,802,5,0,0:0:0:0:
113,116,1138,5,0,0:0:0:0:
118,136,1476,6,0,P|202:116|287:127,1,160
371,173,1981,1,0,0:0:0:0:
238,30,2150,2,0,P|288:38|326:51,1,80
154,45,2487,1,0,0:0:0:0:
138,60,2824,6,0,P|110:121|151:218,1,160
366,141,3330,2,0,B|314:128|314:128|268:147|268:147|212:134,1,160
323,217,3835,1,0,0:0:0:0:
121,303,4172,6,0,L|73:128,1,160
42,303,4678,1,0,0:0:0:0:
167,168,4847,2,0,L|189:83,1,80
221,246,5184,2,0,L|285:199,1,80
503,299,5521,6,0,P|453:320|351:275,1,160
142,362,6026,2,0,P|211:326|286:347,1,160
271,230,6532,2,0,L|246:138,1,80
451,31,6869,5,0,0:0:0:0:
429,48,7206,2,0,P|347:70|259:58,1,160
382,145,7712,1,0,0:0:0:0:
193,38,7880,2,0,P|135:32|101:39,1,80
24,183,8217,6,0,L|47:348,1,160
147,108,8723,2,0,L|124:273,1,160
239,49,9229,2,0,L|250:131,1,80
434,350,9566,6,0,P|459:289|443:195,1,160
326,346,10071,1,0,0:0:0:0:
277,249,10240,2,0,P|233:238|193:242,1,80
43,155,10577,2,0,P|82:157|121:146,1,80
96,316,10914,5,0,0:0:0:0:
114,295,11251,2,0,L|129:131,1,160
41,37,11757,1,0,0:0:0:0:
217,222,11925,2,0,L|224:301,1,80
276,155,12262,5,0,0:0:0:0:
179,366,12431,1,0,0:0:0:0:
221,258,12599,1,0,0:0:0:0:
301,85,12768,1,0,0:0:0:0:
308,116,12852,1,0,0:0:0:0:
315,147,12936,1,0,0:0:0:0:
322,178,13021,1,0,0:0:0:0:
329,209,13105,1,0,0:0:0:0:
415,309,13274,2,0,L|428:216,1,80
494,348,13611,5,0,0:0:0:0:
398,146,13779,1,0,0:0:0:0:
256,323,13948,1,0,0:0:0:0:
108,224,14116,1,0,0:0:0:0:
115,193,14200,1,0,0:0:0:0:
122,162,14285,1,0,0:0:0:0:
129,131,14369,1,0,0:0:0:0:
136,100,14453,1,0,0:0:0:0:
6,194,14622,6,0,P|2:251|18:281,1,80
126,146,14959,6,0,L|108:223,1,80,0|0,0:0|0:0,0:0:0:0:
227,110,15296,6,0,P|234:148|222:186,1,80
184,201,15549,1,0,0:0:0:0:
146,214,15633,1,0,0:0:0:0:
313,38,15802,1,0,0:0:0:0:
340,243,15970,2,0,L|351:333,1,80
209,116,16307,6,0,L|218:36,1,80
397,121,16644,1,0,0:0:0:0:
194,258,16813,1,0,0:0:0:0:
162,256,16897,1,0,0:0:0:0:
130,254,16981,1,0,0:0:0:0:
97,252,17066,1,0,0:0:0:0:
65,250,17150,1,0,0:0:0:0:
129,338,17319,1,0,0:0:0:0:
262,208,17487,1,0,0:0:0:0:
391,344,17656,5,0,0:0:0:0:
257,322,17824,1,0,0:0:0:0:
267,94,17993,1,0,0:0:0:0:
262,208,18161,1,0,0:0:0:0:
260,239,18245,1,0,0:0:0:0:
258,271,18329,1,0,0:0:0:0:
257,303,18413,1,0,0:0:0:0:
255,335,18498,1,0,0:0:0:0:
356,155,18667,1,0,0:0:0:0:
174,146,18835,1,0,0:0:0:0:
255,335,19004,5,0,0:0:0:0:
374,147,19172,1,0,0:0:0:0:
156,137,19340,1,0,0:0:0:0:
256,353,19510,2,0,P|309:360|349:353,1,80,0|0,0:0|0:0,0:0:0:0:
124,268,19847,1,0,0:0:0:0:
263,135,20015,2,0,L|280:46,1,80
285,28,20268,5,0,0:0:0:0:
293,2,20352,1,0,0:0:0:0:
215,212,20521,1,0,0:0:0:0:
119,41,20689,1,0,0:0:0:0:
219,240,20858,1,0,0:0:0:0:
223,271,20942,1,0,0:0:0:0:
228,302,21026,1,0,0:0:0:0:
233,333,21111,1,0,0:0:0:0:
238,364,21195,1,0,0:0:0:0:
94,217,21363,2,0,L|105:131,1,80
352,262,21701,6,0,L|341:341,1,80
241,182,22038,1,0,0:0:0:0:
367,130,22206,1,0,0:0:0:0:
367,130,22290,1,0,0:0:0:0:
367,130,22375,6,0,P|411:126|438:130,1,55.9999982910157
279,92,22543,2,0,P|253:55|243:30,1,55.9999982910157
289,183,22712,6,0,L|256:278,1,90.0000034332277
243,289,23049,6,0,P|197:307|155:301,1,80
339,339,23386,1,0,0:0:0:0:
186,217,23554,1,0,0:0:0:0:
177,182,23638,1,0,0:0:0:0:
169,147,23722,1,0,0:0:0:0:
160,112,23806,1,0,0:0:0:0:
152,77,23891,1,0,0:0:0:0:
93,219,24060,2,0,P|54:248|16:261,1,80
248,78,24397,6,0,P|279:53|316:38,1,80
498,168,24734,1,0,0:0:0:0:
318,238,24903,1,0,0:0:0:0:
286,235,24987,1,0,0:0:0:0:
254,232,25071,2,0,L|157:223,1,80
388,311,25408,2,0,L|485:302,1,80
174,321,25745,5,0,0:0:0:0:
318,238,25914,1,0,0:0:0:0:
50,191,26083,1,0,0:0:0:0:
200,114,26251,1,0,0:0:0:0:
235,109,26335,1,0,0:0:0:0:
271,104,26420,1,0,0:0:0:0:
306,99,26504,1,0,0:0:0:0:
341,95,26588,1,0,0:0:0:0:
79,76,26757,2,0,L|-1:68,1,80
239,246,27094,6,0,L|319:238,1,80,0|0,0:0|0:0,0:0:0:0:
486,317,27431,1,0,0:0:0:0:
246,348,27599,1,0,0:0:0:0:
211,343,27683,1,0,0:0:0:0:
175,338,27768,1,0,0:0:0:0:
140,333,27852,1,0,0:0:0:0:
105,329,27936,1,0,0:0:0:0:
313,289,28105,1,0,0:0:0:0:
50,231,28274,1,0,0:0:0:0:
316,188,28442,6,0,L|415:178,1,80
199,112,28779,1,0,0:0:0:0:
67,161,28948,1,0,0:0:0:0:
58,195,29032,1,0,0:0:0:0:
50,230,29116,1,0,0:0:0:0:
42,265,29201,1,0,0:0:0:0:
34,300,29285,1,0,0:0:0:0:
199,112,29453,2,0,L|178:12,1,80
410,117,29790,5,0,0:0:0:0:
390,219,29959,1,0,0:0:0:0:
371,321,30127,1,0,0:0:0:0:
476,183,30296,1,0,0:0:0:0:
468,148,30380,1,0,0:0:0:0:
460,113,30465,1,0,0:0:0:0:
452,78,30549,1,0,0:0:0:0:
443,44,30633,1,0,0:0:0:0:
282,252,30802,2,0,L|258:341,1,80
476,183,31139,6,0,L|457:102,1,80,0|0,0:0|0:0,0:0:0:0:
237,21,31476,1,0,0:0:0:0:
105,180,31644,1,0,0:0:0:0:
96,214,31728,1,0,0:0:0:0:
88,249,31812,1,0,0:0:0:0:
80,284,31897,1,0,0:0:0:0:
72,319,31981,1,0,0:0:0:0:
13,154,32150,1,0,0:0:0:0:
158,346,32319,1,0,0:0:0:0:
303,159,32487,6,0,P|340:135|375:121,1,80
502,233,32824,1,0,0:0:0:0:
287,260,32993,1,0,0:0:0:0:
251,255,33077,1,0,0:0:0:0:
215,250,33161,1,0,0:0:0:0:
179,246,33245,1,0,0:0:0:0:
142,242,33330,1,0,0:0:0:0:
303,159,33498,1,0,0:0:0:0:
65,213,33667,1,0,0:0:0:0:
265,347,33835,6,0,L|355:336,1,80
142,242,34172,1,0,0:0:0:0:
303,159,34341,1,0,0:0:0:0:
339,154,34425,1,0,0:0:0:0:
375,149,34509,1,0,0:0:0:0:
411,145,34593,1,0,0:0:0:0:
448,141,34678,1,0,0:0:0:0:
222,252,34847,2,0,L|133:241,1,80
24,90,35184,5,0,0:0:0:0:
229,64,35352,1,0,0:0:0:0:
126,77,35521,1,0,0:0:0:0:
447,215,35689,1,0,0:0:0:0:
411,210,35773,1,0,0:0:0:0:
375,205,35857,1,0,0:0:0:0:
339,201,35941,1,0,0:0:0:0:
302,197,36026,1,0,0:0:0:0:
488,296,36195,1,0,0:0:0:0:
388,109,36363,1,0,0:0:0:0:
243,265,36532,5,0,0:0:0:0:
388,109,36869,5,0,0:0:0:0:
488,296,37206,5,0,0:0:0:0:
243,265,37543,5,0,0:0:0:0:
373,179,37712,1,0,0:0:0:0:
381,144,37796,1,0,0:0:0:0:
389,109,37880,6,0,L|323:43,1,80
461,174,38217,1,0,0:0:0:0:
284,163,38386,1,0,0:0:0:0:
248,156,38470,1,0,0:0:0:0:
212,149,38554,1,0,0:0:0:0:
176,142,38639,1,0,0:0:0:0:
140,135,38723,1,0,0:0:0:0:
324,261,38892,2,0,L|235:279,1,80
373,179,39229,5,0,0:0:0:0:
151,233,39566,5,0,0:0:0:0:
373,179,39903,5,0,0:0:0:0:
183,47,40240,5,0,0:0:0:0:
227,169,40408,1,0,0:0:0:0:
262,162,40493,1,0,0:0:0:0:
297,155,40577,6,0,L|377:180,1,80
260,299,40914,1,0,0:0:0:0:
126,203,41083,1,0,0:0:0:0:
116,168,41167,1,0,0:0:0:0:
106,133,41251,1,0,0:0:0:0:
96,98,41335,1,0,0:0:0:0:
85,63,41420,1,0,0:0:0:0:
36,238,41588,2,0,L|24:318,1,80
26,150,41925,5,0,0:0:0:0:
213,321,42262,5,0,0:0:0:0:
299,63,42599,5,0,0:0:0:0:
486,234,42936,5,0,0:0:0:0:
346,263,43105,1,0,0:0:0:0:
310,256,43189,1,0,0:0:0:0:
274,249,43274,1,0,0:0:0:0:
256,192,43358,12,0,44453,0:0:0:0:
30,103,44622,6,0,B|62:126|111:117|136:89|136:89|154:163|240:189|302:141|302:141|346:108|412:118|434:177|434:177|451:238|495:273,1,600.000022888184
233,75,46981,5,0,0:0:0:0:
357,205,47319,1,0,0:0:0:0:
256,351,47656,1,0,0:0:0:0:
156,285,47824,2,0,L|143:221,2,60.0000022888184,0|0|0,0:0|0:0|0:0,0:0:0:0:
45,194,48330,2,0,P|62:139|55:66,1,120.000004577637
72,271,48835,5,0,0:0:0:0:
141,146,49004,1,0,0:0:0:0:
256,233,49172,2,0,P|313:244|385:238,1,120.000004577637
435,112,49678,2,0,P|436:145|445:174,1,60.0000022888184
266,318,50015,6,0,L|141:304,1,120.000004577637
316,239,50521,2,0,L|253:232,1,60.0000022888184
356,322,50858,1,0,0:0:0:0:
372,167,51026,2,0,L|247:153,1,120.000004577637
414,248,51532,6,0,L|477:243,1,60.0000022888184
309,72,51869,2,0,P|247:59|182:74,1,120.000004577637
173,83,52375,1,0,0:0:0:0:
71,44,52543,1,0,0:0:0:0:
257,153,52712,6,0,L|281:277,1,120.000004577637
355,165,53217,2,0,L|366:106,1,60.0000022888184,0|0,0:0|0:0,0:0:0:0:
247,69,53554,1,0,0:0:0:0:
190,258,53723,2,0,L|178:316,1,60.0000022888184,0|0,0:0|0:0,0:0:0:0:
274,368,54060,5,0,0:0:0:0:
158,172,54229,1,0,0:0:0:0:
96,248,54397,1,0,0:0:0:0:
276,279,54566,2,0,P|341:279|401:263,1,120.000004577637
501,181,55071,2,0,P|481:212|461:230,1,60.0000022888184
289,364,55408,6,0,P|232:355|163:326,1,120.000004577637
40,184,55914,2,0,P|66:237|104:284,1,120.000004577637,0|0,0:0|0:0,0:0:0:0:
212,182,56420,2,0,P|225:128|226:115,1,60.0000022888184
392,69,56757,6,0,P|355:48|327:139,1,160
119,153,57262,2,0,P|156:174|184:83,1,160
37,214,57768,2,0,L|30:294,1,80
172,359,58105,6,0,P|267:338|304:339,1,120.000004577637
470,263,58611,2,0,P|410:258|352:242,1,120.000004577637
274,162,59116,2,0,L|266:93,1,60.0000022888184
254,259,59453,6,0,B|201:274|201:274|152:266|152:266|83:276,1,160
356,155,59959,2,0,B|410:162|410:162|459:154|459:154|512:169,1,160
196,126,60465,2,0,P|177:84|177:44,1,80
259,217,60802,6,0,B|236:274|236:274|263:325|263:325|242:392,2,180.000006866455,0|0|0,0:0|0:0|0:0,0:0:0:0:
345,269,61981,1,0,0:0:0:0:
165,333,62150,6,0,P|111:333|76:323,1,80
188,148,62487,1,0,0:0:0:0:
345,269,62656,2,0,L|356:353,1,80
236,246,62993,1,0,0:0:0:0:
329,117,63161,2,0,P|378:101|408:95,1,80
188,148,63498,5,0,0:0:0:0:
57,54,63667,1,0,0:0:0:0:
41,213,63835,1,0,0:0:0:0:
96,139,64004,1,0,0:0:0:0:
214,238,64172,1,0,0:0:0:0:
313,120,64341,1,0,0:0:0:0:
195,21,64510,1,0,0:0:0:0:
204,129,64678,1,0,0:0:0:0:
325,233,64847,6,0,L|375:226,1,40
191,261,65015,2,0,L|141:254,1,40,0|0,0:0|0:0,0:0:0:0:
336,248,65184,2,0,L|393:253,1,40
179,245,65352,2,0,L|125:224,1,40,0|0,0:0|0:0,0:0:0:0:
252,149,65521,1,0,0:0:0:0:
262,348,65689,1,0,0:0:0:0:
251,133,65858,1,0,0:0:0:0:
262,363,66026,1,0,0:0:0:0:
24,256,66195,5,0,0:0:0:0:
95,191,66363,1,0,0:0:0:0:
179,245,66532,2,0,L|262:233,1,80
298,227,66785,1,0,0:0:0:0:
337,220,66869,1,0,0:0:0:0:
229,101,67038,1,0,0:0:0:0:
323,114,67206,2,0,L|406:126,1,80
168,161,67543,5,0,0:0:0:0:
44,69,67712,1,0,0:0:0:0:
229,101,67880,1,0,0:0:0:0:
186,254,68049,1,0,0:0:0:0:
84,140,68217,2,0,P|61:210|86:294,1,160
144,75,68723,1,0,0:0:0:0:
220,232,68892,6,0,P|259:250|300:248,1,80
102,334,69229,2,0,L|184:326,1,80
32,253,69566,2,0,L|19:127,2,120,0|0|0,0:0|0:0|0:0,0:0:0:0:
139,196,70240,6,0,P|193:168|296:173,1,160
135,109,70745,1,0,0:0:0:0:
87,101,70830,1,0,0:0:0:0:
39,93,70914,1,0,0:0:0:0:
264,249,71083,1,0,0:0:0:0:
312,241,71168,1,0,0:0:0:0:
360,233,71252,1,0,0:0:0:0:
401,256,71335,1,0,0:0:0:0:
443,279,71420,1,0,0:0:0:0:
203,314,71588,6,0,P|179:275|180:229,1,80
288,334,71925,1,0,0:0:0:0:
96,295,72094,1,0,0:0:0:0:
82,261,72178,1,0,0:0:0:0:
75,225,72262,2,0,P|73:164|86:123,1,80
92,111,72515,1,0,0:0:0:0:
92,111,72599,1,0,0:0:0:0:
5,263,72768,1,0,0:0:0:0:
222,61,72936,5,0,0:0:0:0:
363,106,73105,1,0,0:0:0:0:
363,255,73274,1,0,0:0:0:0:
221,301,73442,1,0,0:0:0:0:
134,180,73611,1,0,0:0:0:0:
261,182,73779,1,0,0:0:0:0:
103,66,73948,1,0,0:0:0:0:
328,0,74116,1,0,0:0:0:0:
152,181,74285,6,0,P|136:234|121:259,1,80
287,264,74622,2,0,L|314:347,1,80
349,117,74959,2,0,P|393:148|429:160,1,80
381,162,75212,1,0,0:0:0:0:
346,171,75296,1,0,0:0:0:0:
312,183,75380,1,0,0:0:0:0:
282,203,75465,1,0,0:0:0:0:
256,228,75549,1,0,0:0:0:0:
237,258,75633,6,0,P|200:214|104:176,1,160
54,32,76139,2,0,L|2:34,1,40
126,75,76307,1,0,0:0:0:0:
158,78,76392,1,0,0:0:0:0:
189,81,76476,1,0,0:0:0:0:
359,35,76644,1,0,0:0:0:0:
359,35,76729,1,0,0:0:0:0:
309,158,76897,5,0,0:0:0:0:
309,158,76981,2,0,P|314:213|332:250,1,95.9999970703126
253,27,77319,1,0,0:0:0:0:
407,234,77487,2,0,L|466:309,1,95.9999970703126
462,149,77824,1,0,0:0:0:0:
260,350,77993,1,0,0:0:0:0:
118,103,78161,1,0,0:0:0:0:
261,336,78330,5,0,0:0:0:0:
445,153,78499,1,0,0:0:0:0:
293,35,78667,1,0,0:0:0:0:
265,194,78835,1,0,0:0:0:0:
118,103,79004,2,0,P|51:86|21:88,1,95.9999970703126
333,270,79341,2,0,P|380:269|426:254,1,95.9999970703126
260,111,79678,5,0,0:0:0:0:
93,240,79847,1,0,0:0:0:0:
288,321,80015,1,0,0:0:0:0:
238,95,80184,5,0,0:0:0:0:
81,267,80353,1,0,0:0:0:0:
308,318,80521,1,0,0:0:0:0:
211,83,80689,5,0,0:0:0:0:
75,297,80858,1,0,0:0:0:0:
328,309,81026,1,0,0:0:0:0:
92,166,81195,5,0,0:0:0:0:
328,178,81363,2,0,L|431:153,1,95.9999970703126
168,321,81701,2,0,L|65:296,1,95.9999970703126
41,291,81953,1,0,0:0:0:0:
41,291,82038,1,0,0:0:0:0:
260,371,82206,1,0,0:0:0:0:
92,166,82375,6,0,P|82:120|89:71,1,95.9999970703126
41,291,82712,1,0,0:0:0:0:
221,94,82880,2,0,L|323:69,1,95.9999970703126
37,19,83217,1,0,0:0:0:0:
428,145,83386,2,0,P|447:210|446:248,1,95.9999970703126
306,351,83723,5,0,0:0:0:0:
0,262,83892,1,0,0:0:0:0:
172,257,84060,1,0,0:0:0:0:
31,105,84229,1,0,0:0:0:0:
389,217,84397,1,0,0:0:0:0:
231,105,84566,1,0,0:0:0:0:
389,55,84734,2,0,P|439:45|484:47,1,95.9999970703126
282,218,85071,5,0,0:0:0:0:
258,234,85156,1,0,0:0:0:0:
230,242,85240,1,0,0:0:0:0:
201,245,85324,1,0,0:0:0:0:
167,241,85408,1,0,0:0:0:0:
136,225,85493,1,0,0:0:0:0:
114,199,85577,1,0,0:0:0:0:
102,167,85661,1,0,0:0:0:0:
98,128,85745,1,0,0:0:0:0:
108,90,85830,1,0,0:0:0:0:
131,59,85914,1,0,0:0:0:0:
165,41,85998,1,0,0:0:0:0:
208,36,86083,1,0,0:0:0:0:
247,51,86167,1,0,0:0:0:0:
283,74,86251,1,0,0:0:0:0:
325,81,86335,1,0,0:0:0:0:
367,73,86420,5,0,0:0:0:0:
209,251,86588,1,0,0:0:0:0:
28,77,86757,1,0,0:0:0:0:
212,273,86925,1,0,0:0:0:0:
390,86,87093,1,0,0:0:0:0:
401,117,87178,1,0,0:0:0:0:
412,148,87262,1,0,0:0:0:0:
423,179,87347,1,0,0:0:0:0:
434,210,87431,6,0,P|461:234|491:248,1,60.0000022888184
344,280,87768,2,0,P|294:270|248:280,1,90.0000034332277
231,292,88105,6,0,L|151:227,1,103.999995239258
310,381,88442,1,0,0:0:0:0:
283,120,88611,1,0,0:0:0:0:
68,265,88779,1,0,0:0:0:0:
222,256,88948,1,0,0:0:0:0:
122,128,89116,6,0,L|96:13,1,103.999995239258
390,128,89453,2,0,L|416:13,1,103.999995239258
255,358,89790,1,0,0:0:0:0:
407,265,89959,1,0,0:0:0:0:
129,239,90127,2,0,P|66:241|18:271,1,103.999995239258
99,346,90465,5,0,0:0:0:0:
407,265,90633,1,0,0:0:0:0:
108,341,90802,5,0,0:0:0:0:
383,265,90970,1,0,0:0:0:0:
118,338,91139,6,0,P|139:284|124:181,1,155.999992858887
110,165,91476,1,0,0:0:0:0:
272,376,91644,1,0,0:0:0:0:
458,183,91813,6,0,L|478:63,1,103.999995239258
435,350,92150,1,0,0:0:0:0:
299,97,92319,1,0,0:0:0:0:
288,62,92403,1,0,0:0:0:0:
277,27,92487,1,0,0:0:0:0:
114,291,92656,1,0,0:0:0:0:
125,256,92740,1,0,0:0:0:0:
136,221,92824,1,0,0:0:0:0:
37,53,92993,1,0,0:0:0:0:
266,291,93161,6,0,P|353:319|461:278,1,207.999990478516
182,102,93667,1,0,0:0:0:0:
174,138,93751,1,0,0:0:0:0:
165,174,93835,2,0,B|161:232|161:232|137:278|137:278|132:336,1,155.999992858887,0|0,0:0|0:0,0:0:0:0:
133,353,94172,1,0,0:0:0:0:
36,53,94341,1,0,0:0:0:0:
324,129,94510,6,0,P|383:142|430:139,1,103.999995239258
139,281,94847,2,0,P|87:279|36:291,1,103.999995239258
329,341,95184,1,0,0:0:0:0:
144,66,95352,1,0,0:0:0:0:
237,205,95521,1,0,0:0:0:0:
185,345,95689,1,0,0:0:0:0:
297,58,95858,6,0,P|355:38|401:42,1,103.999995239258
77,125,96195,2,0,P|57:67|61:21,1,103.999995239258
107,341,96532,2,0,P|49:361|3:357,1,103.999995239258
140,318,96785,1,0,0:0:0:0:
182,298,96869,1,0,0:0:0:0:
228,292,96953,1,0,0:0:0:0:
273,305,97038,1,0,0:0:0:0:
316,322,97122,1,0,0:0:0:0:
362,315,97206,6,0,L|401:217,1,103.999995239258
439,356,97543,1,0,0:0:0:0:
281,47,97712,1,0,0:0:0:0:
288,93,97796,1,0,0:0:0:0:
295,139,97880,1,0,0:0:0:0:
302,185,97965,1,0,0:0:0:0:
310,230,98049,1,0,0:0:0:0:
384,14,98217,1,0,0:0:0:0:
217,283,98386,1,0,0:0:0:0:
76,36,98554,5,0,0:0:0:0:
175,92,98723,1,0,0:0:0:0:
275,148,98892,1,0,0:0:0:0:
43,302,99060,1,0,0:0:0:0:
53,256,99144,1,0,0:0:0:0:
63,210,99229,1,0,0:0:0:0:
117,365,99397,1,0,0:0:0:0:
273,71,99566,1,0,0:0:0:0:
294,260,99734,1,0,0:0:0:0:
76,36,99903,5,0,0:0:0:0:
167,175,100071,1,0,0:0:0:0:
393,160,100240,2,0,L|500:150,1,103.999995239258
184,280,100577,2,0,L|77:270,1,103.999995239258
265,344,100914,1,0,0:0:0:0:
0,208,101083,1,0,0:0:0:0:
286,158,101251,5,0,0:0:0:0:
156,228,101420,1,0,0:0:0:0:
420,99,101588,1,0,0:0:0:0:
156,228,101757,1,0,0:0:0:0:
439,344,101925,2,0,P|466:291|468:240,1,103.999995239258
456,199,102178,1,0,0:0:0:0:
456,199,102262,1,0,0:0:0:0:
309,35,102431,1,0,0:0:0:0:
253,258,102599,6,0,L|240:366,1,103.999995239258
142,138,102936,1,0,0:0:0:0:
357,147,103105,1,0,0:0:0:0:
402,136,103189,1,0,0:0:0:0:
448,126,103274,1,0,0:0:0:0:
144,245,103442,1,0,0:0:0:0:
99,234,103526,1,0,0:0:0:0:
53,224,103611,1,0,0:0:0:0:
28,184,103695,1,0,0:0:0:0:
4,143,103779,1,0,0:0:0:0:
448,126,103948,6,0,P|487:195|417:301,1,207.999990478516
143,203,104453,1,0,0:0:0:0:
189,193,104538,1,0,0:0:0:0:
234,183,104622,2,0,L|341:199,1,103.999995239258
379,206,104875,1,0,0:0:0:0:
379,206,104959,1,0,0:0:0:0:
147,57,105127,1,0,0:0:0:0:
121,301,105296,5,0,0:0:0:0:
365,327,105465,1,0,0:0:0:0:
391,83,105634,1,0,0:0:0:0:
147,57,105802,1,0,0:0:0:0:
121,301,105970,1,0,0:0:0:0:
134,179,106139,1,0,0:0:0:0:
379,206,106307,1,0,0:0:0:0:
43,233,106476,1,0,0:0:0:0:
244,351,106644,5,0,0:0:0:0:
291,351,106729,1,0,0:0:0:0:
337,344,106813,1,0,0:0:0:0:
379,325,106897,1,0,0:0:0:0:
415,296,106981,1,0,0:0:0:0:
441,256,107066,1,0,0:0:0:0:
457,212,107150,1,0,0:0:0:0:
462,165,107234,1,0,0:0:0:0:
461,117,107319,1,0,0:0:0:0:
408,140,107403,1,0,0:0:0:0:
362,173,107487,1,0,0:0:0:0:
309,196,107571,1,0,0:0:0:0:
252,209,107656,1,0,0:0:0:0:
194,207,107740,1,0,0:0:0:0:
140,187,107824,1,0,0:0:0:0:
92,156,107908,1,0,0:0:0:0:
56,110,107993,1,0,0:0:0:0:
170,289,108161,5,0,0:0:0:0:
184,38,108330,1,0,0:0:0:0:
91,316,108498,1,0,0:0:0:0:
268,10,108667,1,0,0:0:0:0:
7,309,108835,1,0,0:0:0:0:
357,21,109004,1,0,0:0:0:0:
371,34,109341,6,0,P|392:91|379:162,1,132.00000402832
326,212,109678,1,0,0:0:0:0:
494,58,109847,1,0,0:0:0:0:
214,217,110015,2,0,L|120:205,1,88.000002685547
400,282,110352,2,0,L|494:270,1,88.000002685547
258,120,110689,5,0,0:0:0:0:
92,277,110858,1,0,0:0:0:0:
311,339,111026,1,0,0:0:0:0:
128,150,111195,1,0,0:0:0:0:
184,370,111363,1,0,0:0:0:0:
347,215,111531,1,0,0:0:0:0:
221,244,111701,1,0,0:0:0:0:
401,65,111869,1,0,0:0:0:0:
148,17,112038,5,0,0:0:0:0:
347,215,112206,1,0,0:0:0:0:
390,208,112290,1,0,0:0:0:0:
433,200,112375,1,0,0:0:0:0:
228,364,112543,1,0,0:0:0:0:
92,219,112712,2,0,P|75:159|83:120,1,88.000002685547
19,325,113049,1,0,0:0:0:0:
188,114,113217,1,0,0:0:0:0:
320,350,113386,5,0,0:0:0:0:
188,140,113554,1,0,0:0:0:0:
38,307,113723,1,0,0:0:0:0:
188,165,113892,1,0,0:0:0:0:
299,333,114060,1,0,0:0:0:0:
181,276,114229,1,0,0:0:0:0:
203,15,114397,1,0,0:0:0:0:
8,131,114566,1,0,0:0:0:0:
342,160,114734,6,0,L|441:148,1,88.000002685547,0|0,0:0|0:0,0:0:0:0:
257,262,115071,1,0,0:0:0:0:
362,124,115240,6,0,L|461:112,1,88.000002685547,0|0,0:0|0:0,0:0:0:0:
241,288,115577,1,0,0:0:0:0:
379,94,115745,6,0,L|478:82,1,88.000002685547,0|0,0:0|0:0,0:0:0:0:
226,312,116083,6,0,L|138:301,1,88.000002685547,0|0,0:0|0:0,0:0:0:0:
393,64,116420,1,0,0:0:0:0:
212,338,116588,6,0,L|124:327,1,88.000002685547,0|0,0:0|0:0,0:0:0:0:
408,35,116925,1,0,0:0:0:0:
197,367,117094,6,0,L|109:356,1,88.000002685547,0|0,0:0|0:0,0:0:0:0:
21,126,117431,6,0,P|80:108|172:173,1,176.000005371094
430,275,117936,1,0,0:0:0:0:
390,291,118020,1,0,0:0:0:0:
346,289,118104,1,0,0:0:0:0:
308,268,118188,1,0,0:0:0:0:
282,234,118273,1,0,0:0:0:0:
379,193,118442,1,0,0:0:0:0:
174,367,118611,1,0,0:0:0:0:
41,135,118779,6,0,L|26:39,1,88.000002685547
41,290,119116,1,0,0:0:0:0:
150,32,119285,1,0,0:0:0:0:
150,32,119622,5,0,0:0:0:0:
41,290,119790,2,0,P|32:353|37:380,1,88.000002685547
368,218,120127,6,0,P|282:178|191:208,1,176.000005371094
413,118,120633,1,0,0:0:0:0:
275,305,120802,1,0,0:0:0:0:
166,102,120970,1,0,0:0:0:0:
272,342,121139,1,0,0:0:0:0:
423,97,121307,1,0,0:0:0:0:
149,77,121476,6,0,P|92:67|49:76,1,88.000002685547
74,330,121813,1,0,0:0:0:0:
295,221,121981,1,0,0:0:0:0:
303,177,122066,1,0,0:0:0:0:
312,134,122150,1,0,0:0:0:0:
321,91,122234,1,0,0:0:0:0:
330,47,122319,1,0,0:0:0:0:
376,267,122487,1,0,0:0:0:0:
239,9,122656,1,0,0:0:0:0:
119,277,122824,6,0,L|109:374,1,88.000002685547
312,134,123161,2,0,L|322:231,1,88.000002685547,0|0,0:0|0:0,0:0:0:0:
167,77,123498,1,0,0:0:0:0:
195,179,123667,1,0,0:0:0:0:
222,280,123835,1,0,0:0:0:0:
58,158,124004,1,0,0:0:0:0:
336,202,124172,6,0,P|398:199|436:190,1,88.000002685547
86,273,124510,1,0,0:0:0:0:
308,87,124678,2,0,P|342:45|357:9,1,88.000002685547
222,280,125015,1,0,0:0:0:0:
74,62,125184,1,0,0:0:0:0:
8,315,125352,1,0,0:0:0:0:
224,120,125521,6,0,P|280:105|398:141,1,176.000005371094
109,197,126026,2,0,L|15:158,1,88.000002685547
103,30,126363,1,0,0:0:0:0:
234,246,126532,2,0,L|210:338,1,88.000002685547
84,322,126869,5,0,0:0:0:0:
386,213,127038,1,0,0:0:0:0:
188,151,127206,1,0,0:0:0:0:
328,325,127375,2,0,L|415:313,1,88.000002685547
67,203,127712,1,0,0:0:0:0:
417,115,127880,2,0,L|330:104,1,88.000002685547
79,287,128217,5,0,0:0:0:0:
191,263,128386,1,0,0:0:0:0:
302,239,128554,1,0,0:0:0:0:
103,141,128723,1,0,0:0:0:0:
278,370,128892,1,0,0:0:0:0:
219,123,129060,1,0,0:0:0:0:
153,384,129229,1,0,0:0:0:0:
146,58,129397,1,0,0:0:0:0:
146,58,129481,1,0,0:0:0:0:
146,58,129566,6,0,P|215:29|306:77,1,176.000005371094
63,27,130071,1,0,0:0:0:0:
383,110,130240,1,0,0:0:0:0:
77,216,130408,1,0,0:0:0:0:
397,299,130577,1,0,0:0:0:0:
401,283,130914,6,0,L|420:207,1,68.0000012969971
228,91,131251,2,0,L|244:156,1,68.0000012969971,0|0,0:0|0:0,0:0:0:0:
253,189,131504,1,0,0:0:0:0:
262,221,131588,1,0,0:0:0:0:
337,52,131757,1,0,0:0:0:0:
166,243,131925,2,0,P|134:278|107:295,1,68.0000012969971
329,141,132262,6,0,L|474:154,1,136.000002593994
182,72,132768,1,0,0:0:0:0:
215,65,132852,1,0,0:0:0:0:
248,58,132936,1,0,0:0:0:0:
72,26,133105,1,0,0:0:0:0:
228,209,133274,2,0,L|262:213,9,22.666667098999
271,215,133948,6,0,L|350:226,1,68.0000012969971
372,229,134201,1,0,0:0:0:0:
405,234,134285,1,0,0:0:0:0:
204,116,134453,1,0,0:0:0:0:
111,323,134622,2,0,L|190:312,1,68.0000012969971,0|0,0:0|0:0,0:0:0:0:
482,135,134959,6,0,L|324:113,1,136.000002593994,0|0,0:0|0:0,0:0:0:0:
431,43,135465,1,0,0:0:0:0:
204,116,135633,2,0,P|161:114|130:106,1,68.0000012969971
256,233,135970,1,0,0:0:0:0:
96,37,136139,1,0,0:0:0:0:
416,37,136307,5,0,0:0:0:0:
257,103,136476,1,0,0:0:0:0:
256,316,136644,2,0,L|256:235,1,68.0000012969971
256,214,136897,1,0,0:0:0:0:
256,180,136981,1,0,0:0:0:0:
340,342,137150,1,0,0:0:0:0:
162,220,137319,2,0,P|121:213|89:215,1,68.0000012969971
340,342,137656,6,0,P|373:342|407:336,1,68.0000012969971
172,342,137993,1,0,0:0:0:0:
349,220,138161,1,0,0:0:0:0:
377,200,138245,1,0,0:0:0:0:
405,180,138330,1,0,0:0:0:0:
499,248,138498,1,0,0:0:0:0:
251,174,138667,2,0,L|218:166,4,22.666667098999,0|0|0|0|0,0:0|0:0|0:0|0:0|0:0,0:0:0:0:
199,158,139004,5,0,0:0:0:0:
352,78,139341,5,0,0:0:0:0:
78,52,139510,1,0,0:0:0:0:
44,59,139594,1,0,0:0:0:0:
11,67,139678,1,0,0:0:0:0:
199,158,139847,1,0,0:0:0:0:
352,78,140015,2,0,P|400:87|434:87,1,68.0000012969971
221,36,140352,5,0,0:0:0:0:
100,227,140521,1,0,0:0:0:0:
291,348,140689,1,0,0:0:0:0:
412,157,140858,1,0,0:0:0:0:
219,247,141026,1,0,0:0:0:0:
200,276,141111,1,0,0:0:0:0:
182,304,141195,1,0,0:0:0:0:
164,333,141279,1,0,0:0:0:0:
146,362,141363,1,0,0:0:0:0:
139,346,141701,6,0,P|116:252|76:187,1,160
48,321,142206,1,0,0:0:0:0:
225,101,142375,2,0,P|204:149|198:186,1,80
88,68,142712,1,0,0:0:0:0:
264,293,142880,1,0,0:0:0:0:
303,286,142965,1,0,0:0:0:0:
342,279,143049,6,0,L|449:261,1,80
190,219,143386,1,0,0:0:0:0:
500,174,143554,2,0,L|393:156,1,80
512,270,143892,1,0,0:0:0:0:
249,131,144060,2,0,L|356:113,1,80
216,328,144397,6,0,P|169:345|65:307,1,160
128,97,144903,1,0,0:0:0:0:
142,134,144987,1,0,0:0:0:0:
156,171,145071,1,0,0:0:0:0:
200,37,145240,1,0,0:0:0:0:
96,243,145408,1,0,0:0:0:0:
44,46,145577,1,0,0:0:0:0:
238,235,145745,6,0,P|286:240|333:234,1,80
128,97,146083,1,0,0:0:0:0:
326,320,146251,2,0,L|412:305,1,80
218,338,146588,1,0,0:0:0:0:
469,229,146757,2,0,L|487:106,1,120
492,75,147094,5,0,0:0:0:0:
507,321,147262,1,0,0:0:0:0:
314,171,147431,2,0,P|265:160|227:160,1,80
143,58,147768,1,0,0:0:0:0:
390,79,147936,1,0,0:0:0:0:
369,326,148105,1,0,0:0:0:0:
122,305,148273,1,0,0:0:0:0:
256,192,148442,6,0,L|424:176,1,160
192,111,148948,2,0,L|276:103,1,80,0|0,0:0|0:0,0:0:0:0:
423,260,149285,1,0,0:0:0:0:
221,286,149453,2,0,L|305:278,1,80,0|0,0:0|0:0,0:0:0:0:
120,206,149790,6,0,L|36:198,1,80,0|0,0:0|0:0,0:0:0:0:
254,359,150127,1,0,0:0:0:0:
257,128,150296,1,0,0:0:0:0:
217,120,150380,1,0,0:0:0:0:
177,112,150465,1,0,0:0:0:0:
311,241,150633,1,0,0:0:0:0:
111,44,150802,2,0,L|22:53,1,80
326,226,151139,6,0,P|366:174|362:73,1,160
401,313,151644,1,0,0:0:0:0:
257,128,151813,1,0,0:0:0:0:
111,313,151981,1,0,0:0:0:0:
99,157,152150,2,0,P|39:137|10:137,1,80
401,313,152487,6,0,P|451:323|491:318,1,80
437,112,152824,1,0,0:0:0:0:
206,236,152993,1,0,0:0:0:0:
197,274,153077,1,0,0:0:0:0:
188,312,153161,1,0,0:0:0:0:
301,189,153330,1,0,0:0:0:0:
90,340,153498,1,0,0:0:0:0:
262,379,153667,1,0,0:0:0:0:
146,146,153835,6,0,P|94:133|60:134,1,80
188,312,154172,1,0,0:0:0:0:
301,189,154341,2,0,L|320:102,1,80
374,258,154678,1,0,0:0:0:0:
216,75,154847,1,0,0:0:0:0:
188,312,155015,1,0,0:0:0:0:
60,98,155184,6,0,L|79:179,1,80
263,273,155521,1,0,0:0:0:0:
216,75,155689,1,0,0:0:0:0:
177,64,155774,1,0,0:0:0:0:
138,53,155858,1,0,0:0:0:0:
147,241,156026,1,0,0:0:0:0:
357,206,156195,2,0,P|400:205|446:218,1,80
216,75,156532,6,0,P|259:76|305:63,1,80
220,209,156869,1,0,0:0:0:0:
387,106,157038,1,0,0:0:0:0:
424,91,157122,1,0,0:0:0:0:
461,77,157206,1,0,0:0:0:0:
291,288,157375,1,0,0:0:0:0:
106,157,157543,2,0,L|80:76,1,80
430,173,157880,5,0,0:0:0:0:
419,268,158049,1,0,0:0:0:0:
408,363,158217,1,0,0:0:0:0:
295,129,158386,1,0,0:0:0:0:
300,169,158470,1,0,0:0:0:0:
304,208,158554,1,0,0:0:0:0:
309,248,158638,1,0,0:0:0:0:
313,288,158723,1,0,0:0:0:0:
385,79,158892,1,0,0:0:0:0:
211,267,159060,1,0,0:0:0:0:
58,60,159229,6,0,L|37:148,1,80
141,300,159566,1,0,0:0:0:0:
155,99,159734,2,0,L|136:21,1,80
211,267,160071,1,0,0:0:0:0:
262,42,160240,2,0,L|241:130,1,80
358,343,160577,5,0,0:0:0:0:
472,228,160745,1,0,0:0:0:0:
480,188,160830,1,0,0:0:0:0:
488,149,160914,1,0,0:0:0:0:
191,146,161083,1,0,0:0:0:0:
278,244,161251,2,0,L|361:230,1,80
113,133,161588,2,0,L|191:146,1,80
444,61,161925,5,0,0:0:0:0:
349,77,162094,1,0,0:0:0:0:
254,93,162262,1,0,0:0:0:0:
59,236,162431,1,0,0:0:0:0:
98,241,162515,1,0,0:0:0:0:
137,246,162599,1,0,0:0:0:0:
136,102,162768,1,0,0:0:0:0:
10,320,162936,1,0,0:0:0:0:
264,321,163105,1,0,0:0:0:0:
137,246,163274,5,0,0:0:0:0:
312,123,163611,1,0,0:0:0:0:
312,123,163779,2,0,P|366:138|389:139,2,60.0000022888184
156,154,164285,2,0,P|193:197|259:234,1,120.000004577637
221,75,164790,1,0,0:0:0:0:
114,63,164959,1,0,0:0:0:0:
358,220,165127,6,0,L|487:210,1,120.000004577637
284,314,165633,2,0,L|413:324,1,120.000004577637
184,212,166139,2,0,L|248:207,1,60.0000022888184
168,347,166476,5,0,0:0:0:0:
84,338,166644,1,0,0:0:0:0:
0,330,166813,1,0,0:0:0:0:
66,120,166981,2,0,P|87:150|70:235,1,120.000004577637
241,285,167487,2,0,L|310:279,1,60.0000022888184
507,152,167824,6,0,B|469:163|469:163|430:148|430:148|388:158,1,120.000004577637
219,58,168330,2,0,P|263:58|287:64,1,60.0000022888184
110,274,168667,6,0,L|93:206,1,60.0000022888184
63,124,169004,1,0,0:0:0:0:
192,332,169172,1,0,0:0:0:0:
214,244,169341,1,0,0:0:0:0:
237,156,169510,1,0,0:0:0:0:
340,366,169678,2,0,L|328:302,1,60.0000022888184
442,174,170015,5,0,0:0:0:0:
423,262,170184,1,0,0:0:0:0:
509,238,170352,1,0,0:0:0:0:
246,71,170521,2,0,P|306:56|366:77,1,120.000004577637
302,162,171026,1,0,0:0:0:0:
290,174,171363,6,0,L|221:166,1,68.0000012969971
71,290,171701,2,0,L|140:282,1,68.0000012969971
269,82,172038,1,0,0:0:0:0:
95,211,172206,1,0,0:0:0:0:
103,115,172375,1,0,0:0:0:0:
256,289,172543,1,0,0:0:0:0:
394,193,172712,5,0,0:0:0:0:
420,284,172880,1,0,0:0:0:0:
269,82,173049,1,0,0:0:0:0:
243,173,173217,1,0,0:0:0:0:
26,157,173386,2,0,P|14:110|18:86,1,68.0000012969971
306,270,173723,2,0,P|307:303|296:335,1,68.0000012969971
215,33,174060,1,0,0:0:0:0:
233,24,174397,6,0,L|362:13,1,120.000004577637
94,66,174903,1,0,0:0:0:0:
203,148,175071,2,0,L|267:153,1,60.0000022888184
485,260,175408,2,0,P|432:253|362:277,1,120.000004577637
359,283,176251,1,0,0:0:0:0:
286,215,176420,1,0,0:0:0:0:
435,331,176588,1,0,0:0:0:0:
487,134,176757,6,0,L|493:45,1,90.0000034332277
419,81,177094,2,0,L|414:8,1,60.0000022888184
216,164,177431,2,0,L|201:264,1,90.0000034332277
197,282,177768,1,0,0:0:0:0:
92,98,177936,1,0,0:0:0:0:
35,282,178105,6,0,L|39:341,1,60.0000022888184
118,202,178442,1,0,0:0:0:0:
261,343,178611,2,0,P|309:358|381:348,1,120.000004577637
475,202,179116,2,0,L|481:163,1,30.0000011444092
215,43,179369,1,0,0:0:0:0:
219,52,179453,2,0,P|269:79|334:74,1,120.000004577637
499,284,179959,2,0,P|439:279|387:307,1,120.000004577637
411,147,180465,1,0,0:0:0:0:
234,284,180633,1,0,0:0:0:0:
84,192,180802,6,0,L|61:71,1,120.000004577637
223,339,181307,2,0,L|246:218,1,120.000004577637
88,337,181813,1,0,0:0:0:0:
103,324,182150,6,0,P|167:308|221:318,1,120.000004577637
117,219,182656,1,0,0:0:0:0:
295,351,182824,2,0,P|343:361|366:359,1,60.0000022888184
237,160,183161,2,0,P|207:161|178:169,1,60.0000022888184
341,234,183498,2,0,L|466:225,1,120.000004577637
182,110,184004,2,0,L|307:119,1,120.000004577637
199,248,184510,2,0,P|179:254|162:256,1,30.0000011444092
401,64,184762,5,0,0:0:0:0:
416,63,184847,2,0,P|434:112|413:202,1,143.999995605469
314,131,185352,1,0,0:0:0:0:
338,290,185521,2,0,L|351:364,1,71.9999978027344
228,155,185858,2,0,L|215:229,1,71.9999978027344
34,339,186195,6,0,P|55:286|44:195,1,143.999995605469
37,187,187038,1,0,0:0:0:0:
204,93,187206,1,0,0:0:0:0:
99,102,187375,1,0,0:0:0:0:
287,165,187543,6,0,P|343:179|402:170,1,107.999996704102
414,163,187880,2,0,L|440:93,1,71.9999978027344
279,311,188217,2,0,L|253:243,1,71.9999978027344
99,102,188554,2,0,L|73:169,1,71.9999978027344
368,358,188892,6,0,P|385:298|357:223,1,143.999995605469
464,325,189397,1,0,0:0:0:0:
464,325,189734,1,0,0:0:0:0:
480,140,189903,2,0,L|486:91,1,35.9999989013672
141,163,190156,5,0,0:0:0:0:
143,178,190240,2,0,L|158:331,1,143.999995605469
51,120,190745,2,0,L|43:196,1,71.9999978027344
255,302,191083,1,0,0:0:0:0:
327,214,191251,2,0,P|334:172|331:131,1,71.9999978027344
372,323,191588,6,0,P|425:291|466:215,1,143.999995605469
177,177,192094,2,0,P|218:207|246:217,1,71.9999978027344
75,81,192431,1,0,0:0:0:0:
54,282,192599,2,0,L|63:357,1,71.9999978027344
314,214,192936,6,0,L|331:68,1,143.999995605469
436,314,193442,2,0,L|419:168,1,143.999995605469
221,123,193948,1,0,0:0:0:0:
425,77,194116,1,0,0:0:0:0:
333,275,194285,6,0,P|291:293|186:277,1,143.999995605469
114,164,194790,1,0,0:0:0:0:
94,263,194959,1,0,0:0:0:0:
213,180,195127,1,0,0:0:0:0:
189,277,195296,1,0,0:0:0:0:
498,105,195633,6,0,P|453:84|416:216,1,240
436,223,196307,2,0,B|381:205|381:205|339:220|339:220|298:202|298:202|278:223|249:234|205:223,1,240
16,69,196981,6,0,P|43:60|61:59,1,40
129,60,197150,2,0,P|156:65|172:73,1,40
228,113,197319,2,0,P|249:131|259:146,1,40
292,205,197487,2,0,P|301:232|302:250,1,40
136,155,197656,6,0,B|184:141|206:115|206:115|300:148|300:148|352:129|406:148,1,287.999991210938
240,321,198330,6,0,B|194:329|194:329|162:312|162:312|114:312,1,120.000004577637
320,358,198835,1,0,0:0:0:0:
510,203,199004,6,0,P|447:167|341:219,1,191.999994140625
431,267,199510,1,0,0:0:0:0:
78,178,199678,5,0,0:0:0:0:
101,194,199762,1,0,0:0:0:0:
127,206,199847,1,0,0:0:0:0:
154,213,199931,1,0,0:0:0:0:
182,216,200015,1,0,0:0:0:0:
210,215,200099,1,0,0:0:0:0:
238,210,200184,1,0,0:0:0:0:
264,199,200268,1,0,0:0:0:0:
288,183,200352,6,0,P|317:141|332:95,1,95.9999970703126
395,135,200605,2,0,L|370:30,1,95.9999970703126
488,125,200858,1,0,0:0:0:0:
481,153,200942,1,0,0:0:0:0:
475,181,201026,6,0,B|452:222|452:222|472:266|472:266|447:299|447:299|460:341,1,180.000006866455
366,302,201616,5,0,0:0:0:0:
375,277,201701,2,0,P|302:289|210:263,1,160
328,370,202206,1,0,0:0:0:0:
98,293,202375,5,0,0:0:0:0:
93,269,202459,1,0,0:0:0:0:
88,245,202543,1,0,0:0:0:0:
83,221,202627,1,0,0:0:0:0:
78,197,202712,1,0,0:0:0:0:
73,173,202796,1,0,0:0:0:0:
68,149,202880,1,0,0:0:0:0:
64,125,202965,1,0,0:0:0:0:
60,101,203049,2,0,L|51:57,1,40
122,18,203217,1,0,0:0:0:0:
122,18,203554,1,0,0:0:0:0:
447,148,203723,6,0,P|383:166|297:117,1,167.999994873047
435,167,204060,6,0,P|388:198|310:200,1,132.00000402832
420,188,204397,6,0,P|401:221|348:256,1,90.0000034332277
333,258,204734,1,0,0:0:0:0:
305,260,204819,1,0,0:0:0:0:
278,258,204903,1,0,0:0:0:0:
251,251,204987,1,0,0:0:0:0:
226,239,205071,6,0,B|211:218|211:218|221:192|221:192|206:169|206:169|210:144|210:144|196:122|196:122|200:93,1,160
370,39,205577,1,0,0:0:0:0:
363,74,205661,1,0,0:0:0:0:
357,109,205745,2,0,L|345:183,1,40
430,148,205914,6,0,L|409:276,1,120.000004577637
349,331,206335,5,0,0:0:0:0:
333,310,206420,2,0,B|288:343|225:339|182:300|182:300|123:321|123:321|66:298,1,287.999991210938
60,122,207010,5,0,0:0:0:0:
87,102,207094,2,0,P|122:119|120:245,1,180.000006866455
194,30,207768,5,0,0:0:0:0:
223,36,207852,1,0,0:0:0:0:
249,50,207936,1,0,0:0:0:0:
273,68,208021,1,0,0:0:0:0:
293,89,208105,1,0,0:0:0:0:
308,114,208189,1,0,0:0:0:0:
319,141,208274,1,0,0:0:0:0:
327,169,208358,1,0,0:0:0:0:
329,198,208442,2,0,P|349:178|368:165,1,40
465,128,208611,1,0,0:0:0:0:
465,128,208948,2,0,P|446:135|423:139,1,40
327,169,209116,6,0,B|232:200|232:137|138:169,1,191.999994140625
278,77,209622,1,0,0:0:0:0:
188,260,209790,6,0,P|186:304|210:353,2,90.0000034332277
226,76,210465,5,0,0:0:0:0:
196,78,210549,1,0,0:0:0:0:
168,88,210633,1,0,0:0:0:0:
143,105,210717,1,0,0:0:0:0:
120,125,210802,1,0,0:0:0:0:
104,149,210886,1,0,0:0:0:0:
91,175,210970,1,0,0:0:0:0:
82,203,211054,1,0,0:0:0:0:
77,232,211139,2,0,P|58:178|14:122,2,120
222,368,211813,6,0,P|225:316|291:208,1,180.000006866455
342,76,212403,5,0,0:0:0:0:
365,87,212487,2,0,P|405:132|430:228,1,160
340,335,212993,1,0,0:0:0:0:
100,277,213161,5,0,0:0:0:0:
95,249,213245,1,0,0:0:0:0:
90,221,213330,1,0,0:0:0:0:
85,193,213414,1,0,0:0:0:0:
80,165,213498,1,0,0:0:0:0:
75,137,213583,1,0,0:0:0:0:
70,109,213667,1,0,0:0:0:0:
65,81,213751,1,0,0:0:0:0:
60,53,213835,2,0,P|39:66|12:75,1,40
136,70,214004,1,0,0:0:0:0:
354,213,214341,6,0,P|332:211|309:206,1,40
242,149,214510,2,0,L|223:42,1,90.0000034332277
219,229,214847,6,0,L|195:97,1,120
196,318,215184,6,0,L|170:172,1,143.999995605469
95,93,215521,5,0,0:0:0:0:
128,96,215605,1,0,0:0:0:0:
161,92,215689,1,0,0:0:0:0:
193,81,215774,1,0,0:0:0:0:
221,62,215858,6,0,P|281:98|367:94,2,143.999995605469
446,157,216532,2,0,P|461:209|453:254,1,95.9999970703126
242,360,216869,2,0,P|236:312|250:267,1,95.9999970703126
82,106,217206,5,0,0:0:0:0:
256,192,217290,12,0,219397,0:0:0:0:
256,192,219566,6,0,L|242:252,1,60.0000022888184
446,333,219903,6,0,L|413:189,1,143.999995605469
402,154,220240,1,0,0:0:0:0:
142,90,220408,1,0,0:0:0:0:
131,132,220493,1,0,0:0:0:0:
121,173,220577,1,0,0:0:0:0:
60,28,220745,1,0,0:0:0:0:
179,267,220914,1,0,0:0:0:0:
340,51,221083,1,0,0:0:0:0:
47,189,221251,6,0,L|30:284,1,95.9999970703126
185,136,221588,1,0,0:0:0:0:
282,355,221757,2,0,L|265:260,1,95.9999970703126
340,51,222094,1,0,0:0:0:0:
466,205,222262,2,0,P|470:266|453:310,1,95.9999970703126
159,234,222599,5,0,0:0:0:0:
398,135,222768,1,0,0:0:0:0:
309,259,222936,1,0,0:0:0:0:
249,117,223105,1,0,0:0:0:0:
215,341,223274,2,0,B|164:344|164:344|116:328|116:328|68:328,2,143.999995605469
309,259,223863,5,0,0:0:0:0:
325,240,223948,2,0,P|290:205|149:209,1,191.999994140625
397,174,224453,1,0,0:0:0:0:
384,132,224538,1,0,0:0:0:0:
356,98,224622,1,0,0:0:0:0:
434,318,224790,1,0,0:0:0:0:
463,286,224875,1,0,0:0:0:0:
483,247,224959,1,0,0:0:0:0:
490,204,225043,1,0,0:0:0:0:
490,160,225127,1,0,0:0:0:0:
135,35,225296,6,0,L|152:181,1,143.999995605469
156,216,225633,1,0,0:0:0:0:
30,339,225802,1,0,0:0:0:0:
37,296,225886,1,0,0:0:0:0:
45,253,225970,1,0,0:0:0:0:
221,70,226139,1,0,0:0:0:0:
251,265,226307,1,0,0:0:0:0:
65,96,226476,1,0,0:0:0:0:
359,146,226644,6,0,L|458:134,1,95.9999970703126
251,265,226981,2,0,L|350:277,1,95.9999970703126
159,157,227319,1,0,0:0:0:0:
458,256,227487,1,0,0:0:0:0:
258,359,227656,1,0,0:0:0:0:
345,100,227824,1,0,0:0:0:0:
154,283,227993,6,0,L|75:276,1,60.0000022888184
294,181,228330,6,0,L|189:190,1,88.000002685547
490,112,228667,6,0,L|368:101,1,111.999996582031
306,48,228920,1,0,0:0:0:0:
270,63,229004,1,0,0:0:0:0:
231,69,229088,1,0,0:0:0:0:
191,68,229172,1,0,0:0:0:0:
152,59,229257,1,0,0:0:0:0:
119,37,229341,6,0,B|96:91|96:91|114:146|114:146|96:207,1,167.999994873047
92,224,229678,1,0,0:0:0:0:
307,150,229847,1,0,0:0:0:0:
345,143,229931,1,0,0:0:0:0:
383,137,230015,1,0,0:0:0:0:
418,154,230099,1,0,0:0:0:0:
453,171,230184,1,0,0:0:0:0:
166,211,230352,1,0,0:0:0:0:
397,34,230521,1,0,0:0:0:0:
371,253,230689,6,0,L|356:358,1,95.9999970703126,0|0,0:0|0:0,0:0:0:0:
239,76,231026,1,0,0:0:0:0:
30,241,231195,1,0,0:0:0:0:
34,283,231279,1,0,0:0:0:0:
38,325,231363,1,0,0:0:0:0:
160,40,231532,1,0,0:0:0:0:
149,135,231701,1,0,0:0:0:0:
139,230,231869,1,0,0:0:0:0:
32,73,232038,5,0,0:0:0:0:
264,197,232206,1,0,0:0:0:0:
454,26,232375,1,0,0:0:0:0:
246,48,232543,1,0,0:0:0:0:
273,279,232712,2,0,L|284:377,1,95.9999970703126
253,123,233049,1,0,0:0:0:0:
182,343,233217,1,0,0:0:0:0:
399,185,233386,6,0,P|413:129|404:85,1,95.9999970703126
504,312,233723,1,0,0:0:0:0:
304,133,233892,1,0,0:0:0:0:
119,317,234060,2,0,P|58:319|4:257,2,143.999995605469
141,70,234734,6,0,L|113:218,1,143.999995605469
88,236,235071,1,0,0:0:0:0:
325,153,235240,1,0,0:0:0:0:
314,111,235324,1,0,0:0:0:0:
303,69,235408,1,0,0:0:0:0:
428,300,235577,1,0,0:0:0:0:
439,258,235661,1,0,0:0:0:0:
450,216,235745,1,0,0:0:0:0:
438,75,235914,1,0,0:0:0:0:
255,339,236083,6,0,P|197:355|106:324,1,143.999995605469
90,309,236420,1,0,0:0:0:0:
325,153,236588,1,0,0:0:0:0:
367,147,236672,1,0,0:0:0:0:
410,142,236757,1,0,0:0:0:0:
192,254,236925,1,0,0:0:0:0:
51,131,237094,1,0,0:0:0:0:
240,96,237262,1,0,0:0:0:0:
370,241,237431,5,0,0:0:0:0:
185,246,237600,1,0,0:0:0:0:
58,109,237768,1,0,0:0:0:0:
364,252,237936,5,0,0:0:0:0:
180,239,238105,1,0,0:0:0:0:
68,89,238273,1,0,0:0:0:0:
275,351,238442,1,0,0:0:0:0:
344,81,238611,1,0,0:0:0:0:
69,163,238779,5,0,0:0:0:0:
88,189,238863,1,0,0:0:0:0:
116,207,238948,1,0,0:0:0:0:
147,215,239032,1,0,0:0:0:0:
181,215,239116,1,0,0:0:0:0:
215,196,239201,1,0,0:0:0:0:
251,185,239285,1,0,0:0:0:0:
290,186,239369,1,0,0:0:0:0:
324,198,239453,1,0,0:0:0:0:
356,170,239538,1,0,0:0:0:0:
391,144,239622,1,0,0:0:0:0:
430,127,239706,1,0,0:0:0:0:
470,112,239790,1,0,0:0:0:0:
421,111,239875,1,0,0:0:0:0:
374,99,239959,1,0,0:0:0:0:
330,78,240043,1,0,0:0:0:0:
295,45,240127,5,0,0:0:0:0:
490,232,240296,1,0,0:0:0:0:
148,101,240465,1,0,0:0:0:0:
476,247,240633,1,0,0:0:0:0:
197,200,240802,1,0,0:0:0:0:
459,263,240970,1,0,0:0:0:0:
92,243,241139,1,0,0:0:0:0:
292,23,241307,1,0,0:0:0:0:
459,263,241476,6,0,L|469:352,1,80
387,75,241813,1,0,0:0:0:0:
237,270,241981,1,0,0:0:0:0:
228,309,242066,1,0,0:0:0:0:
219,348,242150,1,0,0:0:0:0:
342,190,242319,1,0,0:0:0:0:
145,109,242487,2,0,P|78:106|49:114,1,80
341,89,242824,6,0,P|275:44|192:21,1,160
417,143,243330,1,0,0:0:0:0:
455,134,243414,1,0,0:0:0:0:
493,125,243498,1,0,0:0:0:0:
232,192,243667,1,0,0:0:0:0:
497,299,243835,1,0,0:0:0:0:
341,305,244004,1,0,0:0:0:0:
391,182,244172,6,0,L|376:57,1,120
370,22,244510,1,0,0:0:0:0:
494,218,244678,1,0,0:0:0:0:
218,311,244847,6,0,L|233:186,1,120
239,151,245185,1,0,0:0:0:0:
68,224,245352,1,0,0:0:0:0:
348,349,245521,2,0,L|435:341,1,80
154,225,245858,1,0,0:0:0:0:
397,165,246026,2,0,L|310:157,1,80
466,258,246363,1,0,0:0:0:0:
174,80,246532,2,0,L|261:72,1,80
215,327,246869,6,0,P|130:341|62:306,1,160
340,219,247375,2,0,P|285:205|250:208,1,80
467,150,247712,1,0,0:0:0:0:
181,235,247880,2,0,P|139:236|94:225,1,80
275,62,248217,6,0,L|445:49,1,160
186,154,248723,2,0,L|271:160,1,80
82,80,249060,1,0,0:0:0:0:
330,238,249229,2,0,L|415:231,1,80
124,309,249566,5,0,0:0:0:0:
82,80,249734,1,0,0:0:0:0:
298,168,249903,1,0,0:0:0:0:
165,182,250071,1,0,0:0:0:0:
372,73,250240,2,0,L|455:81,1,80
245,275,250577,2,0,L|328:267,1,80
38,85,250914,6,0,L|204:101,1,160
99,213,251420,1,0,0:0:0:0:
388,170,251588,2,0,L|308:177,1,80
511,259,251925,1,0,0:0:0:0:
191,251,252094,1,0,0:0:0:0:
338,321,252262,6,0,L|377:200,1,120
388,170,252599,1,0,0:0:0:0:
459,351,252768,1,0,0:0:0:0:
266,201,252936,2,0,L|255:118,1,80
145,348,253274,2,0,L|156:265,1,80
367,18,253611,6,0,L|385:156,1,120
388,170,253948,1,0,0:0:0:0:
469,60,254116,1,0,0:0:0:0:
266,200,254285,1,0,0:0:0:0:
65,60,254453,1,0,0:0:0:0:
108,210,254622,2,0,P|109:258|98:292,1,80
203,70,254959,6,0,P|244:49|329:44,1,120
353,53,255296,1,0,0:0:0:0:
136,21,255465,1,0,0:0:0:0:
427,129,255633,2,0,L|451:261,1,120
454,285,255970,1,0,0:0:0:0:
453,32,256139,1,0,0:0:0:0:
274,206,256307,6,0,P|214:219|180:218,1,80
366,262,256644,1,0,0:0:0:0:
124,171,256813,1,0,0:0:0:0:
367,168,256981,1,0,0:0:0:0:
125,259,257150,1,0,0:0:0:0:
382,268,257319,1,0,0:0:0:0:
107,165,257488,1,0,0:0:0:0:
384,161,257656,6,0,P|431:149|467:132,1,80
245,105,257993,1,0,0:0:0:0:
400,280,258161,2,0,P|446:293|486:296,1,80
337,70,258498,1,0,0:0:0:0:
224,309,258667,1,0,0:0:0:0:
69,97,258835,1,0,0:0:0:0:
312,274,259004,6,0,P|318:324|307:363,1,80
245,105,259341,1,0,0:0:0:0:
184,377,259510,2,0,P|209:346|223:309,1,80
245,105,259847,1,0,0:0:0:0:
121,306,260015,2,0,P|90:331|52:344,1,80
375,168,260352,6,0,L|468:162,1,80
188,258,260689,1,0,0:0:0:0:
69,40,260858,2,0,L|255:28,1,160
88,246,261363,2,0,L|-5:240,1,80
285,89,261701,5,0,0:0:0:0:
358,221,261869,1,0,0:0:0:0:
226,294,262038,1,0,0:0:0:0:
153,162,262206,1,0,0:0:0:0:
326,311,262375,1,0,0:0:0:0:
328,22,262543,1,0,0:0:0:0:
75,164,262712,1,0,0:0:0:0:
256,192,262880,1,0,0:0:0:0:
178,48,263049,6,0,P|136:53|108:50,1,60.0000022888184
393,155,263386,2,0,P|441:155|498:170,1,90.0000034332277
512,176,263723,1,0,0:0:0:0:
324,339,263892,1,0,0:0:0:0:
136,191,264060,2,0,L|119:132,1,60.0000022888184
296,24,264397,5,0,0:0:0:0:
277,106,264566,1,0,0:0:0:0:
259,187,264734,1,0,0:0:0:0:
396,79,264903,1,0,0:0:0:0:
151,129,265071,2,0,L|75:118,1,60.0000022888184
353,256,265408,2,0,L|385:253,9,20.0000007629395
353,256,266083,6,0,L|453:244,1,90.0000034332277
476,239,266420,1,0,0:0:0:0:
262,82,266588,1,0,0:0:0:0:
99,295,266757,2,0,P|91:333|92:366,1,60.0000022888184
409,177,267094,5,0,0:0:0:0:
393,94,267262,1,0,0:0:0:0:
377,11,267431,1,0,0:0:0:0:
184,197,267599,1,0,0:0:0:0:
176,238,267684,1,0,0:0:0:0:
169,279,267768,1,0,0:0:0:0:
306,272,267936,1,0,0:0:0:0:
145,92,268105,1,0,0:0:0:0:
118,124,268190,1,0,0:0:0:0:
93,157,268274,1,0,0:0:0:0:
246,359,268442,6,0,L|354:349,1,90.0000034332277
372,348,268779,1,0,0:0:0:0:
169,279,268948,1,0,0:0:0:0:
468,265,269116,2,0,L|409:259,1,60.0000022888184
276,164,269453,1,0,0:0:0:0:
480,90,269622,1,0,0:0:0:0:
174,77,269790,6,0,L|83:71,1,90.0000034332277
51,70,270127,1,0,0:0:0:0:
179,285,270296,1,0,0:0:0:0:
374,122,270465,2,0,P|386:79|388:52,1,60.0000022888184
68,214,270802,2,0,L|74:252,4,20.0000007629395
79,263,271139,5,0,0:0:0:0:
205,97,271307,1,0,0:0:0:0:
386,200,271476,2,0,L|399:275,1,60.0000022888184
401,292,271729,1,0,0:0:0:0:
406,324,271813,1,0,0:0:0:0:
476,107,271981,1,0,0:0:0:0:
295,276,272150,2,0,L|282:351,1,60.0000022888184
151,39,272487,5,0,0:0:0:0:
369,276,272656,1,0,0:0:0:0:
361,39,272824,1,0,0:0:0:0:
143,276,272993,1,0,0:0:0:0:
33,70,273161,1,0,0:0:0:0:
69,49,273245,1,0,0:0:0:0:
110,39,273330,1,0,0:0:0:0:
151,39,273414,1,0,0:0:0:0:
187,51,273498,1,0,0:0:0:0:
7,100,273667,5,0,0:0:0:0:
287,141,273835,6,0,L|374:134,1,80
174,222,274172,1,0,0:0:0:0:
425,257,274341,2,0,L|338:250,1,80
235,346,274678,1,0,0:0:0:0:
474,161,274847,2,0,L|486:74,1,80
220,263,275184,6,0,L|208:176,1,80
331,291,275521,1,0,0:0:0:0:
129,126,275689,2,0,P|178:92|280:117,1,160
252,361,276195,1,0,0:0:0:0:
210,184,276363,1,0,0:0:0:0:
346,61,276532,5,0,0:0:0:0:
227,277,276701,1,0,0:0:0:0:
260,98,276869,1,0,0:0:0:0:
434,41,277038,1,0,0:0:0:0:
324,198,277206,1,0,0:0:0:0:
128,180,277375,1,0,0:0:0:0:
408,203,277543,2,0,L|501:209,1,80
223,229,277880,5,0,0:0:0:0:
452,128,278049,1,0,0:0:0:0:
2,153,278217,1,0,0:0:0:0:
231,52,278386,2,0,L|319:43,1,80
126,138,278723,1,0,0:0:0:0:
417,227,278892,2,0,L|329:218,1,80
35,305,279229,6,0,P|105:346|191:330,1,160
231,52,279734,1,0,0:0:0:0:
128,229,279903,1,0,0:0:0:0:
417,227,280071,1,0,0:0:0:0:
176,135,280240,2,0,L|91:106,1,80
340,294,280577,6,0,L|516:265,1,160
225,229,281083,1,0,0:0:0:0:
443,362,281251,1,0,0:0:0:0:
448,105,281420,1,0,0:0:0:0:
290,361,281588,1,0,0:0:0:0:
160,95,281757,1,0,0:0:0:0:
36,268,281925,6,0,L|18:358,1,80
90,125,282262,1,0,0:0:0:0:
238,292,282431,2,0,L|222:213,1,80
329,63,282768,1,0,0:0:0:0:
466,293,282936,2,0,L|448:383,1,80
153,214,283274,5,0,0:0:0:0:
169,119,283442,1,0,0:0:0:0:
187,24,283611,1,0,0:0:0:0:
273,190,283779,1,0,0:0:0:0:
57,46,283948,1,0,0:0:0:0:
333,95,284116,1,0,0:0:0:0:
0,142,284285,1,0,0:0:0:0:
186,370,284453,1,0,0:0:0:0:
429,204,284622,6,0,L|465:31,1,160
338,303,285127,1,0,0:0:0:0:
233,60,285296,2,0,L|240:152,1,80
176,305,285633,1,0,0:0:0:0:
114,207,285802,1,0,0:0:0:0:
319,62,285970,5,0,0:0:0:0:
408,98,286139,1,0,0:0:0:0:
496,133,286307,1,0,0:0:0:0:
166,103,286476,2,0,P|147:53|143:19,1,80
255,283,286813,1,0,0:0:0:0:
496,132,286981,2,0,P|488:171|473:208,1,80
142,338,287319,6,0,P|217:362|297:358,1,160
53,200,287824,1,0,0:0:0:0:
213,146,287993,1,0,0:0:0:0:
59,73,288161,1,0,0:0:0:0:
351,62,288330,1,0,0:0:0:0:
212,146,288498,1,0,0:0:0:0:
492,273,288667,5,0,0:0:0:0:
355,213,288835,1,0,0:0:0:0:
483,130,289004,1,0,0:0:0:0:
226,288,289172,2,0,P|151:299|55:272,1,160
104,48,289678,1,0,0:0:0:0:
145,134,289847,1,0,0:0:0:0:
408,127,290015,6,0,L|382:299,1,160,0|0,0:0|0:0,0:0:0:0:
299,102,290521,1,0,0:0:0:0:
488,307,290689,1,0,0:0:0:0:
512,150,290858,1,0,0:0:0:0:
274,262,291026,2,0,P|214:270|141:254,1,120
129,243,291363,5,0,0:0:0:0:
337,163,291532,1,0,0:0:0:0:
52,93,291701,1,0,0:0:0:0:
383,38,291869,2,0,L|295:28,1,80
420,210,292206,1,0,0:0:0:0:
130,243,292375,2,0,L|218:233,1,80
493,316,292712,6,0,P|419:302|328:330,1,160
188,129,293217,1,0,0:0:0:0:
360,184,293386,2,0,L|453:178,1,80
111,104,293723,2,0,L|18:110,1,80
219,347,294060,5,0,0:0:0:0:
245,254,294229,1,0,0:0:0:0:
272,162,294397,1,0,0:0:0:0:
86,321,294566,1,0,0:0:0:0:
385,362,294734,1,0,0:0:0:0:
426,63,294903,1,0,0:0:0:0:
127,22,295071,1,0,0:0:0:0:
256,192,295240,1,0,0:0:0:0:
488,159,295408,6,0,B|461:139|461:139|422:154|422:154|390:132|344:128|311:149,1,180.000006866455
248,62,295998,5,0,0:0:0:0:
224,56,296083,2,0,P|172:99|132:190,1,160
82,31,296588,1,0,0:0:0:0:
207,274,296757,6,0,P|231:288|255:294,1,40
322,297,296925,2,0,P|349:292|371:281,1,40
210,182,297094,2,0,P|185:195|168:213,1,40
132,270,297262,2,0,P|122:296|120:320,1,40
287,229,297431,2,0,P|287:201|280:177,1,40
249,117,297599,2,0,P|231:95|181:63,1,80
9,230,297936,1,0,0:0:0:0:
245,357,298105,6,0,B|292:368|292:368|332:352|332:352|372:368|372:368|423:299|501:287,1,287.999991210938
440,176,298695,5,0,0:0:0:0:
422,191,298779,2,0,B|378:191|378:191|343:180|343:180|293:180,2,120
228,28,299453,5,0,0:0:0:0:
195,31,299538,1,0,0:0:0:0:
164,41,299622,1,0,0:0:0:0:
136,56,299706,1,0,0:0:0:0:
111,75,299790,1,0,0:0:0:0:
88,98,299875,1,0,0:0:0:0:
70,124,299959,1,0,0:0:0:0:
58,153,300043,1,0,0:0:0:0:
49,183,300127,2,0,P|25:134|1:108,2,90.0000034332277
207,104,300802,6,0,P|281:117|274:258,1,240
215,201,301392,5,0,0:0:0:0:
231,186,301476,2,0,B|272:158|322:173|345:207|345:207|366:178|401:161,1,191.999994140625
501,313,301981,1,0,0:0:0:0:
276,345,302150,5,0,0:0:0:0:
238,338,302234,1,0,0:0:0:0:
199,331,302319,1,0,0:0:0:0:
161,324,302403,1,0,0:0:0:0:
123,317,302487,1,0,0:0:0:0:
102,284,302571,1,0,0:0:0:0:
80,251,302656,1,0,0:0:0:0:
59,218,302740,1,0,0:0:0:0:
38,185,302824,1,0,0:0:0:0:
21,369,302993,1,0,0:0:0:0:
254,243,303161,2,0,P|305:233|346:233,1,80
495,108,303498,6,0,P|429:121|350:49,1,167.999994873047
354,62,303835,6,0,P|379:121|436:157,1,132.00000402832
434,156,304172,6,0,P|367:156|327:143,1,90.0000034332277
269,92,304510,1,0,0:0:0:0:
179,338,304678,1,0,0:0:0:0:
66,204,304847,6,0,B|52:177|52:177|56:148|56:148|44:121|44:121|49:89,2,120
168,29,305521,1,0,0:0:0:0:
314,205,305689,2,0,P|317:280|310:295,1,80
159,180,306026,1,0,0:0:0:0:
367,44,306195,6,0,P|419:93|432:275,1,240
364,163,306785,5,0,0:0:0:0:
370,193,306869,2,0,P|344:259|301:306,1,120.000004577637
143,228,307375,1,0,0:0:0:0:
458,359,307543,6,0,L|463:312,1,40
413,260,307712,2,0,L|418:213,1,40
490,184,307880,2,0,L|495:137,1,40
445,85,308049,2,0,L|450:38,1,40
364,27,308217,1,0,0:0:0:0:
135,127,308386,1,0,0:0:0:0:
292,171,308554,1,0,0:0:0:0:
241,41,308723,1,0,0:0:0:0:
11,225,308892,6,0,B|63:221|98:260|98:260|176:233|233:294,1,240
314,251,309481,5,0,0:0:0:0:
302,222,309566,2,0,P|311:173|441:253,1,287.999991210938
245,112,310240,5,0,0:0:0:0:
271,85,310324,1,0,0:0:0:0:
303,65,310408,1,0,0:0:0:0:
339,52,310492,1,0,0:0:0:0:
376,48,310577,1,0,0:0:0:0:
414,52,310661,1,0,0:0:0:0:
450,64,310745,1,0,0:0:0:0:
482,84,310829,1,0,0:0:0:0:
509,111,310914,2,0,B|492:155|492:155|492:209,2,90.0000034332277
439,300,311588,6,0,P|386:328|269:215,1,240
295,131,312178,1,0,0:0:0:0:
301,112,312262,2,0,B|267:227|267:227|195:263,1,191.999994140625
430,193,312768,1,0,0:0:0:0:
196,163,312936,5,0,0:0:0:0:
157,157,313021,1,0,0:0:0:0:
119,151,313105,1,0,0:0:0:0:
81,145,313189,1,0,0:0:0:0:
42,139,313274,1,0,0:0:0:0:
72,162,313358,1,0,0:0:0:0:
102,185,313442,1,0,0:0:0:0:
132,208,313526,1,0,0:0:0:0:
162,232,313611,1,0,0:0:0:0:
33,263,313779,1,0,0:0:0:0:
109,44,313948,1,0,0:0:0:0:
249,233,314116,1,0,0:0:0:0:
371,112,314285,2,0,P|419:108|462:126,1,90.0000034332277
498,204,314622,6,0,P|492:263|427:317,1,132.00000402832
362,303,314959,6,0,P|316:266|316:156,1,167.999994873047
399,213,315296,1,0,0:0:0:0:
251,345,315465,1,0,0:0:0:0:
104,226,315633,6,0,L|88:98,2,120
296,24,316307,6,0,L|281:176,1,143.999995605469
278,202,316644,1,0,0:0:0:0:
152,64,316813,1,0,0:0:0:0:
423,91,316981,1,0,0:0:0:0:
226,333,318330,5,0,0:0:0:0:
397,221,318667,5,0,0:0:0:0:
285,50,319004,5,0,0:0:0:0:
114,162,319341,5,0,0:0:0:0:
