osu file format v14

[General]
AudioFilename: Paranoid Lost (cut).mp3
AudioLeadIn: 2000
PreviewTime: 109005
Countdown: 0
SampleSet: Soft
StackLeniency: 0.4
Mode: 0
LetterboxInBreaks: 0
WidescreenStoryboard: 0

[Editor]
DistanceSpacing: 1
BeatDivisor: 4
GridSize: 4
TimelineZoom: 1

[Metadata]
Title:Paranoid Lost
TitleUnicode:Paranoid Lost
Artist:Halozy
ArtistUnicode:Halozy
Creator:orza6006
Version:Normal
Source:東方Project
Tags:touhou because princess inada is scolding me 10 mountain of faith minoriko aki misato 東方風神録 ~ tonic triangle sumijun shizuha drum and bass dnb cut version lokovodo kiicha apl
BeatmapID:552474
BeatmapSetID:236368

[Difficulty]
HPDrainRate:4
CircleSize:3.5
OverallDifficulty:4
ApproachRate:5
SliderMultiplier:1.1
SliderTickRate:1

[Events]
//Background and Video events
0,0,"thanks_ringating.jpg",0,0
//Break Periods
2,87471,96981
//Storyboard Layer 0 (Background)
//Storyboard Layer 1 (Fail)
//Storyboard Layer 2 (Pass)
//Storyboard Layer 3 (Foreground)
//Storyboard Sound Samples

[TimingPoints]
0,340.909090909091,4,2,1,30,1,0
0,-133.333333333333,4,2,1,30,0,0
21818,-111.111111111111,4,2,1,45,0,0
27272,-111.111111111111,4,2,1,40,0,0
30000,-111.111111111111,4,2,1,35,0,0
32727,-117.647058823529,4,2,1,35,0,0
35454,-117.647058823529,4,2,1,45,0,0
38181,-105.263157894737,4,2,1,55,0,0
43636,-100,4,2,1,80,0,0
65454,-111.111111111111,4,2,1,60,0,0
85909,-111.111111111111,4,2,1,50,0,0
86250,-111.111111111111,4,2,1,45,0,0
86590,-111.111111111111,4,2,1,40,0,0
86931,-111.111111111111,4,2,1,35,0,0
87272,-111.111111111111,4,2,1,30,0,0
98181,-125,4,2,1,70,0,0
103636,-111.111111111111,4,2,1,70,0,0
109090,-100,4,2,1,85,0,1
130823,-100,4,2,1,85,0,0
130909,-100,4,2,1,70,0,1
141818,-125,4,2,1,70,0,0
147272,-111.111111111111,4,2,1,70,0,0

[Colours]
Combo1 : 118,57,12
Combo2 : 255,0,0
Combo3 : 252,78,3
Combo4 : 254,151,12
Combo5 : 255,192,0
Combo6 : 185,121,2

[HitObjects]
148,64,0,6,0,P|186:86|228:96,1,82.5000031471254,4|0,0:0|0:0,0:0:0:0:
264,100,511,2,0,P|302:97|345:120,2,82.5000031471254,2|2|2,0:0|0:0|0:0,0:0:0:0:
288,180,1534,1,0,0:0:0:0:
280,220,1704,2,0,L|300:304,2,82.5000031471254,2|2|2,0:0|0:0|0:0,0:0:0:0:
200,244,2727,6,0,P|152:252|116:248,1,82.5000031471254,0|0,0:0|0:0,0:0:0:0:
88,220,3238,2,0,P|74:181|80:136,2,82.5000031471254,2|2|2,0:0|0:0|0:0,0:0:0:0:
156,172,4261,1,0,0:0:0:0:
186,147,4431,2,0,B|260:74|260:74|274:107|314:119,1,165.000006294251,2|2,0:0|0:0,0:0:0:0:
336,40,5454,6,0,P|376:60|396:92,1,82.5000031471254,4|0,0:0|0:0,0:0:0:0:
400,132,5965,2,0,P|416:176|444:200,2,82.5000031471254,2|2|2,0:0|0:0|0:0,0:0:0:0:
320,116,6988,2,0,L|276:128,1,41.2500015735627,0|2,0:0|0:0,0:0:0:0:
280,212,7500,2,0,L|356:244,1,82.5000031471254,2|2,0:0|0:0,0:0:0:0:
312,312,8181,6,0,P|272:296|232:292,1,82.5000031471254,0|0,0:0|0:0,0:0:0:0:
192,292,8693,2,0,P|152:288|112:268,1,82.5000031471254,2|2,0:0|0:0,0:0:0:0:
77,196,9375,1,2,0:0:0:0:
124,128,9715,1,0,0:0:0:0:
160,152,9886,2,0,L|244:168,1,82.5000031471254,2|2,0:0|0:0,0:0:0:0:
324,156,10568,1,2,0:0:0:0:
269,94,10909,6,0,P|245:181|333:239,1,206.250007867813,4|2,0:0|0:0,0:0:0:0:
324,156,12102,2,0,P|380:172|412:232,1,123.750004720688,2|2,0:0|0:0,0:0:0:0:
478,273,12954,2,0,L|474:356,1,82.5000031471254,2|2,0:0|0:0,0:0:0:0:
392,348,13636,6,0,P|348:344|304:348,1,82.5000031471254,0|0,0:0|0:0,0:0:0:0:
268,348,14147,2,0,L|188:320,2,82.5000031471254,2|2|2,0:0|0:0|0:0,0:0:0:0:
300,272,15170,1,0,0:0:0:0:
260,260,15340,2,0,B|224:244|224:244|204:204,2,82.5000031471254,2|2|2,0:0|0:0|0:0,0:0:0:0:
344,264,16363,6,0,P|384:252|412:224,1,82.5000031471254,4|0,0:0|0:0,0:0:0:0:
428,184,16875,2,0,B|436:144|436:144|424:104,2,82.5000031471254,2|2|2,0:0|0:0|0:0,0:0:0:0:
348,200,17897,1,0,0:0:0:0:
336,240,18068,2,0,B|324:280|324:280|332:320,2,82.5000031471254,2|2|2,0:0|0:0|0:0,0:0:0:0:
264,204,19090,6,0,L|184:220,1,82.5000031471254,0|0,0:0|0:0,0:0:0:0:
144,212,19602,2,0,P|132:172|140:132,2,82.5000031471254,2|2|2,0:0|0:0|0:0,0:0:0:0:
172,292,20625,1,0,0:0:0:0:
172,292,20795,2,0,P|184:332|176:372,2,82.5000031471254,2|2|2,0:0|0:0|0:0,0:0:0:0:
244,224,21818,6,0,P|312:256|384:256,1,148.49999546814,12|8,0:0|0:0,0:0:0:0:
484,148,22840,2,0,P|416:116|344:116,1,148.49999546814,8|8,0:0|0:0,0:0:0:0:
244,224,23863,2,0,P|196:232|144:216,1,98.9999969787599,2|2,0:0|0:0,0:0:0:0:
200,132,24545,5,0,0:0:0:0:
344,116,25056,2,0,P|384:176|392:252,2,148.49999546814,8|8|8,0:0|0:0|0:0,0:0:0:0:
244,224,26590,2,0,P|220:268|176:296,1,98.9999969787599,2|2,0:0|0:0,0:0:0:0:
92,340,27272,6,0,L|240:352,1,148.49999546814,8|8,0:0|0:0,0:0:0:0:
388,344,28295,2,0,P|372:276|396:204,1,148.49999546814,8|8,0:0|0:0,0:0:0:0:
444,60,29318,2,0,L|348:80,1,98.9999969787599,2|2,0:0|0:0,0:0:0:0:
248,88,30000,6,0,P|184:104|129:168,1,148.49999546814,8|8,0:0|0:0,0:0:0:0:
256,244,31022,2,0,B|268:340|268:340|320:356,1,148.49999546814,8|8,0:0|0:0,0:0:0:0:
400,232,32045,2,0,L|428:136,1,98.9999969787599,2|2,0:0|0:0,0:0:0:0:
368,64,32727,6,0,B|324:36|280:64|280:64|236:92|192:64,1,187.000003566742,4|4,0:0|0:0,0:0:0:0:
68,204,34090,2,0,B|112:176|156:204|156:204|200:232|244:204,1,187.000003566742,4|4,0:0|0:0,0:0:0:0:
432,196,35454,2,0,B|401:145|427:88|427:88|413:56|413:56|420:16,1,187.000003566742,4|4,0:0|0:0,0:0:0:0:
256,112,36818,2,0,B|263:152|263:152|249:184|249:184|275:241|244:291,1,187.000003566742,4|4,0:0|0:0,0:0:0:0:
71,175,38181,6,0,P|60:125|71:74,1,104.499997209549,12|8,0:0|0:0,0:0:0:0:
176,76,38863,2,0,P|187:126|177:177,1,104.499997209549,8|8,0:0|0:0,0:0:0:0:
124,268,39545,1,8,0:0:0:0:
228,277,39886,1,8,0:0:0:0:
328,252,40227,1,8,0:0:0:0:
420,300,40568,1,8,0:0:0:0:
324,344,40909,6,0,B|312:218|312:218|384:162|384:162|252:142|268:14,1,417.999988838196,0|0,0:0|0:0,0:0:0:0:
64,72,42954,1,10,0:0:0:0:
148,136,43295,1,10,0:0:0:0:
48,180,43636,6,0,P|72:280|176:308,1,220,4|0,0:0|0:0,0:0:0:0:
272,256,44659,1,8,0:0:0:0:
364,316,45000,2,0,L|476:332,2,110,0|8|0,0:0|0:0|0:0,0:0:0:0:
272,256,46022,1,8,0:0:0:0:
272,256,46363,6,0,B|240:204|272:152|272:152|303:98|279:45,1,220,0|0,0:0|0:0,0:0:0:0:
177,92,47386,1,8,0:0:0:0:
128,192,47727,2,0,L|148:300,1,110,0|8,0:0|0:0,0:0:0:0:
248,344,48409,2,0,P|304:336|360:344,1,110,0|8,0:0|0:0,0:0:0:0:
456,292,49090,6,0,B|472:192|472:192|459:160|428:144,2,165,4|0|8,0:0|0:0|0:0,0:0:0:0:
352,260,50454,2,0,P|312:220|304:168,1,110,2|8,0:0|0:0,0:0:0:0:
336,64,51136,1,0,0:0:0:0:
228,92,51477,1,8,0:0:0:0:
120,72,51818,6,0,P|80:140|96:224,2,165,0|0|8,0:0|0:0|0:0,0:0:0:0:
228,92,53181,1,0,0:0:0:0:
336,64,53522,1,8,0:0:0:0:
440,100,53863,2,0,L|460:152,2,55,0|0|8,0:0|0:0|0:0,0:0:0:0:
372,188,54545,6,0,B|408:252|476:248|476:248|460:344,1,220,4|0,0:0|0:0,0:0:0:0:
356,308,55568,1,8,0:0:0:0:
248,332,55909,2,0,P|192:320|140:332,1,110,0|8,0:0|0:0,0:0:0:0:
52,268,56590,2,0,L|76:156,1,110,0|8,0:0|0:0,0:0:0:0:
172,108,57272,6,0,B|248:144|248:144|320:108,2,165,0|0|8,0:0|0:0|0:0,0:0:0:0:
156,216,58636,2,0,B|200:236|200:236|196:300,1,110,0|8,0:0|0:0,0:0:0:0:
308,296,59318,2,0,B|304:234|304:234|348:214,1,110,0|8,0:0|0:0,0:0:0:0:
443,160,60000,6,0,P|443:59|343:48,1,220,4|0,0:0|0:0,0:0:0:0:
252,112,61022,1,8,0:0:0:0:
164,48,61363,1,2,0:0:0:0:
64,92,61704,1,8,0:0:0:0:
152,156,62045,2,0,L|122:262,1,110,0|8,0:0|0:0,0:0:0:0:
208,328,62727,6,0,P|284:300|360:332,2,165,0|0|8,0:0|0:0|0:0,0:0:0:0:
220,220,64090,2,0,B|276:208|276:208|324:220|324:220|372:208|372:208|412:220|412:220|404:196|404:196|412:176|412:176|404:152|404:152|420:124|420:124|404:96|404:96|428:72|428:72|384:80|352:64,1,440,0|4,0:0|0:0,0:0:0:0:
268,24,65795,5,8,0:0:0:0:
172,48,66136,2,0,P|148:96|156:144,1,98.9999969787599,0|8,0:0|0:0,0:0:0:0:
172,184,66647,2,0,B|176:227|143:251|143:251|144:292|182:314,1,148.49999546814,0|8,0:0|0:0,0:0:0:0:
276,312,67500,2,0,P|324:304|372:316,1,98.9999969787599,0|8,0:0|0:0,0:0:0:0:
460,364,68181,6,0,P|388:276|404:200,1,197.99999395752,0|0,0:0|0:0,0:0:0:0:
448,112,69204,1,8,0:0:0:0:
348,116,69545,2,0,L|244:128,1,98.9999969787599,0|8,0:0|0:0,0:0:0:0:
152,132,70227,2,0,L|140:180,2,49.4999984893799,0|0|8,0:0|0:0|0:0,0:0:0:0:
56,112,70909,6,0,B|20:256|20:256|48:296,1,197.99999395752,0|0,0:0|0:0,0:0:0:0:
140,336,71931,1,8,0:0:0:0:
140,336,72272,2,0,P|216:288|324:300,1,197.99999395752,0|0,0:0|0:0,0:0:0:0:
408,340,73295,1,8,0:0:0:0:
396,240,73636,6,0,L|384:136,1,98.9999969787599,0|8,0:0|0:0,0:0:0:0:
320,64,74318,2,0,P|272:56|220:64,1,98.9999969787599,0|8,0:0|0:0,0:0:0:0:
124,84,75000,1,0,0:0:0:0:
192,156,75340,1,8,0:0:0:0:
96,184,75681,2,0,P|64:268|144:328,1,197.99999395752,0|4,0:0|0:0,0:0:0:0:
236,308,76704,5,8,0:0:0:0:
328,340,77045,2,0,P|376:348|424:336,1,98.9999969787599,0|8,0:0|0:0,0:0:0:0:
464,308,77556,2,0,P|436:240|460:168,1,148.49999546814,0|8,0:0|0:0,0:0:0:0:
504,84,78409,1,0,0:0:0:0:
404,88,78750,1,8,0:0:0:0:
324,144,79090,6,0,B|256:144|256:144|204:96|204:96|144:96,1,197.99999395752,0|0,0:0|0:0,0:0:0:0:
68,160,80113,1,8,0:0:0:0:
136,232,80454,2,0,P|184:256|232:256,1,98.9999969787599,0|8,0:0|0:0,0:0:0:0:
328,240,81136,2,0,P|377:241|420:264,1,98.9999969787599,0|8,0:0|0:0,0:0:0:0:
348,336,81818,6,0,P|328:240|376:156,1,197.99999395752,0|0,0:0|0:0,0:0:0:0:
448,92,82840,1,8,0:0:0:0:
360,48,83181,2,0,P|308:36|256:52,1,98.9999969787599
180,100,83863,2,0,L|188:152,2,49.4999984893799,0|0|8,0:0|0:0|0:0,0:0:0:0:
92,56,84545,6,0,P|76:104|84:156,1,98.9999969787599,0|8,0:0|0:0,0:0:0:0:
108,248,85227,2,0,P|113:296|98:343,1,98.9999969787599,0|8,0:0|0:0,0:0:0:0:
16,284,85909,1,8,0:0:0:0:
108,248,86250,1,8,0:0:0:0:
208,256,86590,2,0,L|220:208,1,49.4999984893799,8|0,0:0|0:0,0:0:0:0:
220,160,86931,2,0,L|208:112,2,49.4999984893799,8|0|4,0:0|0:0|0:0,0:0:0:0:
84,136,98181,6,0,B|128:152|180:136|180:136|164:168|172:216,1,176,4|0,0:0|0:0,0:0:0:0:
340,260,99545,2,0,B|296:244|244:260|244:260|260:228|252:180,1,176
328,28,100909,2,0,B|360:56|360:56|336:88|336:88|356:136|328:176,1,176,4|0,0:0|0:0,0:0:0:0:
416,328,102272,2,0,B|384:300|384:300|408:268|408:268|388:220|416:180,1,176,4|0,0:0|0:0,0:0:0:0:
268,316,103636,6,0,P|216:308|172:320,1,98.9999969787599,12|8,0:0|0:0,0:0:0:0:
88,268,104318,2,0,L|112:168,1,98.9999969787599,8|8,0:0|0:0,0:0:0:0:
156,84,105000,1,8,0:0:0:0:
204,172,105340,1,8,0:0:0:0:
252,84,105681,1,8,0:0:0:0:
300,172,106022,1,8,0:0:0:0:
348,84,106363,6,0,P|392:52|440:48,1,98.9999969787599,0|8,0:0|0:0,0:0:0:0:
484,132,107045,2,0,P|440:164|392:168,1,98.9999969787599,0|8,0:0|0:0,0:0:0:0:
300,172,107727,2,0,P|248:160|196:168,1,98.9999969787599,0|8,0:0|0:0,0:0:0:0:
144,244,108409,1,0,0:0:0:0:
236,284,108750,1,8,0:0:0:0:
332,264,109090,6,0,P|407:206|360:108,1,220,4|0,0:0|0:0,0:0:0:0:
256,76,110113,1,8,0:0:0:0:
160,132,110454,2,0,L|120:236,1,110,0|8,0:0|0:0,0:0:0:0:
196,312,111136,2,0,L|306:294,1,110,0|8,0:0|0:0,0:0:0:0:
404,344,111818,6,0,B|457:254|348:220|407:135,1,220
468,44,112840,1,8,0:0:0:0:
360,56,113181,2,0,P|308:56|252:36,1,110,0|8,0:0|0:0,0:0:0:0:
144,40,113863,2,0,L|85:44,2,55,0|0|8,0:0|0:0|0:0,0:0:0:0:
204,124,114545,6,0,P|208:180|184:228,1,110,4|8,0:0|0:0,0:0:0:0:
140,260,115056,2,0,B|88:288|100:356|100:356|152:352,1,165,0|8,0:0|0:0,0:0:0:0:
240,284,115909,2,0,P|292:268|344:288,1,110,0|8,0:0|0:0,0:0:0:0:
444,332,116590,2,0,L|484:372,2,55,0|0|8,0:0|0:0|0:0,0:0:0:0:
400,232,117272,6,0,B|436:124|436:124|412:76,2,165,0|0|8,0:0|0:0|0:0,0:0:0:0:
304,176,118636,2,0,L|324:120,2,55,0|0|8,0:0|0:0|0:0,0:0:0:0:
192,180,119318,2,0,P|136:164|84:172,1,110,0|8,0:0|0:0,0:0:0:0:
104,284,120000,6,0,B|212:308|212:308|256:284|256:284|320:296,1,220,4|0,0:0|0:0,0:0:0:0:
424,316,121022,1,8,0:0:0:0:
384,212,121363,2,0,P|368:160|376:104,1,110,0|8,0:0|0:0,0:0:0:0:
288,36,122045,2,0,L|176:56,1,110,0|8,0:0|0:0,0:0:0:0:
76,92,122727,6,0,P|44:200|116:264,1,220,0|0,0:0|0:0,0:0:0:0:
224,288,123750,1,8,0:0:0:0:
332,292,124090,2,0,B|440:308|440:308|476:264,2,165,0|0|8,0:0|0:0|0:0,0:0:0:0:
368,188,125454,6,0,B|368:128|416:88,1,110,4|8,0:0|0:0,0:0:0:0:
440,44,125965,2,0,P|384:56|332:52,1,110
276,44,126477,1,8,0:0:0:0:
168,60,126818,2,0,P|116:76|80:116,1,110,0|8,0:0|0:0,0:0:0:0:
144,204,127500,2,0,P|196:188|232:148,1,110,0|8,0:0|0:0,0:0:0:0:
276,44,128181,6,0,B|332:88|396:52|396:52|404:92,2,165,0|0|8,0:0|0:0|0:0,0:0:0:0:
232,148,129545,2,0,P|200:136|176:136,2,55,0|0|8,0:0|0:0|0:0,0:0:0:0:
324,208,130227,2,0,P|376:216|436:200,1,110,0|8,0:0|0:0,0:0:0:0:
424,312,130909,5,4,0:0:0:0:
316,308,131250,2,0,L|260:336,1,55,8|0,0:0|0:0,0:0:0:0:
164,292,131761,2,0,L|213:267,1,55,0|8,0:0|0:0,0:0:0:0:
304,204,132272,2,0,P|320:152|316:96,1,110,0|8,0:0|0:0,0:0:0:0:
224,36,132954,2,0,L|172:12,2,55,0|0|8,0:0|0:0|0:0,0:0:0:0:
212,144,133636,6,0,P|164:172|136:220,1,110,0|8,0:0|0:0,0:0:0:0:
160,324,134318,2,0,L|276:336,1,110,0|8,0:0|0:0,0:0:0:0:
376,308,135000,2,0,B|356:264|376:224|376:224|392:188|372:152|372:152|352:176|320:184,1,220
216,176,136022,1,8,0:0:0:0:
256,192,136363,12,0,138409,0:0:0:0:
340,128,139090,6,0,L|452:140,2,110,0|8|0,0:0|0:0|0:0,0:0:0:0:
248,188,140113,1,8,0:0:0:0:
196,284,140454,2,0,P|148:316|96:320,2,110,0|8|0,0:0|0:0|0:0,0:0:0:0:
148,184,141477,2,0,L|120:136,2,55,8|0|4,0:0|0:0|0:0,0:0:0:0:
234,337,142500,5,4,0:0:0:0:
326,188,143181,1,4,0:0:0:0:
148,184,143863,1,4,0:0:0:0:
304,100,144545,6,0,B|348:84|392:100|392:100|436:116|480:100,1,176,4|4,0:0|0:0,0:0:0:0:
328,200,145909,2,0,B|284:184|240:200|240:200|196:216|152:200,1,176,4|4,0:0|0:0,0:0:0:0:
328,296,147272,6,0,P|376:284|411:245,2,98.9999969787599,4|8|0,0:0|0:0|0:0,0:0:0:0:
228,288,148295,1,12,0:0:0:0:
128,276,148636,2,0,P|80:288|45:327,2,98.9999969787599,0|8|0,0:0|0:0|0:0,0:0:0:0:
228,288,149659,1,8,0:0:0:0:
328,296,150000,6,0,L|416:248,1,98.9999969787599,4|8,0:0|0:0,0:0:0:0:
328,200,150681,2,0,L|380:114,1,98.9999969787599,0|12,0:0|0:0,0:0:0:0:
308,44,151363,1,0,0:0:0:0:
212,60,151704,1,8,0:0:0:0:
144,132,152045,2,0,P|68:136|116:60,1,197.99999395752,0|4,0:0|0:0,0:0:0:0:
