osu file format v14

[General]
AudioFilename: Paranoid Lost (cut).mp3
AudioLeadIn: 2000
PreviewTime: 109005
Countdown: 0
SampleSet: Soft
StackLeniency: 0.4
Mode: 0
LetterboxInBreaks: 0
WidescreenStoryboard: 0

[Editor]
DistanceSpacing: 1
BeatDivisor: 4
GridSize: 4
TimelineZoom: 1

[Metadata]
Title:Paranoid Lost
TitleUnicode:Paranoid Lost
Artist:Halozy
ArtistUnicode:Halozy
Creator:orza6006
Version:Lunatic
Source:東方Project
Tags:touhou because princess inada is scolding me 10 mountain of faith minoriko aki misato 東方風神録 ~ tonic triangle sumijun shizuha drum and bass dnb cut version lokovodo kiicha apl
BeatmapID:547529
BeatmapSetID:236368

[Difficulty]
HPDrainRate:6.5
CircleSize:4
OverallDifficulty:8
ApproachRate:9
SliderMultiplier:2
SliderTickRate:2

[Events]
//Background and Video events
0,0,"thanks_ringating.jpg",0,0
//Break Periods
//Storyboard Layer 0 (Background)
//Storyboard Layer 1 (Fail)
//Storyboard Layer 2 (Pass)
//Storyboard Layer 3 (Foreground)
//Storyboard Sound Samples

[TimingPoints]
0,340.909090909091,4,2,1,30,1,0
0,-133.333333333333,4,2,1,30,0,0
21818,-111.111111111111,4,2,1,45,0,0
27272,-121.212121212121,4,2,1,40,0,0
30000,-133.333333333333,4,2,1,35,0,0
35454,-117.647058823529,4,2,1,45,0,0
38181,-105.263157894737,4,2,1,55,0,0
43551,-105.263157894737,4,2,1,10,0,0
43636,-100,4,2,1,80,0,0
65454,-111.111111111111,4,2,1,60,0,0
85909,-111.111111111111,4,2,1,50,0,0
86250,-111.111111111111,4,2,1,45,0,0
86590,-111.111111111111,4,2,1,40,0,0
86931,-111.111111111111,4,2,1,35,0,0
87272,-200,4,2,1,30,0,0
96647,-166.666666666667,4,2,1,40,0,0
98181,-142.857142857143,4,2,1,70,0,0
100909,-125,4,2,1,70,0,0
103636,-111.111111111111,4,2,1,70,0,0
109090,-100,4,2,1,85,0,1
130823,-100,4,2,1,85,0,0
130909,-100,4,2,1,70,0,1
141818,-125,4,2,1,70,0,0
152045,-125,4,1,0,60,0,0

[Colours]
Combo1 : 118,57,12
Combo2 : 255,0,0
Combo3 : 252,78,3
Combo4 : 254,151,12
Combo5 : 255,192,0
Combo6 : 185,121,2

[HitObjects]
232,236,0,5,4,0:0:0:0:
207,134,170,1,2,0:0:0:0:
131,206,340,1,0,0:0:0:0:
308,164,511,2,0,L|382:156,1,75.0000028610231,2|0,0:0|0:0,0:0:0:0:
244,80,852,2,0,L|168:88,1,75.0000028610231,2|0,0:0|0:0,0:0:0:0:
88,152,1193,6,0,P|116:220|96:292,1,150.000005722046,2|0,0:0|0:0,0:0:0:0:
200,284,1704,2,0,P|240:292|268:312,1,75.0000028610231,2|0,0:0|0:0,0:0:0:0:
400,252,2045,2,0,L|320:240,1,75.0000028610231,2|0,0:0|0:0,0:0:0:0:
248,192,2386,1,2,0:0:0:0:
352,56,2727,5,0,0:0:0:0:
328,172,2897,1,2,0:0:0:0:
240,92,3068,1,0,0:0:0:0:
352,56,3238,2,0,L|428:64,1,75.0000028610231,2|0,0:0|0:0,0:0:0:0:
240,92,3579,2,0,L|164:84,1,75.0000028610231,2|0,0:0|0:0,0:0:0:0:
328,172,3920,6,0,P|396:192|424:260,1,150.000005722046,2|0,0:0|0:0,0:0:0:0:
264,228,4431,2,0,P|224:224|192:208,1,75.0000028610231,2|0,0:0|0:0,0:0:0:0:
304,300,4772,2,0,P|280:332|250:352,1,75.0000028610231,2|0,0:0|0:0,0:0:0:0:
296,152,5113,2,0,P|279:115|277:79,1,75.0000028610231,2|0,0:0|0:0,0:0:0:0:
352,36,5454,5,4,0:0:0:0:
296,152,5625,1,2,0:0:0:0:
216,24,5795,1,0,0:0:0:0:
164,92,5965,2,0,L|88:76,1,75.0000028610231,2|0,0:0|0:0,0:0:0:0:
352,36,6306,2,0,L|425:51,1,75.0000028610231,2|0,0:0|0:0,0:0:0:0:
296,152,6647,6,0,B|288:216|248:232|248:232|204:200,1,150.000005722046,2|0,0:0|0:0,0:0:0:0:
280,76,7159,1,2,0:0:0:0:
404,152,7329,1,0,0:0:0:0:
344,264,7500,2,0,L|360:340,1,75.0000028610231,2|0,0:0|0:0,0:0:0:0:
404,152,7840,2,0,L|388:76,1,75.0000028610231,2|0,0:0|0:0,0:0:0:0:
320,188,8181,5,0,0:0:0:0:
420,232,8352,1,2,0:0:0:0:
452,40,8522,1,0,0:0:0:0:
336,96,8693,2,0,P|296:104|260:104,1,75.0000028610231,2|0,0:0|0:0,0:0:0:0:
104,80,9034,2,0,P|144:72|180:72,1,75.0000028610231,2|0,0:0|0:0,0:0:0:0:
248,24,9375,6,0,L|196:164,1,150.000005722046,2|0,0:0|0:0,0:0:0:0:
112,216,9886,1,2,0:0:0:0:
216,260,10056,1,0,0:0:0:0:
112,216,10227,2,0,L|40:240,1,75.0000028610231,2|0,0:0|0:0,0:0:0:0:
216,260,10568,2,0,L|248:328,1,75.0000028610231,2|0,0:0|0:0,0:0:0:0:
300,244,10909,5,4,0:0:0:0:
344,167,11079,1,2,0:0:0:0:
380,239,11250,1,0,0:0:0:0:
263,171,11420,2,0,P|248:132|248:96,1,75.0000028610231,2|0,0:0|0:0,0:0:0:0:
220,240,11761,2,0,P|178:233|147:215,1,75.0000028610231,2|0,0:0|0:0,0:0:0:0:
260,312,12102,6,0,B|148:336|148:336|112:320,1,150.000005722046,2|0,0:0|0:0,0:0:0:0:
24,152,12613,2,0,B|60:140|60:140|96:152,1,75.0000028610231,2|0,0:0|0:0,0:0:0:0:
152,232,12954,2,0,B|116:244|116:244|80:232,1,75.0000028610231,2|0,0:0|0:0,0:0:0:0:
112,72,13295,2,0,B|148:60|148:60|184:72,1,75.0000028610231,2|0,0:0|0:0,0:0:0:0:
244,136,13636,5,0,0:0:0:0:
265,54,13806,1,2,0:0:0:0:
320,164,13977,1,0,0:0:0:0:
355,32,14147,2,0,L|424:72,1,75.0000028610231,2|0,0:0|0:0,0:0:0:0:
456,224,14488,2,0,L|464:148,1,75.0000028610231,2|0,0:0|0:0,0:0:0:0:
320,164,14829,6,0,B|300:200|320:236|320:236|340:272|320:308,1,150.000005722046,2|0,0:0|0:0,0:0:0:0:
236,240,15340,2,0,P|228:200|236:160,1,75.0000028610231,2|0,0:0|0:0,0:0:0:0:
408,240,15681,2,0,P|416:280|408:320,1,75.0000028610231,2|0,0:0|0:0,0:0:0:0:
232,324,16022,1,2,0:0:0:0:
72,192,16363,5,4,0:0:0:0:
116,268,16534,1,2,0:0:0:0:
160,192,16704,1,0,0:0:0:0:
108,48,16875,2,0,L|132:120,1,75.0000028610231,2|0,0:0|0:0,0:0:0:0:
312,184,17215,2,0,L|236:188,1,75.0000028610231,2|0,0:0|0:0,0:0:0:0:
208,96,17556,6,0,P|272:72|348:96,1,150.000005722046,2|0,0:0|0:0,0:0:0:0:
440,192,18068,2,0,P|432:152|440:116,1,75.0000028610231,2|0,0:0|0:0,0:0:0:0:
468,272,18409,2,0,P|476:312|468:348,1,75.0000028610231,2|0,0:0|0:0,0:0:0:0:
384,260,18750,1,2,0:0:0:0:
228,184,19090,5,0,0:0:0:0:
184,260,19261,1,2,0:0:0:0:
228,336,19431,1,0,0:0:0:0:
96,260,19602,2,0,P|76:224|76:188,1,75.0000028610231,2|0,0:0|0:0,0:0:0:0:
96,48,19943,2,0,P|116:84|116:120,1,75.0000028610231,2|0,0:0|0:0,0:0:0:0:
228,184,20284,6,0,B|304:180|304:180|332:148|332:148|300:160,1,150.000005722046,2|0,0:0|0:0,0:0:0:0:
272,268,20795,2,0,P|316:272|348:260,1,75.0000028610231,2|0,0:0|0:0,0:0:0:0:
364,72,21136,2,0,P|320:68|288:80,1,75.0000028610231,2|0,0:0|0:0,0:0:0:0:
375,167,21477,2,0,P|417:204|472:212,1,112.500004291535,2|0,0:0|0:0,0:0:0:0:
472,212,21818,6,0,L|412:284,1,89.9999972534181,12|0,0:0|0:0,0:0:0:0:
356,360,22159,1,0,0:0:0:0:
252,104,22329,2,0,L|283:192,1,89.9999972534181,8|0,0:0|0:0,0:0:0:0:
321,278,22670,1,0,0:0:0:0:
176,276,22840,6,0,P|144:240|136:200,1,89.9999972534181,8|0,0:0|0:0,0:0:0:0:
164,116,23181,1,0,0:0:0:0:
296,32,23352,2,0,P|328:68|336:108,1,89.9999972534181,8|0,0:0|0:0,0:0:0:0:
308,192,23693,1,0,0:0:0:0:
164,116,23863,2,0,L|75:92,1,89.9999972534181,2|0,0:0|0:0,0:0:0:0:
308,192,24204,2,0,L|439:227,1,134.999995880127,2|0,0:0|0:0,0:0:0:0:
439,227,24545,6,0,P|457:185|453:137,1,89.9999972534181,8|0,0:0|0:0,0:0:0:0:
432,44,24886,1,0,0:0:0:0:
348,168,25056,2,0,P|330:210|334:258,1,89.9999972534181,8|0,0:0|0:0,0:0:0:0:
354,350,25397,1,0,0:0:0:0:
439,227,25568,6,0,L|455:315,1,89.9999972534181,8|0,0:0|0:0,0:0:0:0:
348,168,25909,1,0,0:0:0:0:
248,196,26079,2,0,L|264:108,1,89.9999972534181,8|0,0:0|0:0,0:0:0:0:
158,138,26420,1,0,0:0:0:0:
248,196,26590,2,0,P|264:244|260:284,1,89.9999972534181,2|0,0:0|0:0,0:0:0:0:
158,138,26931,2,0,P|144:68|156:4,1,134.999995880127,2|0,0:0|0:0,0:0:0:0:
176,24,27272,6,0,P|216:40|256:44,1,82.5000007867813,8|0,0:0|0:0,0:0:0:0:
344,36,27613,1,0,0:0:0:0:
249,175,27784,2,0,P|282:148|306:115,1,82.5000007867813,8|0,0:0|0:0,0:0:0:0:
344,36,28125,1,0,0:0:0:0:
418,188,28295,6,0,P|411:145|395:108,1,82.5000007867813,8|0,0:0|0:0,0:0:0:0:
344,36,28636,1,0,0:0:0:0:
512,47,28806,2,0,P|472:31|432:27,1,82.5000007867813,8|0,0:0|0:0,0:0:0:0:
344,36,29147,1,0,0:0:0:0:
344,128,29318,2,0,P|344:168|364:216,1,82.5000007867813,2|0,0:0|0:0,0:0:0:0:
400,284,29659,2,0,L|276:292,1,123.750001180172,2|0,0:0|0:0,0:0:0:0:
240,296,30000,6,0,B|216:264|216:264|180:256,1,75.0000028610231,8|0,0:0|0:0,0:0:0:0:
100,248,30340,1,0,0:0:0:0:
260,80,30511,2,0,B|220:84|220:84|195:111,1,75.0000028610231,8|0,0:0|0:0,0:0:0:0:
148,177,30851,1,0,0:0:0:0:
236,208,31022,6,0,P|280:204|312:192,2,75.0000028610231,8|0|0,0:0|0:0|0:0,0:0:0:0:
260,128,31534,2,0,P|296:102|317:76,2,75.0000028610231,8|0|0,0:0|0:0|0:0,0:0:0:0:
186,91,32045,2,0,P|190:47|202:14,1,75.0000028610231,2|0,0:0|0:0,0:0:0:0:
128,152,32386,2,0,P|109:111|103:78,1,75.0000028610231,2|0,0:0|0:0,0:0:0:0:
104,240,32727,6,0,B|163:275|163:275|132:300|136:352,1,150.000005722046,4|0,0:0|0:0,0:0:0:0:
216,336,33238,1,0,0:0:0:0:
296,348,33409,2,0,B|299:299|268:274|268:274|327:239,1,150.000005722046,4|0,0:0|0:0,0:0:0:0:
432,52,34090,6,0,B|320:68|320:68|316:104,1,150.000005722046,4|0,0:0|0:0,0:0:0:0:
280,212,34602,1,0,0:0:0:0:
240,104,34772,2,0,B|237:69|237:69|120:52,1,150.000005722046,4|0,0:0|0:0,0:0:0:0:
104,188,35454,6,0,B|160:220|168:288|168:288|136:276|140:248,1,170.000003242493,4|0,0:0|0:0,0:0:0:0:
216,200,35965,1,0,0:0:0:0:
296,256,36136,2,0,B|299:276|267:288|267:288|275:220|331:188,1,170.000003242493,4|0,0:0|0:0,0:0:0:0:
424,68,36818,6,0,P|340:56|260:84,1,170.000003242493,4|0,0:0|0:0,0:0:0:0:
176,132,37329,1,0,0:0:0:0:
88,88,37500,2,0,L|52:256,1,170.000003242493,4|0,0:0|0:0,0:0:0:0:
272,312,38181,6,0,L|364:288,1,94.9999974632264,12|0,0:0|0:0,0:0:0:0:
372,128,38522,2,0,L|280:152,1,94.9999974632264,8|0,0:0|0:0,0:0:0:0:
276,232,38863,2,0,L|368:208,1,94.9999974632264,8|0,0:0|0:0,0:0:0:0:
376,48,39204,2,0,L|284:72,1,94.9999974632264,8|0,0:0|0:0,0:0:0:0:
168,104,39545,5,8,0:0:0:0:
192,280,39715,1,0,0:0:0:0:
64,168,39886,1,8,0:0:0:0:
232,176,40056,1,0,0:0:0:0:
100,252,40227,1,8,0:0:0:0:
248,96,40397,1,0,0:0:0:0:
316,216,40568,1,8,0:0:0:0:
464,200,40738,1,0,0:0:0:0:
409,351,40909,5,0,0:0:0:0:
385,315,40994,1,0,0:0:0:0:
350,294,41080,1,0,0:0:0:0:
308,295,41165,1,0,0:0:0:0:
270,314,41251,5,0,0:0:0:0:
280,273,41336,1,0,0:0:0:0:
278,233,41421,1,0,0:0:0:0:
260,196,41505,1,0,0:0:0:0:
231,167,41590,5,0,0:0:0:0:
203,137,41676,1,0,0:0:0:0:
185,100,41762,1,0,0:0:0:0:
182,60,41847,1,0,0:0:0:0:
193,20,41932,5,0,0:0:0:0:
154,35,42018,1,0,0:0:0:0:
116,51,42103,1,0,0:0:0:0:
79,67,42188,1,0,0:0:0:0:
42,83,42273,5,4,0:0:0:0:
96,148,42443,1,0,0:0:0:0:
192,172,42613,1,0,0:0:0:0:
304,124,42784,1,0,0:0:0:0:
444,96,42954,2,0,P|456:148|440:196,1,94.9999974632264,10|0,0:0|0:0,0:0:0:0:
367,307,43295,2,0,B|327:259|327:211|327:211|347:219|353:236,1,142.49999619484,10|0,0:0|0:0,0:0:0:0:
353,236,43636,6,0,L|252:252,1,100,4|0,0:0|0:0,0:0:0:0:
192,172,43977,1,8,0:0:0:0:
120,264,44147,2,0,P|76:168|96:80,1,200,0|0,0:0|0:0,0:0:0:0:
236,20,44659,2,0,L|208:116,1,100,8|0,0:0|0:0,0:0:0:0:
200,144,44914,1,0,0:0:0:0:
192,172,45000,5,0,0:0:0:0:
296,192,45170,1,0,0:0:0:0:
192,172,45340,1,8,0:0:0:0:
296,288,45511,1,0,0:0:0:0:
436,208,45681,2,0,L|416:108,1,100,0|0,0:0|0:0,0:0:0:0:
368,264,46022,2,0,L|388:364,1,100,8|0,0:0|0:0,0:0:0:0:
340,128,46363,6,0,P|320:80|280:52,1,100,0|0,0:0|0:0,0:0:0:0:
184,48,46704,1,8,0:0:0:0:
68,136,46875,2,0,B|24:244|96:336,1,200,0|0,0:0|0:0,0:0:0:0:
172,277,47386,2,0,L|196:180,1,100,8|0,0:0|0:0,0:0:0:0:
208,192,47642,1,0,0:0:0:0:
220,204,47727,5,0,0:0:0:0:
252,324,47897,1,0,0:0:0:0:
320,228,48068,1,8,0:0:0:0:
352,348,48238,1,0,0:0:0:0:
220,204,48409,2,0,L|200:104,1,100,0|0,0:0|0:0,0:0:0:0:
244,40,48750,1,8,0:0:0:0:
272,68,48835,1,0,0:0:0:0:
312,76,48920,1,0,0:0:0:0:
352,68,49005,1,0,0:0:0:0:
380,40,49090,6,0,P|428:28|480:48,1,100,4|0,0:0|0:0,0:0:0:0:
344,152,49431,1,8,0:0:0:0:
344,152,49602,2,0,P|240:160|176:92,1,200,0|0,0:0|0:0,0:0:0:0:
148,8,50113,1,8,0:0:0:0:
64,112,50284,1,0,0:0:0:0:
64,112,50369,1,0,0:0:0:0:
64,112,50454,6,0,L|104:208,1,100,0|0,0:0|0:0,0:0:0:0:
272,260,50795,2,0,L|232:164,1,100,8|0,0:0|0:0,0:0:0:0:
168,276,51136,1,0,0:0:0:0:
300,360,51306,1,0,0:0:0:0:
368,240,51477,2,0,B|376:184|400:144|400:144|400:192,1,150,8|0,0:0|0:0,0:0:0:0:
400,192,51818,6,0,P|344:176|308:152,1,100,0|0,0:0|0:0,0:0:0:0:
240,76,52159,1,8,0:0:0:0:
228,196,52329,2,0,L|276:288,1,100,0|0,0:0|0:0,0:0:0:0:
148,104,52670,1,0,0:0:0:0:
148,104,52755,1,0,0:0:0:0:
148,104,52840,2,0,L|100:196,1,100,8|0,0:0|0:0,0:0:0:0:
240,76,53181,5,0,0:0:0:0:
228,196,53352,1,0,0:0:0:0:
228,196,53437,1,0,0:0:0:0:
228,196,53522,2,0,L|276:288,1,100,8|0,0:0|0:0,0:0:0:0:
400,292,53863,2,0,L|352:200,1,100,0|0,0:0|0:0,0:0:0:0:
344,34,54204,2,0,P|351:57|349:82,1,50,8|0,0:0|0:0,0:0:0:0:
304,140,54375,2,0,P|280:147|256:144,1,50,2|0,0:0|0:0,0:0:0:0:
276,72,54545,6,0,P|224:68|176:80,1,100,4|0,0:0|0:0,0:0:0:0:
108,256,54886,1,8,0:0:0:0:
108,256,55056,2,0,P|44:184|72:88,1,200
164,40,55568,2,0,L|184:144,1,100,8|0,0:0|0:0,0:0:0:0:
296,180,55909,5,0,0:0:0:0:
412,120,56079,1,0,0:0:0:0:
412,120,56164,1,0,0:0:0:0:
412,120,56250,1,8,0:0:0:0:
268,104,56420,1,0,0:0:0:0:
440,196,56590,2,0,P|444:248|420:296,1,100,0|0,0:0|0:0,0:0:0:0:
268,104,56931,2,0,P|264:52|288:4,1,100,8|0,0:0|0:0,0:0:0:0:
296,180,57272,6,0,L|199:205,1,100,0|0,0:0|0:0,0:0:0:0:
216,48,57613,1,8,0:0:0:0:
328,252,57784,2,0,B|181:291|181:291|143:259,1,200,0|0,0:0|0:0,0:0:0:0:
88,92,58295,2,0,P|112:144|108:192,1,100,8|0,0:0|0:0,0:0:0:0:
136,24,58636,5,0,0:0:0:0:
296,72,58806,1,0,0:0:0:0:
296,72,58892,1,0,0:0:0:0:
296,72,58977,1,8,0:0:0:0:
212,136,59147,1,0,0:0:0:0:
392,52,59318,2,0,L|380:152,1,100,0|0,0:0|0:0,0:0:0:0:
212,136,59659,2,0,L|200:236,1,100,8|0,0:0|0:0,0:0:0:0:
320,292,60000,6,0,P|364:268|420:268,1,100,4|0,0:0|0:0,0:0:0:0:
268,356,60340,1,8,0:0:0:0:
184,192,60511,2,0,B|224:288|224:288|176:328|194:375,1,200,0|0,0:0|0:0,0:0:0:0:
204,98,61022,2,0,P|181:142|184:192,1,100,8|0,0:0|0:0,0:0:0:0:
268,164,61363,5,2,0:0:0:0:
324,280,61534,2,0,L|224:308,1,100,0|8,0:0|0:0,0:0:0:0:
100,116,61875,1,0,0:0:0:0:
352,304,62045,2,0,L|252:332,1,100,0|0,0:0|0:0,0:0:0:0:
330,225,62386,2,0,P|400:239|432:304,1,150,8|0,0:0|0:0,0:0:0:0:
433,305,62727,6,0,L|475:214,1,100,0|0,0:0|0:0,0:0:0:0:
432,116,63068,1,8,0:0:0:0:
352,304,63238,2,0,L|252:292,1,100,0|0,0:0|0:0,0:0:0:0:
168,184,63579,1,0,0:0:0:0:
100,336,63750,2,0,L|200:348,1,100,8|0,0:0|0:0,0:0:0:0:
168,184,64090,5,0,0:0:0:0:
65,60,64261,1,0,0:0:0:0:
223,32,64431,1,8,0:0:0:0:
168,184,64602,1,0,0:0:0:0:
296,144,64772,2,0,L|240:152,1,50,2|0,0:0|0:0,0:0:0:0:
318,63,64943,2,0,L|368:56,1,50,2|0,0:0|0:0,0:0:0:0:
344,216,65113,2,0,L|288:224,1,50,10|0,0:0|0:0,0:0:0:0:
374,135,65284,2,0,L|424:128,1,50,2|0,0:0|0:0,0:0:0:0:
432,216,65454,6,0,P|432:304|368:364,1,179.999994506836,4|8,0:0|0:0,0:0:0:0:
304,304,65965,1,0,0:0:0:0:
96,216,66136,2,0,L|184:239,1,89.9999972534181,0|0,0:0|0:0,0:0:0:0:
52,104,66477,1,8,0:0:0:0:
108,252,66647,6,0,L|281:298,1,179.999994506836,0|0,0:0|0:0,0:0:0:0:
384,228,67159,1,8,0:0:0:0:
328,72,67329,1,0,0:0:0:0:
288,172,67500,2,0,L|200:196,1,89.9999972534181,0|0,0:0|0:0,0:0:0:0:
452,124,67840,2,0,L|364:148,1,89.9999972534181,8|0,0:0|0:0,0:0:0:0:
244,93,68181,6,0,P|152:77|92:141,1,179.999994506836,0|8,0:0|0:0,0:0:0:0:
107,256,68693,1,0,0:0:0:0:
107,256,68863,2,0,P|151:267|196:268,1,89.9999972534181
348,276,69204,1,8,0:0:0:0:
348,276,69375,6,0,P|274:231|196:268,1,179.999994506836
184,168,69886,2,0,L|168:76,1,89.9999972534181,8|0,0:0|0:0,0:0:0:0:
348,276,70227,2,0,L|364:184,1,89.9999972534181
269,326,70568,1,8,0:0:0:0:
440,320,70738,1,0,0:0:0:0:
440,320,70823,1,0,0:0:0:0:
440,320,70909,6,0,P|452:280|456:228,1,89.9999972534181
288,132,71250,1,8,0:0:0:0:
349,277,71420,2,0,L|380:98,1,179.999994506836
260,48,71931,2,0,P|216:60|168:60,1,89.9999972534181,8|0,0:0|0:0,0:0:0:0:
64,40,72272,5,0,0:0:0:0:
68,168,72443,1,0,0:0:0:0:
64,40,72613,1,8,0:0:0:0:
164,140,72784,2,0,P|204:152|252:156,2,89.9999972534181
160,280,73295,1,8,0:0:0:0:
256,320,73465,1,0,0:0:0:0:
256,320,73551,1,0,0:0:0:0:
256,320,73636,6,0,L|344:300,1,89.9999972534181
160,280,73977,2,0,L|72:300,1,89.9999972534181,8|0,0:0|0:0,0:0:0:0:
208,192,74318,1,0,0:0:0:0:
304,200,74488,1,0,0:0:0:0:
352,116,74659,1,8,0:0:0:0:
256,108,74829,1,0,0:0:0:0:
256,108,75000,6,0,B|260:154|293:187|293:187|326:220|332:271,1,179.999994506836,0|8,0:0|0:0,0:0:0:0:
240,320,75511,1,0,0:0:0:0:
72,212,75681,2,0,L|160:236,1,89.9999972534181
256,108,76022,1,8,0:0:0:0:
388,72,76193,2,0,L|407:60,1,22.4999993133545
388,104,76278,2,0,L|412:96,1,22.4999993133545,0|0,0:0|0:0,0:0:0:0:
392,132,76363,6,0,P|404:176|432:212,1,89.9999972534181,4|0,0:0|0:0,0:0:0:0:
444,352,76704,2,0,L|484:268,1,89.9999972534181,8|0,0:0|0:0,0:0:0:0:
336,340,77045,1,0,0:0:0:0:
216,192,77215,1,0,0:0:0:0:
328,248,77386,1,8,0:0:0:0:
188,300,77556,6,0,B|52:312|52:312|96:328,1,179.999994506836
40,132,78068,2,0,P|64:176|76:216,1,89.9999972534181,8|0,0:0|0:0,0:0:0:0:
156,72,78409,2,0,P|154:122|145:162,1,89.9999972534181
286,78,78750,2,0,P|259:120|231:151,1,89.9999972534181,8|0,0:0|0:0,0:0:0:0:
348,168,79090,6,0,P|440:164|496:224,1,179.999994506836,0|8,0:0|0:0,0:0:0:0:
328,256,79602,1,0,0:0:0:0:
328,256,79772,2,0,L|348:168,1,89.9999972534181,0|0,0:0|0:0,0:0:0:0:
272,340,80113,1,8,0:0:0:0:
272,340,80284,6,0,P|196:284|112:292,1,179.999994506836
68,208,80795,2,0,P|48:164|48:120,1,89.9999972534181,8|0,0:0|0:0,0:0:0:0:
136,144,81136,2,0,P|164:104|202:82,1,89.9999972534181
225,170,81477,2,0,P|273:174|311:196,1,89.9999972534181,8|0,0:0|0:0,0:0:0:0:
404,72,81818,6,0,L|388:164,1,89.9999972534181
376,244,82159,1,8,0:0:0:0:
320,104,82329,2,0,P|236:56|156:64,1,179.999994506836
124,176,82840,1,8,0:0:0:0:
64,84,83011,1,0,0:0:0:0:
64,84,83096,1,0,0:0:0:0:
64,84,83181,6,0,L|28:168,1,89.9999972534181
208,208,83522,1,8,0:0:0:0:
64,240,83693,2,0,L|28:324,1,89.9999972534181
124,176,84034,1,0,0:0:0:0:
124,176,84119,1,0,0:0:0:0:
124,176,84204,2,0,P|144:136|180:108,1,89.9999972534181,8|0,0:0|0:0,0:0:0:0:
316,68,84545,6,0,P|296:108|260:136,1,89.9999972534181
400,40,84886,1,8,0:0:0:0:
400,40,85056,2,0,L|424:128,1,89.9999972534181
288,208,85397,1,0,0:0:0:0:
448,208,85568,2,0,L|472:296,1,89.9999972534181,8|0,0:0|0:0,0:0:0:0:
376,236,85909,6,0,L|352:148,1,89.9999972534181,0|0,0:0|0:0,0:0:0:0:
312,280,86250,2,0,L|288:368,1,89.9999972534181,8|0,0:0|0:0,0:0:0:0:
240,252,86590,2,0,L|216:164,1,89.9999972534181,8|0,0:0|0:0,0:0:0:0:
168,264,86931,2,0,L|144:352,1,89.9999972534181,8|0,0:0|0:0,0:0:0:0:
96,252,87272,6,0,B|124:180|124:180|100:108|100:108|176:56|236:124|236:124|292:108|304:28|304:28|404:40|404:40|388:72|404:112,1,600,4|0,0:0|0:0,0:0:0:0:
440,236,89659,1,0,0:0:0:0:
440,236,89829,6,0,B|392:296|312:252|312:252|376:224|340:152|340:152|228:180|228:284|228:284,1,450
60,172,92045,1,0,0:0:0:0:
96,272,92386,1,0,0:0:0:0:
96,272,92727,6,0,B|184:232|156:124|156:124|256:112|256:112|280:56|280:56|312:80|312:80|364:52|416:80|416:80|436:60|472:64|472:64|440:112,1,600,4|0,0:0|0:0,0:0:0:0:
392,224,95113,1,0,0:0:0:0:
392,224,95284,6,0,B|304:168|224:228|224:228|248:260|296:248,1,250
176,296,96477,1,0,0:0:0:0:
176,296,96647,6,0,P|84:296|40:168,1,239.999992675781
76,104,97500,2,0,P|132:108|196:96,1,119.999996337891
312,64,98181,6,0,L|380:76,1,69.9999978637696,4|0,0:0|0:0,0:0:0:0:
411,243,98522,2,0,L|343:231,1,69.9999978637696,8|0,0:0|0:0,0:0:0:0:
328,148,98863,2,0,L|396:160,1,69.9999978637696,0|0,0:0|0:0,0:0:0:0:
248,120,99204,1,8,0:0:0:0:
248,120,99375,6,0,B|164:124|164:124|184:136|196:168,1,139.999995727539
220,248,99886,1,8,0:0:0:0:
120,300,100056,1,0,0:0:0:0:
220,248,100227,2,0,P|292:260|344:300,1,139.999995727539,0|8,0:0|0:0,0:0:0:0:
396,376,100738,1,0,0:0:0:0:
436,296,100909,6,0,P|448:252|444:216,1,80,4|0,0:0|0:0,0:0:0:0:
392,72,101250,2,0,P|380:116|384:152,1,80,8|0,0:0|0:0,0:0:0:0:
308,32,101590,2,0,L|230:52,1,80
268,200,101931,1,8,0:0:0:0:
292,114,102102,6,0,L|137:155,1,160
108,244,102613,1,8,0:0:0:0:
36,128,102784,1,0,0:0:0:0:
44,276,102954,2,0,P|113:315|172:272,1,160,0|8,0:0|0:0,0:0:0:0:
208,144,103465,1,0,0:0:0:0:
252,280,103636,6,0,L|340:308,1,89.9999972534181,12|0,0:0|0:0,0:0:0:0:
208,144,103977,2,0,L|120:116,1,89.9999972534181,8|0,0:0|0:0,0:0:0:0:
256,204,104318,2,0,L|344:232,1,89.9999972534181,8|0,0:0|0:0,0:0:0:0:
212,68,104659,2,0,L|124:40,1,89.9999972534181,8|0,0:0|0:0,0:0:0:0:
276,120,105000,5,8,0:0:0:0:
404,72,105170,1,0,0:0:0:0:
340,184,105340,1,8,0:0:0:0:
340,8,105511,1,0,0:0:0:0:
468,188,105681,1,8,0:0:0:0:
276,120,105852,1,0,0:0:0:0:
404,72,106022,1,8,0:0:0:0:
320,300,106193,1,0,0:0:0:0:
448,236,106363,5,0,0:0:0:0:
468,200,106448,1,0,0:0:0:0:
468,160,106534,1,0,0:0:0:0:
444,128,106619,1,0,0:0:0:0:
404,112,106704,5,0,0:0:0:0:
364,128,106789,1,0,0:0:0:0:
340,160,106875,1,0,0:0:0:0:
316,192,106960,1,0,0:0:0:0:
276,204,107045,5,0,0:0:0:0:
236,192,107130,1,0,0:0:0:0:
212,160,107215,1,0,0:0:0:0:
188,128,107301,1,0,0:0:0:0:
148,112,107386,5,0,0:0:0:0:
108,128,107471,1,0,0:0:0:0:
84,160,107556,1,0,0:0:0:0:
84,200,107642,1,0,0:0:0:0:
104,236,107727,5,0,0:0:0:0:
158,171,107897,1,0,0:0:0:0:
254,147,108067,1,0,0:0:0:0:
366,195,108238,1,0,0:0:0:0:
486,215,108409,2,0,L|472:124,1,89.9999972534181,8|0,0:0|0:0,0:0:0:0:
380,24,108750,2,0,L|394:115,1,89.9999972534181,8|0,0:0|0:0,0:0:0:0:
288,72,109090,6,0,L|138:79,1,150,4|0,0:0|0:0,0:0:0:0:
138,79,109431,2,0,L|228:124,1,100,8|0,0:0|0:0,0:0:0:0:
332,176,109772,1,0,0:0:0:0:
176,192,109943,1,0,0:0:0:0:
288,72,110113,1,8,0:0:0:0:
220,296,110284,1,0,0:0:0:0:
320,263,110454,6,0,L|413:227,1,100
228,128,110795,1,8,0:0:0:0:
28,228,110965,2,0,L|121:263,1,100
92,52,111306,1,0,0:0:0:0:
84,152,111477,1,8,0:0:0:0:
244,8,111647,1,0,0:0:0:0:
163,99,111818,6,0,P|230:128|303:115,1,150
303,115,112159,2,0,P|303:168|327:208,1,100,8|0,0:0|0:0,0:0:0:0:
388,144,112500,1,0,0:0:0:0:
264,276,112670,1,0,0:0:0:0:
440,317,112840,1,8,0:0:0:0:
388,144,113011,1,0,0:0:0:0:
236,84,113181,6,0,L|132:96,1,100
388,144,113522,1,8,0:0:0:0:
244,164,113693,2,0,L|159:226,1,100
388,144,114034,1,0,0:0:0:0:
284,236,114204,1,8,0:0:0:0:
286,278,114289,1,0,0:0:0:0:
306,314,114375,1,0,0:0:0:0:
343,334,114460,1,0,0:0:0:0:
385,335,114545,6,0,P|336:332|288:352,1,100,4|0,0:0|0:0,0:0:0:0:
316,168,114886,1,8,0:0:0:0:
180,232,115056,2,0,L|152:332,1,100
116,152,115397,1,0,0:0:0:0:
232,140,115568,2,0,L|332:168,1,100,8|0,0:0|0:0,0:0:0:0:
308,71,115909,5,0,0:0:0:0:
212,44,116079,1,0,0:0:0:0:
284,240,116250,1,8,0:0:0:0:
380,267,116420,1,0,0:0:0:0:
308,71,116590,2,0,L|408:56,1,100
284,240,116931,2,0,L|184:255,1,100,8|0,0:0|0:0,0:0:0:0:
80,208,117272,6,0,P|64:256|76:308,1,100
152,336,117613,1,8,0:0:0:0:
86,112,117784,2,0,P|95:160|80:207,1,100
32,32,118125,1,0,0:0:0:0:
86,112,118295,2,0,L|185:123,1,100,8|0,0:0|0:0,0:0:0:0:
185,123,118551,1,0,0:0:0:0:
185,123,118636,5,0,0:0:0:0:
332,84,118806,1,0,0:0:0:0:
232,200,118977,1,8,0:0:0:0:
138,48,119147,1,0,0:0:0:0:
328,188,119318,2,0,L|428:204,1,100
300,264,119659,2,0,L|344:292,1,50,8|0,0:0|0:0,0:0:0:0:
249,357,119829,2,0,L|240:308,1,50,0|0,0:0|0:0,0:0:0:0:
167,295,120000,6,0,P|93:284|26:315,1,150,4|0,0:0|0:0,0:0:0:0:
27,315,120340,2,0,L|44:215,1,100,8|0,0:0|0:0,0:0:0:0:
212,88,120681,1,0,0:0:0:0:
116,136,120852,1,0,0:0:0:0:
220,40,121022,1,8,0:0:0:0:
108,184,121193,1,0,0:0:0:0:
204,136,121363,6,0,L|304:124,1,100
304,124,121619,1,0,0:0:0:0:
304,124,121704,1,8,0:0:0:0:
416,40,121875,1,0,0:0:0:0:
344,208,122045,2,0,L|244:220,1,100
164,52,122386,2,0,L|264:40,1,100,8|0,0:0|0:0,0:0:0:0:
56,72,122727,6,0,P|62:123|97:159,1,100
136,176,122982,1,0,0:0:0:0:
136,176,123068,2,0,L|108:276,1,100,8|0,0:0|0:0,0:0:0:0:
208,296,123409,1,0,0:0:0:0:
235,191,123579,1,0,0:0:0:0:
272,360,123750,1,8,0:0:0:0:
323,166,123920,1,0,0:0:0:0:
208,296,124090,6,0,L|108:324,1,100
323,166,124431,1,8,0:0:0:0:
323,166,124602,2,0,L|419:139,1,100,0|0,0:0|0:0,0:0:0:0:
248,88,124943,1,0,0:0:0:0:
104,56,125113,2,0,L|72:96,1,50,8|0,0:0|0:0,0:0:0:0:
148,128,125284,2,0,L|179:167,1,50
84,172,125454,6,0,P|72:224|88:272,1,100,4|0,0:0|0:0,0:0:0:0:
204,332,125795,1,8,0:0:0:0:
204,332,125965,2,0,L|104:356,1,100
252,220,126306,1,0,0:0:0:0:
302,330,126477,2,0,P|252:339|203:331,1,100,8|0,0:0|0:0,0:0:0:0:
360,216,126818,5,0,0:0:0:0:
399,354,126988,2,0,L|302:331,1,100,0|8,0:0|0:0,0:0:0:0:
252,220,127329,1,0,0:0:0:0:
204,68,127500,2,0,P|152:56|104:64,1,100
264,136,127840,2,0,P|316:148|364:140,1,100,8|0,0:0|0:0,0:0:0:0:
184,148,128181,6,0,L|84:160,1,100
144,304,128522,1,8,0:0:0:0:
188,220,128693,2,0,L|88:232,1,100
148,376,129034,1,0,0:0:0:0:
304,340,129204,6,0,L|404:328,1,100,8|0,0:0|0:0,0:0:0:0:
344,184,129545,1,0,0:0:0:0:
300,268,129716,2,0,L|400:256,1,100,0|8,0:0|0:0,0:0:0:0:
348,104,130057,1,0,0:0:0:0:
180,48,130227,2,0,P|160:96|160:148,1,100
252,108,130568,2,0,P|272:60|272:8,1,100,8|0,0:0|0:0,0:0:0:0:
72,48,130909,6,0,L|44:195,1,150,4|0,0:0|0:0,0:0:0:0:
44,195,131250,2,0,P|92:176|140:188,1,100,8|0,0:0|0:0,0:0:0:0:
184,344,131590,1,0,0:0:0:0:
128,260,131761,1,0,0:0:0:0:
88,348,131931,1,8,0:0:0:0:
264,280,132102,1,0,0:0:0:0:
264,280,132187,1,0,0:0:0:0:
264,280,132272,6,0,L|368:276,1,100
411,100,132613,2,0,L|312:104,1,100,8|0,0:0|0:0,0:0:0:0:
288,192,132954,1,0,0:0:0:0:
387,188,133125,1,0,0:0:0:0:
435,12,133295,1,8,0:0:0:0:
336,16,133465,1,0,0:0:0:0:
486,184,133636,6,0,L|508:284,1,100
376,328,133977,1,8,0:0:0:0:
216,280,134147,2,0,P|164:276|112:288,1,100
284,344,134488,1,0,0:0:0:0:
256,192,134659,1,8,0:0:0:0:
408,228,134829,1,0,0:0:0:0:
408,228,134914,1,0,0:0:0:0:
408,228,135000,6,0,P|412:176|392:128,1,100,0|0,0:0|0:0,0:0:0:0:
300,12,135340,2,0,P|296:64|320:112,1,100,8|0,0:0|0:0,0:0:0:0:
384,48,135681,1,0,0:0:0:0:
221,91,135852,1,0,0:0:0:0:
265,253,136022,1,8,0:0:0:0:
427,210,136193,1,0,0:0:0:0:
221,91,136363,6,0,L|120:76,1,100,4|0,0:0|0:0,0:0:0:0:
268,180,136704,1,8,0:0:0:0:
184,168,136875,2,0,L|83:153,1,100
322,229,137215,1,0,0:0:0:0:
221,91,137385,1,8,0:0:0:0:
152,248,137556,1,0,0:0:0:0:
152,248,137642,1,0,0:0:0:0:
152,248,137727,6,0,P|124:296|84:320,1,100
68,176,138068,1,8,0:0:0:0:
212,336,138238,1,0,0:0:0:0:
248,344,138323,1,0,0:0:0:0:
284,352,138409,1,0,0:0:0:0:
320,360,138493,1,0,0:0:0:0:
356,368,138579,1,0,0:0:0:0:
456,208,138750,1,8,0:0:0:0:
296,220,138920,1,0,0:0:0:0:
380,172,139090,6,0,P|410:133|458:120,1,100
256,24,139431,2,0,P|268:72|248:120,1,100,8|0,0:0|0:0,0:0:0:0:
180,64,139772,1,0,0:0:0:0:
344,32,139943,1,0,0:0:0:0:
420,160,140113,1,8,0:0:0:0:
397,228,140284,6,0,P|348:150|416:88,1,200
394,314,140795,2,0,L|304:356,1,100,8|0,0:0|0:0,0:0:0:0:
224,264,141136,1,0,0:0:0:0:
192,368,141306,1,0,0:0:0:0:
152,192,141477,2,0,L|72:320,1,150,8|0,0:0|0:0,0:0:0:0:
40,308,141818,6,0,L|24:228,1,80,4|0,0:0|0:0,0:0:0:0:
40,76,142159,2,0,L|56:156,1,80,8|0,0:0|0:0,0:0:0:0:
128,40,142500,2,0,P|164:56|208:56,1,80,0|0,0:0|0:0,0:0:0:0:
296,36,142840,1,8,0:0:0:0:
416,144,143011,2,0,L|388:64,1,80,0|0,0:0|0:0,0:0:0:0:
336,184,143352,5,0,0:0:0:0:
312,272,143522,1,8,0:0:0:0:
268,119,143693,1,0,0:0:0:0:
220,296,143863,2,0,L|136:316,1,80,0|0,0:0|0:0,0:0:0:0:
312,272,144204,2,0,L|396:252,1,80,8|0,0:0|0:0,0:0:0:0:
248,216,144545,6,0,P|204:200|168:200,1,80,4|0,0:0|0:0,0:0:0:0:
32,56,144886,2,0,P|40:102|58:133,1,80,8|0,0:0|0:0,0:0:0:0:
192,68,145227,2,0,P|156:98|138:129,1,80,0|0,0:0|0:0,0:0:0:0:
312,40,145568,1,8,0:0:0:0:
312,40,145738,2,0,L|296:120,1,80,0|0,0:0|0:0,0:0:0:0:
404,56,146079,5,0,0:0:0:0:
452,216,146250,1,8,0:0:0:0:
456,128,146420,1,0,0:0:0:0:
417,290,146590,2,0,P|372:288|336:296,1,80,0|0,0:0|0:0,0:0:0:0:
176,340,146931,2,0,P|221:342|257:334,1,80,8|0,0:0|0:0,0:0:0:0:
88,296,147272,5,4,0:0:0:0:
136,164,147443,1,0,0:0:0:0:
20,48,147613,2,0,P|44:92|72:116,1,80,0|8,0:0|0:0,0:0:0:0:
312,152,147954,2,0,L|396:176,1,80,0|0,0:0|0:0,0:0:0:0:
244,88,148295,1,8,0:0:0:0:
320,232,148465,2,0,L|404:256,1,80,0|0,0:0|0:0,0:0:0:0:
132,52,148806,5,8,0:0:0:0:
236,208,148977,2,0,L|196:280,1,80
160,172,149318,1,8,0:0:0:0:
312,244,149488,1,0,0:0:0:0:
312,76,149659,1,8,0:0:0:0:
312,244,149829,1,0,0:0:0:0:
312,244,150000,6,0,P|324:288|344:320,1,80,4|0,0:0|0:0,0:0:0:0:
399,203,150340,2,0,P|390:165|370:130,1,80,0|8,0:0|0:0,0:0:0:0:
216,68,150681,1,0,0:0:0:0:
384,32,150852,1,0,0:0:0:0:
203,167,151022,1,8,0:0:0:0:
300,50,151193,1,0,0:0:0:0:
336,264,151363,5,0,0:0:0:0:
132,86,151534,1,8,0:0:0:0:
384,32,151704,1,0,0:0:0:0:
56,36,151875,1,0,0:0:0:0:
257,244,152045,5,0,0:0:0:0:
295,264,152130,1,0,0:0:0:0:
336,264,152216,1,0,0:0:0:0:
372,242,152301,1,0,0:0:0:0:
395,207,152387,5,0,0:0:0:0:
392,248,152471,1,0,0:0:0:0:
389,289,152556,1,0,0:0:0:0:
386,330,152642,1,0,0:0:0:0:
383,371,152727,5,4,0:0:0:0:
