osu file format v14

[General]
AudioFilename: 0(1)_audio_index0_WAV.mp3
AudioLeadIn: 0
PreviewTime: -1
Countdown: 0
SampleSet: Soft
StackLeniency: 0.7
Mode: 0
LetterboxInBreaks: 1
EpilepsyWarning: 1
WidescreenStoryboard: 0

[Editor]
DistanceSpacing: 1.2
BeatDivisor: 4
GridSize: 4
TimelineZoom: 5.999997

[Metadata]
Title:PLAZMA (Halozy EUROBEAT Version)
TitleUnicode:PLAZMA (Halozy EUROBEAT Version)
Artist:Halozy
ArtistUnicode:Halozy
Creator:feverset
Version:Nuclear
Source:Touhou
Tags:Touhou
BeatmapID:736956
BeatmapSetID:332926

[Difficulty]
HPDrainRate:7
CircleSize:4
OverallDifficulty:8
ApproachRate:9
SliderMultiplier:1.8
SliderTickRate:1

[Events]
//Background and Video events
Video,0,"0(1)_video_index0.flv"
//Break Periods
2,114368,124710
//Storyboard Layer 0 (Background)
//Storyboard Layer 1 (Fail)
//Storyboard Layer 2 (Pass)
//Storyboard Layer 3 (Foreground)
//Storyboard Sound Samples

[TimingPoints]
0,342.847347218651,4,1,0,100,1,0
23142,-100,4,2,1,100,0,0
23656,-100,4,1,0,100,0,1
34627,-90.9090909090909,4,2,1,100,0,0
45941,-90.9090909090909,4,2,1,100,0,0
56226,-90.9090909090909,4,2,1,100,0,0
67712,-90.9090909090909,4,2,1,100,0,0
78854,-100,4,2,1,100,0,0
89311,-100,4,1,0,100,0,1
100625,-100,4,2,1,100,0,1
100797,-200,4,2,1,100,0,1
101139,-100,4,2,1,100,0,1
111768,-100,4,2,1,100,0,1
114168,-100,4,1,0,100,0,0
125318,-100,4,1,0,100,0,0

[HitObjects]
256,192,342,12,0,1885,0:0:0:0:
420,68,2228,5,0,0:0:0:0:
344,144,2399,1,0,0:0:0:0:
260,72,2571,1,0,0:0:0:0:
0,308,3257,5,0,0:0:0:0:
68,224,3428,1,0,0:0:0:0:
136,308,3599,1,0,0:0:0:0:
204,224,3771,1,0,0:0:0:0:
272,308,3942,1,0,0:0:0:0:
460,272,4971,6,0,B|364:272|360:244|280:244,1,180
208,324,5485,1,0,0:0:0:0:
100,324,5656,1,0,0:0:0:0:
144,224,5828,1,0,0:0:0:0:
80,136,5999,1,0,0:0:0:0:
392,48,6514,5,0,0:0:0:0:
368,108,6685,1,0,0:0:0:0:
200,296,7542,5,0,0:0:0:0:
104,212,7714,1,0,0:0:0:0:
204,132,7885,1,0,0:0:0:0:
284,228,8056,1,0,0:0:0:0:
316,104,8228,2,0,P|396:52|492:112,1,180
500,200,8742,1,0,0:0:0:0:
396,272,8914,1,0,0:0:0:0:
300,192,9085,2,0,L|200:196,2,90
200,112,9599,1,0,0:0:0:0:
76,140,9771,1,0,0:0:0:0:
68,264,9942,2,0,L|68:368,3,90
168,276,10628,1,0,0:0:0:0:
256,192,11142,5,0,0:0:0:0:
256,192,11228,1,0,0:0:0:0:
256,192,11313,1,0,0:0:0:0:
256,192,11485,1,0,0:0:0:0:
256,192,11656,1,0,0:0:0:0:
256,192,11828,1,0,0:0:0:0:
256,192,11999,1,0,0:0:0:0:
256,192,12171,1,0,0:0:0:0:
256,192,12342,1,0,0:0:0:0:
252,188,12513,6,0,L|260:292,1,90
260,196,12856,2,0,L|252:92,1,90
240,120,13199,6,0,L|144:120,1,90
272,264,13542,2,0,L|368:264,1,90
220,144,13885,6,0,L|128:236,1,90
292,240,14228,2,0,L|384:148,1,90
292,128,14571,6,0,L|220:60,1,90
220,256,14913,2,0,L|292:324,1,90
384,84,15256,5,0,0:0:0:0:
384,84,15428,1,0,0:0:0:0:
380,88,15599,2,0,P|296:68|272:96,1,90
204,172,15942,5,0,0:0:0:0:
204,172,16114,1,0,0:0:0:0:
208,168,16285,2,0,P|292:188|316:160,1,90
208,72,16628,6,0,L|104:116,1,90
208,176,16970,2,0,L|336:192,1,90
224,264,17313,2,0,L|132:296,1,90
220,352,17656,2,0,L|332:340,1,90
180,124,17999,6,0,L|196:252,1,90
352,252,18342,2,0,L|328:152,1,90
344,276,18685,6,0,L|232:244,1,90
172,72,19028,2,0,L|272:100,1,90
436,44,19370,2,0,L|432:120,2,45
196,168,19713,2,0,L|192:240,2,45
392,148,20056,2,0,L|392:228,2,45
276,260,20399,2,0,L|280:320,2,45
204,120,20742,6,0,L|100:124,1,90
396,104,21085,2,0,L|292:112,1,90
388,224,21427,2,0,P|284:236|280:236,1,90
160,244,21770,2,0,L|64:248,1,90
396,84,22113,5,0,0:0:0:0:
396,84,22199,1,0,0:0:0:0:
396,84,22285,1,0,0:0:0:0:
292,76,22456,1,0,0:0:0:0:
316,176,22627,1,0,0:0:0:0:
376,276,22799,1,0,0:0:0:0:
440,336,22970,1,0,0:0:0:0:
368,264,23142,1,0,0:0:0:0:
345,249,23227,1,0,0:0:0:0:
319,241,23313,1,0,0:0:0:0:
292,240,23399,1,0,0:0:0:0:
266,245,23484,1,0,0:0:0:0:
241,257,23570,1,0,0:0:0:0:
221,274,23656,1,4,1:2:0:0:
124,120,23827,5,0,0:0:0:0:
268,228,24170,1,0,0:0:0:0:
348,68,24513,1,0,0:0:0:0:
464,80,24685,1,0,0:0:0:0:
464,80,24770,1,0,0:0:0:0:
464,80,24856,1,0,0:0:0:0:
348,84,25027,1,0,0:0:0:0:
292,188,25199,1,0,0:0:0:0:
336,296,25370,1,0,0:0:0:0:
240,264,25542,1,0,0:0:0:0:
184,160,25713,1,0,0:0:0:0:
184,160,25884,2,0,L|68:160,1,90
292,36,26399,5,0,0:0:0:0:
296,40,26484,1,0,0:0:0:0:
296,40,26570,1,0,0:0:0:0:
364,136,26742,1,0,0:0:0:0:
256,184,26913,1,0,0:0:0:0:
328,304,27084,2,0,P|284:340|224:360,3,90
156,288,27770,1,0,0:0:0:0:
156,288,27856,1,0,0:0:0:0:
156,288,27942,1,0,0:0:0:0:
156,288,28027,1,0,0:0:0:0:
156,288,28113,2,0,L|92:180,2,90
208,184,28627,1,0,0:0:0:0:
324,156,28799,1,0,0:0:0:0:
324,156,28884,1,0,0:0:0:0:
324,156,28970,2,0,L|380:264,1,90
172,104,29484,5,0,0:0:0:0:
160,88,29827,1,0,0:0:0:0:
152,72,30170,1,0,0:0:0:0:
64,72,30341,1,0,0:0:0:0:
120,144,30513,1,0,0:0:0:0:
120,144,30599,1,0,0:0:0:0:
120,144,30684,1,0,0:0:0:0:
104,232,30856,1,0,0:0:0:0:
56,308,31027,1,0,0:0:0:0:
156,348,31370,1,0,0:0:0:0:
156,348,31541,1,0,0:0:0:0:
268,60,32056,5,0,0:0:0:0:
268,60,32141,1,0,0:0:0:0:
268,60,32227,2,0,L|168:104,1,90
252,172,32570,2,0,L|172:220,1,90
148,316,32913,1,0,0:0:0:0:
236,268,33084,1,0,0:0:0:0:
336,256,33256,1,0,0:0:0:0:
400,180,33427,1,0,0:0:0:0:
368,84,33599,2,0,L|292:164,1,90
228,88,33941,2,0,L|160:168,1,90
352,228,34284,1,0,0:0:0:0:
352,228,34456,1,0,0:0:0:0:
352,228,34627,1,4,0:0:0:0:
404,100,34970,6,0,P|312:92|208:140,1,198.000006042481
120,184,35484,1,0,0:0:0:0:
192,268,35656,2,0,L|112:348,2,99.0000030212403
300,264,36170,1,0,0:0:0:0:
300,264,36256,1,0,0:0:0:0:
300,264,36341,1,0,0:0:0:0:
252,168,36513,1,0,0:0:0:0:
348,120,36684,2,0,P|292:64|244:68,2,99.0000030212403
420,204,37198,1,0,0:0:0:0:
388,308,37370,2,0,B|244:308|244:312|244:312|192:284,2,198.000006042481
372,180,38227,1,0,0:0:0:0:
360,40,38398,1,0,0:0:0:0:
310,43,38483,1,0,0:0:0:0:
266,64,38569,1,0,0:0:0:0:
233,101,38655,1,0,0:0:0:0:
217,147,38740,1,0,0:0:0:0:
144,256,38913,2,0,L|228:320,1,99.0000030212403
336,256,39256,2,0,L|304:380,1,99.0000030212403
436,256,39598,1,0,0:0:0:0:
396,100,39770,2,0,L|280:140,1,99.0000030212403
436,172,40284,5,0,0:0:0:0:
436,172,40370,1,0,0:0:0:0:
436,172,40455,2,0,P|380:224|348:268,2,99.0000030212403
368,88,40970,1,0,0:0:0:0:
260,88,41141,1,0,0:0:0:0:
316,184,41313,1,0,0:0:0:0:
208,188,41484,1,0,0:0:0:0:
140,272,41655,1,0,0:0:0:0:
244,308,41827,2,0,P|380:300|432:360,2,198.000006042481
224,180,42684,1,0,0:0:0:0:
224,180,42770,1,0,0:0:0:0:
224,180,42855,2,0,B|76:188|76:188|48:236,2,198.000006042481
268,180,43627,1,0,0:0:0:0:
317,171,43712,1,0,0:0:0:0:
360,147,43798,1,0,0:0:0:0:
394,111,43884,1,0,0:0:0:0:
284,64,44055,1,0,0:0:0:0:
152,88,44227,2,0,B|152:196|152:196|100:240|100:240|96:304,2,198.000006042481
256,104,45084,5,4,0:0:0:0:
188,200,45255,1,4,0:0:0:0:
316,200,45427,1,4,0:0:0:0:
184,200,45598,1,4,0:0:0:0:
336,192,45770,1,4,0:0:0:0:
268,300,45941,6,0,B|112:304|112:304|88:264,2,198.000006042481
376,264,46798,1,0,0:0:0:0:
376,264,46884,1,0,0:0:0:0:
376,264,46970,2,0,L|296:168,1,99.0000030212403
416,48,47312,2,0,L|344:120,1,99.0000030212403
244,120,47655,1,0,0:0:0:0:
144,72,47827,1,0,0:0:0:0:
60,156,47998,1,0,0:0:0:0:
144,236,48170,1,0,0:0:0:0:
240,288,48341,2,0,B|336:288|336:288|368:228|368:228|440:228,2,198.000006042481
148,208,49198,1,0,0:0:0:0:
144,88,49370,2,0,L|356:88,2,198.000006042481
200,196,50227,1,0,0:0:0:0:
200,196,50312,1,0,0:0:0:0:
200,196,50398,2,0,L|104:248,2,99.0000030212403
248,292,50912,2,0,L|360:264,1,99.0000030212403
408,208,51256,1,0,0:0:0:0:
256,60,51427,5,0,0:0:0:0:
256,99,51512,1,0,0:0:0:0:
256,139,51598,1,0,0:0:0:0:
256,178,51684,1,0,0:0:0:0:
252,212,51769,2,0,L|180:288,1,99.0000030212403
36,116,52112,2,0,L|72:240,1,99.0000030212403
152,176,52455,1,0,0:0:0:0:
160,96,52627,1,0,0:0:0:0:
276,96,52798,2,0,B|416:92|416:92|452:132|452:132|492:132|492:132,2,198.000006042481
144,104,53655,1,0,0:0:0:0:
76,192,53827,1,0,0:0:0:0:
82,235,53912,1,0,0:0:0:0:
103,274,53998,1,0,0:0:0:0:
136,304,54084,1,0,0:0:0:0:
177,320,54169,1,0,0:0:0:0:
300,292,54341,2,0,L|420:328,1,99.0000030212403
316,180,54684,2,0,L|424:220,1,99.0000030212403
388,40,55026,1,0,0:0:0:0:
300,108,55198,1,0,0:0:0:0:
208,72,55369,1,0,0:0:0:0:
169,81,55454,1,0,0:0:0:0:
136,103,55540,1,0,0:0:0:0:
113,134,55626,1,0,0:0:0:0:
103,172,55711,1,0,0:0:0:0:
106,212,55797,1,0,0:0:0:0:
123,247,55883,1,0,0:0:0:0:
151,275,55968,1,0,0:0:0:0:
192,284,56055,2,0,L|244:288,2,49.5000015106202
284,168,56569,6,0,B|420:168|416:168|416:168|440:144|440:144|472:144,2,198.000006042481
268,168,57341,1,0,0:0:0:0:
256,172,57426,1,0,0:0:0:0:
160,80,57598,1,0,0:0:0:0:
64,80,57769,1,0,0:0:0:0:
64,80,57941,2,0,L|64:216,2,99.0000030212403
152,280,58455,2,0,L|152:160,2,99.0000030212403
300,256,58969,1,0,0:0:0:0:
300,256,59055,1,0,0:0:0:0:
300,256,59141,2,0,L|420:256,2,99.0000030212403
336,136,59655,1,0,0:0:0:0:
336,136,59741,1,0,0:0:0:0:
336,136,59826,1,0,0:0:0:0:
332,132,59912,1,0,0:0:0:0:
336,136,59998,2,0,L|136:132,2,198.000006042481
84,76,61369,1,0,0:0:0:0:
84,76,61455,1,0,0:0:0:0:
84,76,61541,1,0,0:0:0:0:
84,76,61626,1,0,0:0:0:0:
84,76,61712,2,0,L|84:292,2,198.000006042481
224,152,62569,5,0,0:0:0:0:
224,152,62741,2,0,B|360:156|360:156|328:96,1,198.000006042481
272,44,63255,1,0,0:0:0:0:
164,76,63426,1,0,0:0:0:0:
120,108,63511,1,0,0:0:0:0:
97,157,63597,1,0,0:0:0:0:
100,210,63683,1,0,0:0:0:0:
144,240,63769,2,0,L|276:240,2,99.0000030212403
340,176,64283,1,0,0:0:0:0:
256,60,64455,2,0,L|168:120,1,99.0000030212403
392,76,64798,2,0,L|392:152|392:148,1,49.5000015106202
300,120,64969,2,0,L|300:60,1,49.5000015106202
184,64,65140,2,0,L|184:120,1,49.5000015106202
52,120,65312,2,0,L|56:64,1,49.5000015106202
52,248,65483,1,0,0:0:0:0:
101,248,65568,1,0,0:0:0:0:
151,248,65654,1,0,0:0:0:0:
200,248,65740,1,0,0:0:0:0:
250,248,65825,1,0,0:0:0:0:
299,248,65911,1,0,0:0:0:0:
349,248,65997,1,0,0:0:0:0:
400,252,66083,2,0,L|472:256,1,49.5000015106202
344,52,66340,1,0,0:0:0:0:
297,34,66425,1,0,0:0:0:0:
248,35,66511,1,0,0:0:0:0:
202,53,66597,1,0,0:0:0:0:
166,87,66682,1,0,0:0:0:0:
144,131,66768,1,0,0:0:0:0:
140,180,66854,1,0,0:0:0:0:
153,227,66939,1,0,0:0:0:0:
183,267,67025,1,0,0:0:0:0:
224,288,67112,2,0,L|268:324,2,49.5000015106202
276,268,67369,2,0,L|328:312,2,49.5000015106202
160,100,67712,5,0,0:0:0:0:
260,100,67883,6,0,B|372:100|372:100|404:60|404:60|460:60|456:60,2,198.000006042481
96,68,68740,2,0,L|28:108,2,49.5000015106202
112,168,69083,2,0,L|56:196,2,49.5000015106202
100,288,69426,1,0,0:0:0:0:
216,280,69598,2,0,L|216:152,2,99.0000030212403
360,264,70112,2,0,L|352:128,1,99.0000030212403
256,96,70455,1,0,0:0:0:0:
256,96,70540,1,0,0:0:0:0:
256,96,70626,2,0,L|148:172,1,99.0000030212403
88,232,70969,1,0,0:0:0:0:
188,296,71140,2,0,L|304:276,1,99.0000030212403
464,188,71483,1,0,0:0:0:0:
376,112,71655,1,0,0:0:0:0:
208,84,71826,1,0,0:0:0:0:
208,192,71997,1,0,0:0:0:0:
348,120,72169,1,0,0:0:0:0:
308,92,72512,5,0,0:0:0:0:
308,92,72597,1,0,0:0:0:0:
304,88,72683,2,0,B|240:88|240:88|184:44|184:44|104:40,2,198.000006042481
304,184,73540,1,0,0:0:0:0:
284,288,73712,2,0,L|184:288|180:288,1,99.0000030212403
148,288,73969,1,0,0:0:0:0:
116,288,74055,2,0,B|12:288|16:288,1,99.0000030212403
28,160,74397,1,0,0:0:0:0:
104,52,74569,2,0,L|180:140,1,99.0000030212403
192,152,74826,1,0,0:0:0:0:
232,152,74912,2,0,L|336:156,2,99.0000030212403
128,156,75426,1,0,0:0:0:0:
60,232,75597,1,0,0:0:0:0:
60,232,75683,1,0,0:0:0:0:
60,232,75769,2,0,L|128:324,1,99.0000030212403
192,200,76112,1,0,0:0:0:0:
308,200,76283,1,0,0:0:0:0:
308,200,76369,1,0,0:0:0:0:
308,200,76454,2,0,P|380:104|384:104,1,99.0000030212403
460,48,76797,5,0,0:0:0:0:
422,34,76882,1,0,0:0:0:0:
383,30,76968,1,0,0:0:0:0:
344,36,77054,1,0,0:0:0:0:
308,52,77139,1,0,0:0:0:0:
277,77,77225,1,0,0:0:0:0:
253,108,77311,1,0,0:0:0:0:
240,144,77396,1,0,0:0:0:0:
233,184,77482,5,2,0:0:0:0:
232,224,77569,1,0,0:0:0:0:
202,262,77654,1,0,0:0:0:0:
157,282,77740,1,0,0:0:0:0:
108,281,77826,1,0,0:0:0:0:
63,261,77911,1,0,0:0:0:0:
27,227,77997,1,0,0:0:0:0:
40,172,78083,1,0,0:0:0:0:
83,124,78168,1,0,0:0:0:0:
137,89,78254,1,0,0:0:0:0:
197,67,78340,2,0,L|264:40,2,49.5000015106202
384,100,78854,5,0,0:0:0:0:
292,184,79026,1,0,0:0:0:0:
416,212,79197,1,0,0:0:0:0:
332,116,79369,1,0,0:0:0:0:
256,216,79540,1,0,0:0:0:0:
360,284,79712,1,0,0:0:0:0:
240,328,79883,1,0,0:0:0:0:
120,288,80054,1,0,0:0:0:0:
52,180,80226,1,0,0:0:0:0:
164,124,80397,1,0,0:0:0:0:
288,148,80569,1,0,0:0:0:0:
288,148,80654,1,0,0:0:0:0:
288,148,80740,2,0,L|388:236,1,90
384,84,81426,5,0,0:0:0:0:
384,84,81512,1,0,0:0:0:0:
384,84,81598,1,0,0:0:0:0:
316,188,81769,1,0,0:0:0:0:
440,204,81941,1,0,0:0:0:0:
348,292,82112,1,0,0:0:0:0:
248,216,82283,1,0,0:0:0:0:
240,88,82455,1,0,0:0:0:0:
152,176,82626,1,0,0:0:0:0:
164,52,82797,2,0,L|84:128,1,90
156,228,83140,2,0,L|240:144,1,90
292,268,83483,1,0,0:0:0:0:
292,268,83569,1,0,0:0:0:0:
292,268,83654,2,0,L|376:228,2,90
320,104,84340,5,0,0:0:0:0:
320,104,84426,1,0,0:0:0:0:
320,104,84511,2,0,L|220:152,1,90
168,96,84854,1,0,0:0:0:0:
108,164,85026,1,0,0:0:0:0:
136,272,85197,2,0,P|204:264|256:260,1,90
360,224,85540,1,0,0:0:0:0:
420,112,85711,1,0,0:0:0:0:
340,64,85883,2,0,P|276:48|228:60,1,90
136,116,86226,1,0,0:0:0:0:
136,236,86397,5,0,0:0:0:0:
136,236,86568,1,0,0:0:0:0:
136,236,86740,1,0,0:0:0:0:
268,196,86911,1,0,0:0:0:0:
268,196,87083,1,0,0:0:0:0:
268,196,87254,1,0,0:0:0:0:
412,144,87426,1,0,0:0:0:0:
412,144,87597,1,0,0:0:0:0:
412,144,87768,1,0,0:0:0:0:
280,76,87940,1,0,0:0:0:0:
258,115,88025,1,0,0:0:0:0:
237,155,88111,1,0,0:0:0:0:
216,195,88197,1,0,0:0:0:0:
188,228,88283,2,0,P|140:236|136:236,2,45
204,248,88540,2,0,L|192:268,14,22.5
324,240,89311,6,0,L|336:264,4,22.5,0|0|0|0|4,0:0|0:0|0:0|0:0|0:0,0:0:0:0:
304,104,89826,1,4,0:0:0:0:
120,132,90168,1,4,0:0:0:0:
136,300,90511,1,4,0:0:0:0:
312,208,90854,1,4,0:0:0:0:
412,136,91025,2,0,P|368:92|316:84,1,90
228,72,91368,1,0,0:0:0:0:
148,136,91540,1,0,0:0:0:0:
76,220,91711,5,0,0:0:0:0:
105,253,91796,1,0,0:0:0:0:
144,275,91882,1,0,0:0:0:0:
248,224,92054,5,0,0:0:0:0:
287,245,92139,1,0,0:0:0:0:
326,267,92225,1,0,0:0:0:0:
396,192,92397,5,0,0:0:0:0:
328,56,92568,5,0,0:0:0:0:
285,71,92653,1,0,0:0:0:0:
244,90,92739,1,0,0:0:0:0:
168,136,92910,5,0,0:0:0:0:
131,163,92996,1,0,0:0:0:0:
94,189,93082,1,0,0:0:0:0:
57,214,93167,1,0,0:0:0:0:
19,238,93253,1,0,0:0:0:0:
136,288,93425,2,0,L|232:332,1,90
344,296,93768,2,0,L|312:192,1,90
264,116,94111,1,0,0:0:0:0:
140,88,94454,1,0,0:0:0:0:
140,88,94625,1,0,0:0:0:0:
112,200,94797,5,0,0:0:0:0:
220,196,94968,1,0,0:0:0:0:
336,192,95140,2,0,P|384:148|412:124,1,90
304,276,95482,2,0,L|208:292,1,90
224,120,95825,2,0,L|144:184,1,90
72,84,96168,2,0,L|56:196,1,90
372,80,96511,1,0,0:0:0:0:
208,152,96682,1,4,0:0:0:0:
392,196,97025,1,4,0:0:0:0:
200,288,97368,1,4,0:0:0:0:
408,296,97711,1,4,0:0:0:0:
360,136,97882,5,0,0:0:0:0:
360,136,97968,1,0,0:0:0:0:
352,132,98054,2,0,L|352:72,1,45
232,124,98225,2,0,L|232:72,1,45
128,128,98397,2,0,L|128:72,1,45
56,224,98568,2,0,L|56:296,1,45
168,240,98740,2,0,L|168:184,1,45
276,216,98911,2,0,L|276:276,1,45
384,224,99082,1,0,0:0:0:0:
426,200,99167,1,0,0:0:0:0:
446,155,99253,1,0,0:0:0:0:
435,108,99339,1,0,0:0:0:0:
398,77,99425,2,0,L|344:88,1,45
352,124,99597,1,0,0:0:0:0:
303,128,99682,1,0,0:0:0:0:
260,152,99768,1,0,0:0:0:0:
230,191,99854,1,0,0:0:0:0:
218,239,99939,1,0,0:0:0:0:
220,288,100025,2,0,L|232:336,1,45
408,272,100282,1,0,0:0:0:0:
408,272,100368,1,0,0:0:0:0:
408,272,100454,1,0,0:0:0:0:
444,84,100625,5,0,0:0:0:0:
420,84,100711,1,0,0:0:0:0:
408,84,100797,6,0,L|304:84,1,90
44,80,101482,1,0,0:0:0:0:
40,276,101825,1,0,0:0:0:0:
276,272,102168,1,0,0:0:0:0:
264,108,102511,2,0,L|156:108,1,90
72,100,102854,1,0,0:0:0:0:
64,248,103025,1,0,0:0:0:0:
108,248,103110,1,0,0:0:0:0:
153,249,103196,1,0,0:0:0:0:
198,250,103282,1,0,0:0:0:0:
243,251,103367,1,0,0:0:0:0:
392,72,103539,1,0,0:0:0:0:
391,116,103624,1,0,0:0:0:0:
390,161,103710,1,0,0:0:0:0:
389,206,103796,1,0,0:0:0:0:
388,251,103881,1,0,0:0:0:0:
388,148,104054,1,0,0:0:0:0:
304,120,104225,1,0,0:0:0:0:
271,89,104310,1,0,0:0:0:0:
228,74,104396,1,0,0:0:0:0:
184,77,104482,1,0,0:0:0:0:
144,98,104567,1,0,0:0:0:0:
115,132,104653,1,0,0:0:0:0:
102,175,104739,1,0,0:0:0:0:
107,219,104824,1,0,0:0:0:0:
130,258,104910,1,0,0:0:0:0:
165,285,104996,1,0,0:0:0:0:
208,296,105082,1,0,0:0:0:0:
260,216,105254,1,0,0:0:0:0:
285,233,105339,1,0,0:0:0:0:
316,240,105425,1,0,0:0:0:0:
346,233,105511,1,0,0:0:0:0:
372,215,105596,1,0,0:0:0:0:
256,100,105768,6,0,B|136:100|136:100|116:64|116:64|56:64,1,180
92,180,106282,2,0,B|124:244|124:244|236:244,1,180
320,168,106796,1,0,0:0:0:0:
268,64,106968,2,0,L|216:112,2,45
176,40,107311,2,0,L|128:80,2,45
168,240,107654,2,0,L|104:192,2,45
272,204,107996,2,0,L|240:156,2,45
388,104,108339,1,0,0:0:0:0:
388,104,108425,1,0,0:0:0:0:
388,104,108511,1,0,0:0:0:0:
296,224,108682,1,0,0:0:0:0:
296,224,108768,1,0,0:0:0:0:
296,224,108854,1,0,0:0:0:0:
240,56,109025,1,0,0:0:0:0:
240,56,109111,1,0,0:0:0:0:
240,56,109196,1,0,0:0:0:0:
240,56,109282,1,0,0:0:0:0:
240,56,109368,2,0,L|132:56,2,90
288,344,110053,1,0,0:0:0:0:
288,344,110139,1,0,0:0:0:0:
288,344,110224,1,0,0:0:0:0:
288,344,110310,1,0,0:0:0:0:
288,344,110396,2,0,L|396:344,2,90
152,196,110911,1,0,0:0:0:0:
183,196,110996,1,0,0:0:0:0:
215,196,111082,1,0,0:0:0:0:
246,196,111168,1,0,0:0:0:0:
278,196,111253,1,0,0:0:0:0:
309,196,111339,1,0,0:0:0:0:
341,196,111425,1,0,0:0:0:0:
372,196,111510,1,0,0:0:0:0:
404,196,111596,1,0,0:0:0:0:
512,160,111768,5,0,0:0:0:0:
474,135,111853,1,0,0:0:0:0:
433,115,111939,1,0,0:0:0:0:
390,105,112025,1,0,0:0:0:0:
346,112,112110,1,0,0:0:0:0:
310,139,112196,1,0,0:0:0:0:
284,175,112282,1,0,0:0:0:0:
268,216,112368,5,2,0:0:0:0:
259,259,112453,1,0,0:0:0:0:
234,297,112539,1,0,0:0:0:0:
197,322,112625,1,0,0:0:0:0:
153,330,112710,1,0,0:0:0:0:
110,322,112796,1,0,0:0:0:0:
72,297,112882,1,0,0:0:0:0:
48,260,112967,1,0,0:0:0:0:
56,216,113053,5,2,0:0:0:0:
72,174,113138,1,0,0:0:0:0:
98,137,113224,1,0,0:0:0:0:
132,107,113310,1,0,0:0:0:0:
171,86,113395,1,0,0:0:0:0:
216,84,113482,5,2,0:0:0:0:
269,78,113567,1,0,0:0:0:0:
319,96,113653,1,0,0:0:0:0:
358,133,113739,1,0,0:0:0:0:
377,183,113824,1,0,0:0:0:0:
374,236,113910,1,0,0:0:0:0:
348,283,113996,1,0,0:0:0:0:
300,316,114082,1,0,0:0:0:0:
240,328,114168,1,4,2:2:0:0:
256,44,125310,5,0,0:0:0:0:
256,89,125395,1,0,0:0:0:0:
256,134,125481,1,0,0:0:0:0:
256,179,125567,1,0,0:0:0:0:
256,192,125653,12,4,127539,0:0:0:0:
