osu file format v14

[General]
AudioFilename: PLAZMA.mp3
AudioLeadIn: 0
PreviewTime: 143647
Countdown: 0
SampleSet: Soft
StackLeniency: 0.4
Mode: 0
LetterboxInBreaks: 1
WidescreenStoryboard: 0

[Editor]
Bookmarks: 307018
DistanceSpacing: 2
BeatDivisor: 4
GridSize: 4
TimelineZoom: 3.599999

[Metadata]
Title:PLAZMA
TitleUnicode:PLAZMA
Artist:Halozy
ArtistUnicode:Halozy
Creator:Hakurei Yoru
Version:Nightmare
Source:東方Project
Tags:Touhou エネルギー黎明 ~ Future Dream Energy Daybreak ~ Future Dream Snow Melody こめいじ さとり Komeiji_Satori 东方地霊殿 ~ Subterranean Animism. dnb Misato a.k.a. Misty 美里 Sumijun crouka
BeatmapID:703997
BeatmapSetID:315854

[Difficulty]
HPDrainRate:6
CircleSize:4
OverallDifficulty:8
ApproachRate:9.2
SliderMultiplier:1.8
SliderTickRate:1

[Events]
//Background and Video events
0,0,"wa.jpg",0,0
//Break Periods
2,188075,198277
2,266246,286618
//Storyboard Layer 0 (Background)
//Storyboard Layer 1 (Fail)
//Storyboard Layer 2 (Pass)
//Storyboard Layer 3 (Foreground)
//Storyboard Sound Samples

[TimingPoints]
-10,342.857142857143,4,2,1,30,1,0
1361,-133.333333333333,4,2,1,30,0,0
10961,-200,4,2,1,30,0,0
12332,-133.333333333333,4,2,1,30,0,0
23304,-133.333333333333,4,2,1,60,0,0
61704,-100,4,2,1,60,0,0
65818,-100,4,2,1,30,0,0
66161,-100,4,2,1,45,0,0
66504,-100,4,2,1,60,0,0
66847,-200,4,2,1,60,0,0
67190,-66.6666666666667,4,2,1,60,0,0
67532,-100,4,2,1,60,0,0
87761,-83.3333333333333,4,2,1,60,0,0
88790,-100,4,2,1,30,0,0
111075,-100,4,2,1,60,0,0
133018,-100,4,2,1,75,0,0
143647,-66.6666666666667,4,2,1,60,0,0
143990,-83.3333333333333,4,2,1,60,0,1
144332,-100,4,2,1,60,0,1
165932,-83.3333333333333,4,2,1,60,0,0
166275,-100,4,2,1,60,0,0
187875,-100,4,2,1,20,0,0
198847,-133.333333333333,4,2,1,60,0,0
209818,-133.333333333333,4,2,1,5,0,0
210847,-200,4,2,1,50,0,0
211104,-200,4,2,1,5,0,0
211190,-83.3333333333333,4,2,1,60,0,0
211704,-100,4,2,1,60,0,0
233132,-100,4,2,1,75,0,0
242390,-66.6666666666667,4,2,1,60,0,0
244447,-133.333333333333,4,2,1,60,0,0
263304,-100,4,2,1,70,0,0
287990,-200,4,2,1,70,0,0
289875,-200,4,2,1,5,0,0
290047,-100,4,2,1,43,0,0
290561,-100,4,2,1,5,0,0
290732,-74.0740740740741,4,2,1,85,0,1
315418,-83.3333333333333,4,2,1,85,0,0
335990,-83.3333333333333,4,2,1,75,0,0
337018,-83.3333333333333,4,2,1,85,0,0
337361,-83.3333333333333,4,2,1,100,0,0
337447,-83.3333333333333,4,2,1,5,0,0

[Colours]
Combo1 : 255,172,89
Combo2 : 255,128,255
Combo3 : 91,165,255
Combo4 : 244,72,98

[HitObjects]
206,201,1361,5,0,1:0:0:0:
206,201,1704,2,0,P|158:209|122:205,1,67.5000025749208
68,188,2047,1,2,0:0:0:0:
240,120,2218,2,0,P|280:160|240:272,1,135.000005149842,0|2,0:0|0:0,0:0:0:0:
8,368,2904,5,2,0:0:0:0:
123,274,3247,1,2,0:0:0:0:
224,168,3590,5,0,0:0:0:0:
156,192,3761,1,2,0:0:0:0:
100,144,3932,1,0,0:0:0:0:
38,184,4104,6,0,P|106:216|168:174,1,135.000005149842,2|0,0:0|0:0,0:0:0:0:
208,244,4618,2,0,P|276:244|328:304,1,135.000005149842,2|0,0:0|0:0,0:0:0:0:
244,316,5132,1,2,0:0:0:0:
208,244,5304,1,0,0:0:0:0:
246,169,5475,5,0,0:0:0:0:
128,188,5647,2,0,P|64:176|0:128,1,135.000005149842,2|0,0:0|0:0,0:0:0:0:
116,40,6332,1,0,0:0:0:0:
164,96,6504,1,0,0:0:0:0:
212,160,6675,1,0,0:0:0:0:
340,140,6847,6,0,P|321:93|361:21,1,135.000005149842
412,92,7361,1,0,0:0:0:0:
416,180,7532,1,2,0:0:0:0:
260,196,7704,2,0,P|192:196|144:264,1,135.000005149842,0|2,0:0|0:0,0:0:0:0:
252,332,8390,5,2,0:0:0:0:
260,196,8732,1,2,0:0:0:0:
268,60,9075,1,0,0:0:0:0:
336,104,9247,1,2,0:0:0:0:
404,144,9418,1,0,0:0:0:0:
480,176,9590,6,0,L|454:43,1,135.000005149842,2|0,0:0|0:0,0:0:0:0:
264,108,10104,2,0,P|297:165|368:168,1,135.000005149842,2|0,0:0|0:0,0:0:0:0:
436,120,10618,1,2,0:0:0:0:
460,224,10790,1,0,0:0:0:0:
440,320,10961,6,0,L|395:323,1,45,2|0,0:0|0:0,0:0:0:0:
308,344,11304,2,0,L|304:299,1,45,2|0,0:0|0:0,0:0:0:0:
276,212,11647,2,0,L|320:208,1,45,2|0,0:0|0:0,0:0:0:0:
408,184,11990,2,0,L|411:228,1,45,0|2,0:0|0:0,0:0:0:0:
428,336,12332,5,0,1:0:0:0:
428,336,12675,2,0,P|372:328|328:336,1,67.5000025749208
268,352,13018,1,2,0:0:0:0:
64,304,13190,2,0,B|112:304|112:304|148:288|148:288|196:288,1,135.000005149842,0|2,0:0|0:0,0:0:0:0:
76,116,13875,5,2,0:0:0:0:
168,368,14218,1,2,0:0:0:0:
120,242,14561,1,0,0:0:0:0:
72,374,14732,1,2,0:0:0:0:
58,294,14904,1,0,0:0:0:0:
200,250,15075,6,0,P|188:190|104:162,1,135.000005149842,2|0,0:0|0:0,0:0:0:0:
152,340,15590,2,0,P|184:360|284:332,1,135.000005149842,2|0,0:0|0:0,0:0:0:0:
236,224,16104,2,0,P|217:280|218:312,1,67.5000025749208,2|0,0:0|0:0,0:0:0:0:
336,116,16447,5,0,0:0:0:0:
336,116,16618,2,0,P|264:80|196:84,1,135.000005149842,2|0,0:0|0:0,0:0:0:0:
460,180,17304,1,0,0:0:0:0:
416,120,17475,1,0,0:0:0:0:
420,44,17647,1,0,0:0:0:0:
484,8,17818,6,0,L|340:20,1,135.000005149842,0|2,0:0|0:0,0:0:0:0:
252,152,18332,1,0,0:0:0:0:
165,134,18504,1,2,0:0:0:0:
286,233,18675,2,0,P|335:189|336:124,1,135.000005149842,0|2,0:0|0:0,0:0:0:0:
165,134,19361,5,2,0:0:0:0:
352,36,19704,1,2,0:0:0:0:
396,264,20046,1,0,0:0:0:0:
356,184,20218,1,2,0:0:0:0:
312,260,20390,1,0,0:0:0:0:
348,340,20561,6,0,P|412:324|484:340,1,135.000005149842,2|0,0:0|0:0,0:0:0:0:
400,208,21075,2,0,P|336:224|264:208,1,135.000005149842,2|0,0:0|0:0,0:0:0:0:
184,160,21590,2,0,P|172:196|176:244,1,67.5000025749208,2|0,0:0|0:0,0:0:0:0:
360,132,21932,5,2,0:0:0:0:
269,210,22104,1,0,0:0:0:0:
400,208,22275,1,2,0:0:0:0:
272,132,22447,1,0,0:0:0:0:
264,288,22618,1,2,0:0:0:0:
400,208,22790,1,0,0:0:0:0:
196,172,22961,1,2,0:0:0:0:
192,248,23132,1,0,0:0:0:0:
132,304,23304,6,0,P|76:316|0:264,1,135.000005149842,4|2,1:0|0:0,0:0:0:0:
94,167,23818,2,0,P|150:155|226:207,1,135.000005149842,0|2,0:0|0:0,0:0:0:0:
257,347,24332,1,0,0:0:0:0:
293,225,24504,1,0,0:0:0:0:
244,96,24675,6,0,L|176:103,1,67.5000025749208,2|0,0:0|0:0,0:0:0:0:
88,216,25018,2,0,L|156:220,1,67.5000025749208
273,95,25361,2,0,P|269:129|256:160,1,67.5000025749208
63,194,25704,2,0,P|47:165|44:132,1,67.5000025749208,2|0,0:0|0:0,0:0:0:0:
120,268,26047,6,0,P|84:308|0:312,1,135.000005149842,2|0,0:0|0:0,0:0:0:0:
204,316,26561,2,0,P|269:317|317:362,1,135.000005149842,2|0,0:0|0:0,0:0:0:0:
352,248,27075,1,2,0:0:0:0:
317,362,27247,1,0,0:0:0:0:
452,240,27418,5,2,0:0:0:0:
452,240,27590,2,0,L|440:164,2,67.5000025749208
412,100,28104,2,0,L|420:32,1,67.5000025749208
364,160,28447,2,0,L|372:232,1,67.5000025749208
292,192,28790,6,0,B|284:124|284:124|344:68,1,135.000005149842,4|2,1:0|0:0,0:0:0:0:
220,228,29304,2,0,P|176:248|100:184,1,135.000005149842,0|2,0:0|0:0,0:0:0:0:
96,92,29818,1,0,0:0:0:0:
176,164,29990,1,0,0:0:0:0:
204,316,30161,6,0,P|152:320|112:304,1,67.5000025749208,2|0,0:0|0:0,0:0:0:0:
64,280,30504,1,0,0:0:0:0:
327,264,30675,2,0,L|324:332,1,67.5000025749208
336,188,31018,1,0,0:0:0:0:
344,112,31190,1,2,0:0:0:0:
352,36,31361,1,0,0:0:0:0:
352,128,31532,6,0,P|380:188|436:224,1,135.000005149842,2|0,0:0|0:0,0:0:0:0:
260,216,32047,2,0,P|231:156|176:120,1,135.000005149842,2|0,0:0|0:0,0:0:0:0:
100,92,32561,2,0,P|96:125|105:158,1,67.5000025749208,2|0,0:0|0:0,0:0:0:0:
228,8,32904,5,2,0:0:0:0:
216,92,33075,1,0,0:0:0:0:
308,24,33247,1,2,0:0:0:0:
296,108,33418,1,0,0:0:0:0:
395,163,33590,2,0,L|407:243,1,67.5000025749208,2|0,0:0|0:0,0:0:0:0:
472,134,33932,2,0,L|484:214,1,67.5000025749208,2|0,0:0|0:0,0:0:0:0:
310,298,34275,6,0,P|334:246|406:230,1,135.000005149842,4|2,1:0|0:0,0:0:0:0:
392,312,34790,2,0,L|232:328,1,135.000005149842,0|2,0:0|0:0,0:0:0:0:
168,328,35304,1,0,0:0:0:0:
148,144,35475,1,0,0:0:0:0:
188,231,35647,6,0,P|155:240|121:236,1,67.5000025749208,2|0,0:0|0:0,0:0:0:0:
41,179,35990,1,0,0:0:0:0:
248,104,36161,2,0,L|240:32,1,67.5000025749208
144,34,36504,1,0,0:0:0:0:
148,144,36675,1,2,0:0:0:0:
349,58,36847,1,0,0:0:0:0:
248,104,37018,6,0,P|232:168|244:248,1,135.000005149842,2|0,0:0|0:0,0:0:0:0:
436,252,37532,2,0,P|452:188|440:108,1,135.000005149842,2|0,0:0|0:0,0:0:0:0:
328,292,38047,1,2,0:0:0:0:
412,372,38218,1,0,0:0:0:0:
436,252,38390,5,2,0:0:0:0:
412,372,38561,2,0,P|472:368|496:356,1,67.5000025749208
328,292,38904,1,0,0:0:0:0:
256,216,39075,2,0,P|236:256|236:296,1,67.5000025749208
364,187,39418,2,0,P|361:153|351:122,1,67.5000025749208
440,193,39761,6,0,P|433:126|405:65,1,135.000005149842,4|2,1:0|0:0,0:0:0:0:
328,292,40275,2,0,P|368:336|448:352,1,135.000005149842,0|2,0:0|0:0,0:0:0:0:
440,224,40790,1,0,0:0:0:0:
352,160,40961,1,0,0:0:0:0:
260,220,41132,2,0,P|236:284|264:372,1,135.000005149842,2|0,0:0|0:0,0:0:0:0:
352,160,41647,2,0,P|341:107|266:108,1,135.000005149842
188,72,42161,2,0,P|184:116|196:152,1,67.5000025749208,2|0,0:0|0:0,0:0:0:0:
264,184,42504,6,0,P|236:216|128:200,1,135.000005149842,2|0,0:0|0:0,0:0:0:0:
280,296,43018,2,0,P|308:264|416:280,1,135.000005149842,2|0,0:0|0:0,0:0:0:0:
353,333,43532,1,2,0:0:0:0:
260,292,43704,1,0,0:0:0:0:
256,192,43875,5,0,0:0:0:0:
256,192,43961,12,0,45075,0:0:0:0:
256,172,45247,5,6,1:0:0:0:
332,176,45418,1,2,1:0:0:0:
296,108,45590,1,2,0:0:0:0:
216,240,45761,1,0,0:0:0:0:
368,240,45932,1,0,0:0:0:0:
256,172,46104,1,2,0:0:0:0:
332,316,46275,1,0,0:0:0:0:
408,172,46447,1,0,0:0:0:0:
292,248,46618,5,2,0:0:0:0:
216,252,46790,1,0,0:0:0:0:
148,228,46961,1,2,0:0:0:0:
108,164,47132,2,0,P|93:131|97:71,1,67.5000025749208,2|0,0:0|0:0,0:0:0:0:
176,20,47475,1,2,0:0:0:0:
292,40,47647,2,0,P|312:76|308:132,1,67.5000025749208
248,168,47990,6,0,L|240:96,1,67.5000025749208,2|0,0:0|0:0,0:0:0:0:
161,295,48332,2,0,L|169:222,1,67.5000025749208,2|2,0:0|0:0,0:0:0:0:
264,384,48675,2,0,L|256:316,1,67.5000025749208,0|2,0:0|0:0,0:0:0:0:
248,168,49018,1,0,0:0:0:0:
360,320,49190,1,0,0:0:0:0:
330,225,49361,6,0,P|366:221|414:237,1,67.5000025749208,2|0,0:0|0:0,0:0:0:0:
504,167,49704,2,0,P|489:200|456:235,1,67.5000025749208,2|2,0:0|0:0,0:0:0:0:
467,349,50047,2,0,P|445:319|435:269,1,67.5000025749208,0|2,0:0|0:0,0:0:0:0:
330,225,50390,2,0,L|324:293,1,67.5000025749208,0|2,0:0|0:0,0:0:0:0:
444,100,50732,5,2,1:0:0:0:
396,32,50904,1,2,1:0:0:0:
480,24,51075,1,2,0:0:0:0:
360,112,51247,1,0,0:0:0:0:
396,32,51418,1,0,0:0:0:0:
408,176,51590,1,2,0:0:0:0:
308,44,51761,1,0,0:0:0:0:
444,100,51932,1,0,0:0:0:0:
328,184,52104,5,2,0:0:0:0:
360,112,52275,1,0,0:0:0:0:
372,248,52447,1,2,0:0:0:0:
252,208,52618,2,0,L|256:120,1,67.5000025749208,2|0,0:0|0:0,0:0:0:0:
328,184,52961,1,2,0:0:0:0:
228,280,53132,1,0,0:0:0:0:
124,160,53304,1,0,0:0:0:0:
124,160,53390,1,0,0:0:0:0:
124,160,53475,6,0,P|128:120|152:92,1,67.5000025749208,2|0,0:0|0:0,0:0:0:0:
304,268,53818,2,0,P|296:316|280:336,1,67.5000025749208,2|2,0:0|0:0,0:0:0:0:
124,160,54161,2,0,L|57:167,2,67.5000025749208,0|2|0,0:0|0:0|0:0,0:0:0:0:
216,152,54675,1,0,0:0:0:0:
216,152,54761,1,0,0:0:0:0:
216,152,54847,5,2,0:0:0:0:
208,256,55018,1,0,0:0:0:0:
320,164,55190,1,2,0:0:0:0:
304,268,55361,1,2,0:0:0:0:
392,232,55532,5,0,0:0:0:0:
408,320,55704,1,2,0:0:0:0:
480,216,55875,1,0,0:0:0:0:
496,304,56047,1,0,0:0:0:0:
496,188,56218,5,2,1:0:0:0:
372,200,56390,1,2,1:0:0:0:
392,344,56561,1,2,0:0:0:0:
492,172,56732,1,0,0:0:0:0:
384,272,56904,1,0,0:0:0:0:
496,304,57075,1,2,0:0:0:0:
432,184,57247,1,0,0:0:0:0:
312,248,57418,1,0,0:0:0:0:
328,376,57590,5,2,0:0:0:0:
384,272,57761,1,0,0:0:0:0:
436,172,57932,1,2,0:0:0:0:
352,36,58104,2,0,L|360:104,1,67.5000025749208,2|0,0:0|0:0,0:0:0:0:
440,160,58447,1,2,0:0:0:0:
308,212,58618,1,0,0:0:0:0:
359,103,58790,1,0,0:0:0:0:
384,272,58961,5,2,1:0:0:0:
216,216,59132,1,2,0:0:0:0:
144,68,59304,2,0,P|168:12|196:-4,1,67.5000025749208,2|2,0:0|0:0,0:0:0:0:
314,60,59647,2,0,L|248:72,1,67.5000025749208,0|2,0:0|0:0,0:0:0:0:
144,164,59990,2,0,L|216:176,1,67.5000025749208,0|2,0:0|0:0,0:0:0:0:
109,68,60332,6,0,L|44:84,1,67.5000025749208,2|0,0:0|0:0,0:0:0:0:
157,230,60675,2,0,L|144:164,1,67.5000025749208,2|2,0:0|0:0,0:0:0:0:
78,343,61018,2,0,L|144:328,1,67.5000025749208,0|2,0:0|0:0,0:0:0:0:
24,194,61361,2,0,L|40:260,1,67.5000025749208
264,296,61704,6,0,P|320:308|352:348,1,90,4|2,1:0|0:0,0:0:0:0:
144,328,62047,2,0,P|105:370|64:376,1,90,0|2,1:0|0:0,0:0:0:0:
176,216,62390,2,0,P|158:161|176:120,1,90,0|2,1:3|0:0,0:3:0:0:
306,63,62732,1,0,1:0:0:0:
252,168,62904,1,2,0:0:0:0:
380,14,63075,6,0,P|336:22|300:48,1,90,0|2,1:0|0:0,0:0:0:0:
240,254,63418,2,0,P|256:212|252:168,1,90,0|2,1:0|0:0,0:0:0:0:
102,14,63761,2,0,P|131:49|172:68,1,90,0|2,1:0|0:0,0:0:0:0:
262,73,64104,1,2,1:0:0:0:
334,17,64275,1,2,1:0:0:0:
444,12,64447,5,0,1:0:0:0:
484,80,64618,1,2,1:2:0:0:
376,48,64790,1,0,1:0:0:0:
416,116,64961,1,2,1:2:0:0:
285,21,65132,5,0,1:0:0:0:
180,96,65304,1,2,1:2:0:0:
195,8,65475,1,0,1:0:0:0:
265,113,65647,1,2,1:2:0:0:
136,232,65818,5,2,0:1:0:0:
160,220,65904,1,2,0:1:0:0:
188,216,65990,1,2,0:1:0:0:
216,216,66075,1,2,0:1:0:0:
244,220,66161,5,2,0:1:0:0:
272,228,66247,1,2,0:1:0:0:
296,240,66332,1,2,0:1:0:0:
320,256,66418,1,2,0:1:0:0:
336,288,66504,5,2,0:1:0:0:
360,316,66590,1,2,0:1:0:0:
388,336,66675,1,2,0:1:0:0:
424,348,66761,1,2,0:1:0:0:
459,339,66847,6,0,P|469:298|464:270,1,67.5,10|0,0:0|0:0,0:0:0:0:
471,353,67190,6,0,P|479:269|455:217,1,135.000005149842,6|0,1:0|0:0,0:0:0:0:
372,172,67532,1,8,0:0:0:0:
356,292,67704,1,2,0:0:0:0:
440,92,67875,1,0,1:0:0:0:
328,84,68047,1,2,1:0:0:0:
464,200,68218,1,8,0:0:0:0:
288,224,68390,1,2,0:0:0:0:
288,224,68475,1,0,0:0:0:0:
288,224,68561,6,0,P|288:168|268:132,1,90,2|0,1:0|0:0,0:0:0:0:
140,44,68904,1,0,1:0:0:0:
28,200,69075,2,0,B|100:192|100:192|132:204|132:204|232:192,1,180,2|2,1:0|1:0,0:0:0:0:
385,136,69590,2,0,B|349:124|349:124|296:128,1,90,10|0,0:0|0:0,0:0:0:0:
384,220,69932,6,0,P|460:184|448:84,1,180,2|8,1:0|0:0,0:0:0:0:
342,63,70447,1,2,0:0:0:0:
342,63,70532,1,0,0:0:0:0:
342,63,70618,1,0,1:0:0:0:
384,220,70790,1,2,1:0:0:0:
459,97,70961,1,10,0:0:0:0:
280,136,71132,1,2,0:0:0:0:
280,136,71218,1,0,0:0:0:0:
280,136,71304,6,0,P|249:167|239:211,1,90,2|0,1:0|0:0,0:0:0:0:
332,220,71647,2,0,L|176:228,1,135,8|0,0:0|0:0,0:0:0:0:
180,244,71990,2,0,L|192:136,1,90,2|0,1:0|0:0,0:0:0:0:
135,311,72332,2,0,B|167:323|167:323|238:316,1,90,14|0,0:0|0:0,0:0:0:0:
76,184,72675,6,0,B|60:208|60:208|48:364,1,180,2|8,1:0|0:0,0:0:0:0:
135,311,73190,1,2,0:0:0:0:
180,244,73361,1,0,1:0:0:0:
296,284,73532,1,2,1:0:0:0:
368,256,73704,1,10,0:0:0:0:
336,164,73875,1,2,0:0:0:0:
336,164,73961,1,0,0:0:0:0:
336,164,74047,6,0,L|220:156,1,90,2|0,1:0|0:0,0:0:0:0:
132,148,74390,1,0,1:0:0:0:
368,256,74561,2,0,B|412:192|412:192|412:72,1,180,2|0,1:0|0:0,0:0:0:0:
132,148,75075,2,0,B|120:136|120:136|120:60,1,90,12|0,0:0|0:0,0:0:0:0:
228,48,75418,6,0,L|412:56,1,180,0|8,1:0|0:0,0:0:0:0:
448,172,75932,1,2,0:0:0:0:
448,172,76018,1,0,0:0:0:0:
448,172,76104,1,0,1:0:0:0:
296,176,76275,1,2,1:0:0:0:
228,48,76447,1,8,0:0:0:0:
300,184,76618,1,2,0:0:0:0:
212,300,76790,6,0,B|175:291|175:291|152:248|136:164,1,135,2|0,1:0|0:0,0:0:0:0:
120,200,77132,2,0,L|140:96,1,90,8|0,0:0|0:0,0:0:0:0:
136,111,77390,1,2,1:0:0:0:
136,111,77475,1,0,0:0:0:0:
328,72,77647,1,0,1:0:0:0:
300,184,77818,1,14,0:0:0:0:
412,144,77990,1,2,1:0:0:0:
264,252,78161,6,0,B|216:304|216:304|260:336|336:328,1,180,0|8,1:0|0:0,0:0:0:0:
300,184,78675,1,2,0:0:0:0:
192,216,78847,1,0,0:0:0:0:
344,248,79018,1,2,1:0:0:0:
264,116,79190,1,8,0:0:0:0:
144,276,79361,1,2,0:0:0:0:
144,276,79447,1,0,0:0:0:0:
144,276,79532,6,0,P|136:344|160:376,1,90,2|0,1:0|0:0,0:0:0:0:
308,316,79875,1,8,0:0:0:0:
300,184,80047,2,0,L|294:73,1,90,2|0,1:0|0:0,0:0:0:0:
292,8,80390,1,0,0:0:0:0:
448,120,80561,2,0,B|432:132|432:132|424:212,1,90,12|0,0:0|0:0,0:0:0:0:
492,360,80904,6,0,L|504:168,1,180,2|8,1:0|0:0,0:0:0:0:
396,48,81418,1,2,0:0:0:0:
396,48,81504,1,0,0:0:0:0:
396,48,81590,1,0,0:0:0:0:
337,212,81761,1,2,1:0:0:0:
148,201,81932,1,8,0:0:0:0:
242,232,82104,1,2,0:0:0:0:
406,135,82275,6,0,P|410:97|384:31,1,90,2|0,1:0|0:0,0:0:0:0:
312,12,82618,1,8,0:0:0:0:
286,224,82790,1,0,0:0:0:0:
286,224,82875,1,2,1:0:0:0:
274,98,83047,1,0,0:0:0:0:
274,98,83132,1,2,1:0:0:0:
160,257,83304,1,12,0:0:0:0:
84,157,83475,1,2,0:0:0:0:
154,56,83647,6,0,B|176:18|204:6|204:6|256:22|321:10,1,180,2|8,1:0|0:0,0:0:0:0:
448,32,84161,1,2,0:0:0:0:
388,136,84332,1,0,0:0:0:0:
456,240,84504,1,2,1:0:0:0:
340,244,84675,2,0,P|276:272|220:256,1,90,8|0,0:0|0:0,0:0:0:0:
104,240,85018,6,0,P|104:180|128:128,1,90,2|0,1:0|0:0,0:0:0:0:
160,48,85361,1,8,0:0:0:0:
20,12,85532,1,2,0:0:0:0:
20,12,85618,1,0,0:0:0:0:
20,12,85704,1,2,0:0:0:0:
160,48,85875,1,2,1:0:0:0:
36,120,86047,1,12,0:0:0:0:
160,48,86218,1,2,0:0:0:0:
272,64,86390,6,0,B|272:104|236:132|236:132|224:192|264:244,1,180,2|8,1:0|0:0,0:0:0:0:
392,240,86904,1,2,0:0:0:0:
364,136,87075,1,0,0:0:0:0:
316,264,87247,1,2,1:0:0:0:
464,208,87418,2,0,L|460:92,1,90,8|0,0:0|0:0,0:0:0:0:
456,4,87761,5,2,1:0:0:0:
368,148,87932,1,0,1:0:0:0:
332,32,88104,1,2,1:0:0:0:
464,208,88275,1,0,1:0:0:0:
316,264,88447,1,2,1:0:0:0:
448,108,88618,1,0,1:0:0:0:
404,320,88790,2,2,L|340:316,1,45
280,264,88961,2,2,L|235:266,1,45,2|2,1:2|1:2,1:2:0:0:
160,312,89132,5,6,1:0:0:0:
358,156,89475,2,0,P|394:152|450:160,1,90,10|0,0:0|0:0,0:0:0:0:
392,268,89818,1,0,0:0:0:0:
392,268,89990,1,2,0:1:0:0:
270,155,90161,1,8,0:0:0:0:
270,155,90332,1,0,0:0:0:0:
135,237,90504,5,2,0:1:0:0:
416,343,90847,1,8,0:0:0:0:
333,329,91018,2,0,P|297:333|241:325,1,90,2|0,0:0|0:0,0:0:0:0:
392,268,91361,5,2,0:1:0:0:
448,212,91532,1,8,0:0:0:0:
416,343,91704,1,2,0:0:0:0:
372,192,91875,6,0,L|388:100,1,90,2|0,0:1|0:0,0:0:0:0:
316,248,92218,1,8,0:0:0:0:
220,336,92390,2,0,L|236:244,1,90,2|0,0:0|0:0,0:0:0:0:
104,216,92732,1,2,0:1:0:0:
184,176,92904,2,0,L|200:84,1,90,10|0,0:0|0:0,0:0:0:0:
280,124,93247,5,2,1:0:0:0:
280,124,93590,2,0,B|376:120|376:120|408:84,2,135,8|2|2,0:0|0:1|0:1,0:0:0:0:
468,136,94275,2,0,L|400:224,1,90,8|0,0:0|0:0,0:0:0:0:
344,264,94618,5,2,0:1:0:0:
344,264,94961,2,0,L|328:164,1,90,10|0,0:0|0:0,0:0:0:0:
204,144,95304,1,0,0:0:0:0:
204,144,95475,1,2,0:1:0:0:
92,278,95647,1,8,0:0:0:0:
92,278,95818,1,0,0:0:0:0:
264,312,95990,5,2,0:0:0:0:
124,184,96332,1,8,0:0:0:0:
124,184,96504,2,0,L|108:84,1,90,2|0,0:0|0:0,0:0:0:0:
312,244,96847,5,2,0:1:0:0:
388,256,97018,1,8,0:0:0:0:
264,312,97190,1,2,0:0:0:0:
360,180,97361,6,0,L|344:80,1,90,2|0,0:1|0:0,0:0:0:0:
444,312,97704,1,8,0:0:0:0:
496,248,97875,2,0,L|480:148,1,90,2|0,0:0|0:0,0:0:0:0:
264,312,98218,1,2,0:1:0:0:
188,292,98390,2,0,L|172:192,1,90,10|0,0:0|0:0,0:0:0:0:
92,144,98732,6,0,L|76:44,1,90,2|0,0:1|0:0,0:0:0:0:
56,340,99075,2,0,L|40:240,1,90,8|0,0:0|0:0,0:0:0:0:
68,352,99418,1,2,0:1:0:0:
76,360,100104,6,0,L|184:352,1,90,2|0,1:0|0:0,0:0:0:0:
188,216,100447,2,0,L|296:208,1,90,10|0,0:0|0:0,0:0:0:0:
332,320,100790,1,0,0:0:0:0:
332,320,100961,1,2,0:1:0:0:
416,184,101132,1,8,0:0:0:0:
416,184,101304,1,0,0:0:0:0:
492,328,101475,5,2,0:1:0:0:
264,240,101818,1,8,0:0:0:0:
196,272,101990,2,0,L|216:160,1,90,2|0,0:0|0:0,0:0:0:0:
56,336,102332,5,2,0:1:0:0:
128,308,102504,1,8,0:0:0:0:
200,355,102675,1,2,0:0:0:0:
68,260,102847,6,0,L|88:148,1,90,2|0,0:1|0:0,0:0:0:0:
244,68,103190,1,8,0:0:0:0:
256,140,103361,2,0,L|276:28,1,90,2|0,0:0|0:0,0:0:0:0:
392,156,103704,1,2,0:1:0:0:
432,216,103875,2,0,L|452:104,1,90,10|0,0:0|0:0,0:0:0:0:
268,208,104218,5,2,1:0:0:0:
268,208,104561,2,0,B|220:228|220:228|128:224,2,135,8|2|2,0:0|0:1|0:1,0:0:0:0:
108,300,105247,2,0,L|208:304,1,90,8|0,0:0|0:0,0:0:0:0:
316,308,105590,5,2,0:1:0:0:
448,200,105932,2,0,L|420:112,1,90,10|0,0:0|0:0,0:0:0:0:
276,120,106275,1,0,0:0:0:0:
276,120,106447,1,2,0:1:0:0:
120,212,106618,1,8,0:0:0:0:
120,212,106790,1,0,0:0:0:0:
132,36,106961,5,2,0:1:0:0:
120,212,107304,1,8,0:0:0:0:
208,228,107475,2,0,L|180:140,1,90,2|0,0:0|0:0,0:0:0:0:
244,300,107818,5,2,0:1:0:0:
324,304,107990,1,8,0:0:0:0:
195,365,108161,1,2,0:0:0:0:
288,232,108332,6,0,L|260:144,1,90,2|0,0:1|0:0,0:0:0:0:
368,236,108675,1,8,0:0:0:0:
432,280,108847,2,0,L|404:192,1,90,2|0,0:0|0:0,0:0:0:0:
244,300,109190,1,2,0:1:0:0:
195,365,109361,2,0,L|167:277,1,90,10|0,0:0|0:0,0:0:0:0:
148,184,109704,5,2,1:0:0:0:
112,24,109875,1,0,0:0:0:0:
188,80,110047,2,0,P|144:108|92:112,1,90,8|2,0:0|0:0,0:0:0:0:
72,104,110304,2,0,L|68:160,1,45,2|0,1:0|0:0,0:0:0:0:
280,12,110561,1,2,1:0:0:0:
332,232,110732,2,0,L|340:328,1,90,8|0,0:0|0:0,0:0:0:0:
240,148,111075,5,2,1:0:0:0:
216,300,111246,1,2,0:0:0:0:
96,204,111418,1,8,0:0:0:0:
338,142,111590,2,0,L|330:258,1,90,2|0,0:0|0:0,0:0:0:0:
180,260,111932,1,2,0:1:0:0:
144,344,112104,2,0,P|196:348|264:284,1,135,8|0,0:0|0:0,0:0:0:0:
264,360,112447,6,0,L|354:354,1,90,2|0,0:1|0:0,0:0:0:0:
496,328,112790,1,8,0:0:0:0:
416,152,112961,1,0,0:0:0:0:
416,152,113047,1,0,0:0:0:0:
416,152,113132,1,0,0:0:0:0:
497,239,113304,2,0,P|503:283|495:328,1,90,2|8,0:1|0:0,0:0:0:0:
400,260,113647,1,0,0:0:0:0:
416,152,113818,5,2,0:1:0:0:
400,260,113990,1,2,0:0:0:0:
300,308,114161,1,8,0:0:0:0:
192,288,114332,2,0,P|176:240|196:180,1,90,2|0,0:0|0:0,0:0:0:0:
256,76,114675,1,2,0:1:0:0:
260,232,114847,2,0,B|324:240|324:240|396:176,1,135,8|0,0:0|0:0,0:0:0:0:
386,216,115190,6,0,P|394:159|334:83,1,135,2|0,0:1|0:0,0:0:0:0:
336,84,115532,2,0,L|492:88,2,135,8|2|2,0:0|0:1|0:1,0:0:0:0:
200,160,116218,1,8,0:0:0:0:
336,84,116390,1,2,0:0:0:0:
271,209,116561,5,2,0:1:0:0:
120,108,116732,1,2,0:0:0:0:
268,124,116904,1,8,0:0:0:0:
130,193,117075,2,0,P|74:185|50:161,1,90,2|0,0:0|0:0,0:0:0:0:
20,48,117418,1,2,0:1:0:0:
210,200,117590,2,0,P|178:260|126:272,1,90,8|0,0:0|0:0,0:0:0:0:
244,128,117932,6,0,L|340:144,1,90,2|2,0:1|0:0,0:0:0:0:
392,288,118275,1,8,0:0:0:0:
406,118,118447,2,0,L|394:2,1,90,2|0,0:0|0:0,0:0:0:0:
260,52,118790,1,2,0:1:0:0:
128,132,118961,2,0,P|139:188|184:228,1,90,8|0,0:0|0:0,0:0:0:0:
344,69,119304,6,0,P|302:29|243:22,1,90,2|2,0:1|0:0,0:0:0:0:
184,76,119647,1,8,0:0:0:0:
294,259,119818,2,0,P|332:217|338:157,1,90,2|0,0:0|0:0,0:0:0:0:
344,69,120161,1,2,0:1:0:0:
184,76,120332,2,0,P|140:132|120:208,1,135,8|0,0:0|0:0,0:0:0:0:
121,192,120675,6,0,P|72:204|24:200,1,90,2|0,0:1|0:0,0:0:0:0:
220,308,121018,2,0,P|269:296|317:300,1,90,8|0,0:0|0:0,0:0:0:0:
356,340,121275,2,0,L|372:224,1,90,2|0,1:0|0:0,0:0:0:0:
368,250,121532,1,2,0:1:0:0:
440,176,121704,2,0,P|448:248|388:264,1,135,12|0,0:0|0:0,0:0:0:0:
300,216,122047,6,0,L|308:112,1,90,4|2,0:0|0:0,0:0:0:0:
316,8,122390,1,8,0:0:0:0:
161,25,122561,2,0,P|173:85|201:117,1,90,2|0,0:0|0:0,0:0:0:0:
300,216,122904,1,2,0:1:0:0:
424,206,123075,2,0,P|412:146|384:114,1,90,8|0,0:0|0:0,0:0:0:0:
130,176,123418,6,0,P|110:228|154:300,1,135,2|0,0:1|0:0,0:0:0:0:
144,294,123761,2,0,P|154:340|150:384,1,90,8|0,0:0|0:0,0:0:0:0:
268,364,124104,1,0,0:0:0:0:
300,216,124275,1,2,0:1:0:0:
213,244,124447,1,8,0:0:0:0:
408,280,124618,1,0,0:0:0:0:
331,124,124790,6,0,P|318:81|283:54,1,90,2|2,0:1|0:0,0:0:0:0:
133,106,125132,1,8,0:0:0:0:
144,294,125304,2,0,P|186:280|213:245,1,90,2|0,0:0|0:0,0:0:0:0:
331,124,125647,1,2,0:1:0:0:
419,190,125818,2,0,P|461:204|488:239,1,90,8|0,0:0|0:0,0:0:0:0:
319,210,126161,6,0,B|315:162|315:162|343:94,1,90,2|0,0:1|0:0,0:0:0:0:
386,47,126504,1,8,0:0:0:0:
392,264,126675,1,0,0:0:0:0:
392,264,126761,1,2,0:1:0:0:
330,123,126932,1,0,0:0:0:0:
330,123,127018,1,2,0:1:0:0:
152,256,127190,1,8,0:0:0:0:
253,168,127361,1,0,0:0:0:0:
402,176,127532,6,0,B|450:180|474:164|474:164|442:36,1,180,2|8,0:1|0:0,0:0:0:0:
202,93,128047,2,0,B|154:89|130:105|130:105|162:233,1,180,2|2,0:0|0:1,0:0:0:0:
272,256,128561,1,8,0:0:0:0:
400,304,128732,1,0,0:0:0:0:
400,304,128818,1,0,0:0:0:0:
400,304,128904,6,0,P|440:288|480:244,1,90,2|0,0:1|0:0,0:0:0:0:
320,152,129247,1,8,0:0:0:0:
202,93,129418,2,0,L|102:97,1,90,2|0,0:0|0:0,0:0:0:0:
48,204,129761,1,2,0:1:0:0:
120,304,129932,2,0,L|128:184,1,90,8|0,0:0|0:0,0:0:0:0:
224,324,130275,6,0,B|276:348|328:320|328:320|376:328|420:364,1,180,2|8,0:1|0:0,0:0:0:0:
284,108,130790,2,0,B|232:84|180:112|180:112|132:104|88:68,1,180,2|2,0:0|0:1,0:0:0:0:
72,12,131304,1,8,0:0:0:0:
126,182,131475,1,0,0:0:0:0:
172,25,131647,5,2,1:0:0:0:
234,178,131818,1,0,0:0:0:0:
99,96,131990,1,0,1:0:0:0:
204,97,132161,5,0,0:0:0:0:
204,97,132247,1,2,1:0:0:0:
40,171,132418,1,0,0:0:0:0:
40,171,132504,1,2,1:0:0:0:
29,350,132675,2,0,B|65:366|97:358|97:358|141:346|189:370,1,135,12|0,0:0|0:0,0:0:0:0:
182,365,133018,5,6,0:0:0:0:
287,375,133190,1,0,0:0:0:0:
376,320,133361,1,8,0:0:0:0:
476,360,133532,1,2,0:0:0:0:
484,316,133618,1,0,0:0:0:0:
476,272,133704,1,2,0:0:0:0:
452,232,133790,1,0,0:0:0:0:
412,212,133875,1,2,0:1:0:0:
300,260,134047,1,8,0:0:0:0:
324,168,134218,1,2,0:0:0:0:
324,168,134304,1,0,0:0:0:0:
324,168,134390,5,2,0:1:0:0:
376,320,134561,1,2,0:1:0:0:
212,288,134732,1,8,0:0:0:0:
256,132,134904,1,2,0:0:0:0:
256,132,134990,1,0,0:0:0:0:
256,132,135075,2,0,L|264:80,1,45,2|0,0:0|0:0,0:0:0:0:
336,28,135247,2,0,P|356:32|384:44,1,45,2|0,0:1|0:0,0:0:0:0:
448,180,135418,6,0,L|455:230,1,45,0|0,1:0|0:0,0:0:0:0:
419,307,135590,2,0,P|398:315|376:319,1,45,0|0,1:0|0:0,0:0:0:0:
344,168,135761,5,2,0:1:0:0:
204,68,135932,1,2,0:0:0:0:
352,0,136104,1,10,0:0:0:0:
248,176,136275,1,0,0:0:0:0:
204,184,136361,1,0,0:0:0:0:
160,176,136447,1,2,0:0:0:0:
124,152,136532,1,0,0:0:0:0:
100,112,136618,1,2,0:1:0:0:
204,68,136790,1,8,0:0:0:0:
236,252,136961,1,2,0:0:0:0:
236,252,137047,1,0,0:0:0:0:
236,252,137132,5,2,0:1:0:0:
100,220,137304,1,2,0:1:0:0:
304,128,137475,1,8,0:0:0:0:
280,368,137647,1,2,0:0:0:0:
280,368,137732,1,0,0:0:0:0:
280,368,137818,2,0,L|268:324,1,45,2|0,0:0|0:0,0:0:0:0:
272,196,137990,2,0,P|232:200|216:204,1,45,2|2,0:1|0:1,0:0:0:0:
63,213,138161,5,0,1:0:0:0:
104,248,138247,1,0,1:0:0:0:
112,300,138333,1,0,1:0:0:0:
84,344,138418,1,0,1:0:0:0:
32,356,138504,5,0,1:2:0:0:
63,213,138675,1,2,0:0:0:0:
200,124,138847,1,8,0:0:0:0:
392,228,139018,1,0,0:0:0:0:
364,263,139104,1,0,0:0:0:0:
323,283,139190,1,2,0:0:0:0:
281,278,139275,1,0,0:0:0:0:
243,254,139361,1,2,0:1:0:0:
308,152,139532,1,10,0:0:0:0:
392,228,139704,1,2,0:0:0:0:
392,228,139790,1,0,0:0:0:0:
392,228,139875,5,2,0:1:0:0:
243,254,140047,1,2,0:1:0:0:
288,52,140218,1,8,0:0:0:0:
436,92,140390,1,2,0:0:0:0:
436,92,140475,1,0,0:0:0:0:
436,92,140561,2,0,L|392:72,1,45,2|0,0:0|0:0,0:0:0:0:
288,52,140732,2,0,L|247:70,1,45,2|0,0:1|0:0,0:0:0:0:
116,88,140904,6,0,P|116:116|124:140,1,45,0|0,1:0|0:0,0:0:0:0:
239,216,141075,2,0,P|244:194|243:171,1,45,0|0,1:0|0:0,0:0:0:0:
372,100,141247,5,6,0:0:0:0:
480,164,141418,1,0,0:0:0:0:
372,228,141590,1,8,0:0:0:0:
336,164,141761,5,6,0:0:0:0:
444,228,141932,1,0,0:0:0:0:
336,292,142104,1,0,0:0:0:0:
300,228,142275,5,12,0:0:0:0:
408,292,142446,1,0,0:0:0:0:
300,356,142618,1,4,0:0:0:0:
300,228,142790,5,0,1:0:0:0:
408,292,142961,1,2,1:0:0:0:
300,356,143132,1,0,1:0:0:0:
260,352,143218,1,0,1:0:0:0:
220,344,143304,5,0,0:0:0:0:
180,336,143390,1,0,0:0:0:0:
140,328,143475,1,0,0:0:0:0:
100,320,143561,1,0,0:0:0:0:
124,288,143647,6,0,L|144:216,1,67.5000025749208,0|0,1:0|0:0,1:0:0:0:
220,216,143818,2,0,L|232:176,3,33.7500012874604,0|0|0|0,1:0|1:0|1:0|1:0,1:0:0:0:
212,244,143990,6,0,B|256:241|256:241|284:112,1,161.999995056153,4|0,0:0|0:0,0:0:0:0:
296,56,144332,1,8,0:0:0:0:
184,88,144504,1,0,0:0:0:0:
368,132,144675,2,0,P|408:132|484:100,1,90,0|2,0:0|1:0,0:0:0:0:
381,316,145018,2,0,P|365:264|373:216,1,90,8|0,0:0|0:0,0:0:0:0:
455,117,145361,5,2,1:0:0:0:
476,300,145532,1,0,0:0:0:0:
476,300,145618,1,0,0:0:0:0:
476,300,145704,1,8,0:0:0:0:
372,180,145875,1,0,0:0:0:0:
504,224,146047,1,0,0:0:0:0:
412,348,146218,1,2,1:0:0:0:
220,284,146390,2,0,P|176:280|124:288,1,90,8|0,0:0|0:0,0:0:0:0:
24,324,146732,5,2,1:0:0:0:
29,197,146904,1,2,0:0:0:0:
130,286,147075,1,8,0:0:0:0:
149,161,147247,1,2,0:0:0:0:
225,335,147418,1,0,0:0:0:0:
257,212,147590,1,2,1:0:0:0:
128,212,147761,2,0,L|172:203,2,45,8|2|0,0:0|1:0|0:0,0:0:0:0:
48,228,148018,1,2,1:0:0:0:
48,228,148104,6,0,B|48:172|84:144|84:144|80:116|48:88,1,135,2|0,1:0|0:0,0:0:0:0:
4,64,148447,1,8,0:0:0:0:
128,212,148618,1,2,1:0:0:0:
192,90,148790,1,2,0:0:0:0:
292,184,148961,1,2,1:0:0:0:
332,67,149132,2,0,L|384:51,1,45,8|0,0:0|0:0,0:0:0:0:
431,113,149304,1,2,0:0:0:0:
268,4,149475,6,0,P|248:48|245:102,1,90,2|0,1:0|0:0,0:0:0:0:
411,282,149818,2,0,P|431:238|434:184,1,90,8|0,0:0|0:0,0:0:0:0:
332,40,150161,1,0,0:0:0:0:
244,172,150332,2,0,P|236:220|248:272,1,90,2|8,1:0|0:0,0:0:0:0:
476,324,150675,1,0,0:0:0:0:
336,272,150847,6,0,P|248:268|148:304,1,180,2|8,1:0|0:0,0:0:0:0:
80,375,151361,1,0,0:0:0:0:
175,202,151532,1,0,0:0:0:0:
154,341,151704,1,2,1:0:0:0:
122,267,151875,1,8,0:0:0:0:
232,364,152047,1,0,0:0:0:0:
40,300,152218,6,0,P|40:240|64:196,1,90,2|0,1:0|0:0,0:0:0:0:
165,70,152561,1,8,0:0:0:0:
286,96,152732,2,0,P|273:139|229:180,1,90,2|2,1:0|0:0,0:0:0:0:
135,190,153075,1,2,1:0:0:0:
380,24,153247,2,0,L|383:69,1,45,2|2,1:0|1:0,1:0:0:0:
280,244,153418,2,0,L|277:199,1,45,2|2,1:0|1:0,1:0:0:0:
368,172,153590,5,2,1:0:0:0:
472,284,153761,1,2,1:0:0:0:
466,108,153932,1,8,0:0:0:0:
304,208,154104,2,0,P|263:173|246:126,1,90,2|0,1:0|0:0,0:0:0:0:
256,28,154447,1,2,1:0:0:0:
416,144,154618,2,0,L|424:200,1,45,8|2,0:0|1:0,0:0:0:0:
360,356,154790,2,0,L|352:312,1,45,2|2,1:0|1:0,0:0:0:0:
244,256,154961,6,0,B|220:224|232:180|232:180|240:148|220:112,1,135,4|0,0:0|0:0,0:0:0:0:
156,92,155304,1,8,0:0:0:0:
304,208,155475,1,0,0:0:0:0:
143,187,155647,1,2,0:0:0:0:
301,31,155818,1,2,1:0:0:0:
368,152,155990,2,0,P|385:193|379:238,1,90,8|0,0:0|0:0,0:0:0:0:
272,336,156332,6,0,B|225:347|188:320|188:320|149:348|96:332,1,180,2|8,1:0|0:0,0:0:0:0:
38,244,156847,1,0,0:0:0:0:
252,246,157018,1,2,0:0:0:0:
143,187,157190,1,2,1:0:0:0:
272,336,157361,2,0,P|314:310|339:242,1,90,8|0,0:0|0:0,0:0:0:0:
364,184,157704,6,0,P|352:116|368:44,1,135,2|0,1:0|0:0,0:0:0:0:
436,24,158047,1,8,0:0:0:0:
452,140,158218,1,0,0:0:0:0:
288,256,158390,1,2,0:0:0:0:
296,140,158561,1,2,1:0:0:0:
265,32,158732,1,8,0:0:0:0:
228,58,158818,1,2,1:0:0:0:
185,72,158904,1,0,1:0:0:0:
139,70,158990,1,2,1:0:0:0:
101,46,159075,5,0,0:0:0:0:
104,184,159247,1,2,1:0:0:0:
185,72,159418,1,8,0:0:0:0:
48,120,159590,1,2,1:0:0:0:
184,152,159761,1,8,0:0:0:0:
128,260,159932,1,2,1:0:0:0:
20,260,160104,2,0,L|12:208,1,45,8|2,0:0|1:0,0:0:0:0:
140,276,160275,2,0,L|133:320,1,45,0|2,0:0|1:0,0:0:0:0:
60,344,160447,6,0,L|220:352,1,135,4|0,0:0|0:0,0:0:0:0:
274,353,160790,1,8,0:0:0:0:
444,246,160961,1,0,0:0:0:0:
383,342,161132,1,2,0:0:0:0:
321,157,161304,1,2,1:0:0:0:
464,255,161475,2,0,P|461:290|451:345,1,90,8|0,0:0|0:0,0:0:0:0:
392,184,161818,6,0,P|392:124|320:80,1,135,4|0,0:0|0:0,0:0:0:0:
254,103,162161,1,8,0:0:0:0:
337,242,162332,1,0,0:0:0:0:
240,200,162504,1,2,0:0:0:0:
483,144,162675,2,0,P|484:188|477:233,1,90,2|8,1:0|0:0,0:0:0:0:
426,309,163018,1,2,0:0:0:0:
297,350,163190,6,0,L|309:222,1,90,2|0,1:0|0:0,0:0:0:0:
322,125,163532,1,2,1:0:0:0:
164,16,163704,2,0,L|180:124,1,90,2|0,1:0|0:0,0:0:0:0:
197,238,164046,1,2,1:0:0:0:
197,238,164218,2,0,P|157:234|137:238,1,45,0|2,0:0|1:0,0:0:0:0:
113,310,164390,2,0,P|89:314|61:326,1,45,0|2,0:0|1:0,0:0:0:0:
35,381,164561,6,0,L|27:269,1,90,4|2,1:0|0:0,0:0:0:0:
101,223,164904,1,8,0:0:0:0:
197,238,165075,1,2,0:0:0:0:
113,310,165247,1,2,0:1:0:0:
96,136,165418,1,2,0:0:0:0:
240,128,165590,6,0,L|244:180,1,45,10|2,0:0|1:0,1:0:0:0:
304,232,165761,2,0,L|308:284,1,45,2|2,1:0|1:0,1:0:0:0:
304,352,165932,6,0,B|432:348|432:348|468:320,1,161.999995056153,6|0,1:0|0:0,0:0:0:0:
480,336,166275,2,0,L|473:204,1,90,10|0,0:0|0:0,0:0:0:0:
466,52,166618,1,0,0:0:0:0:
344,55,166790,1,2,1:0:0:0:
470,173,166961,1,8,0:0:0:0:
304,232,167132,6,0,L|288:136,1,90,2|2,0:0|1:0,0:0:0:0:
184,44,167475,2,0,P|244:36|288:44,1,90,2|8,0:0|0:0,0:0:0:0:
232,168,167818,1,2,0:0:0:0:
152,132,167990,1,0,0:0:0:0:
256,252,168161,1,2,1:0:0:0:
108,280,168332,1,10,0:0:0:0:
152,132,168504,1,2,0:0:0:0:
236,328,168675,6,0,P|284:324|332:280,1,90,0|0,1:0|0:0,0:0:0:0:
372,176,169018,1,8,0:0:0:0:
352,76,169190,1,2,0:0:0:0:
396,76,169275,1,2,0:0:0:0:
436,96,169361,1,2,0:0:0:0:
472,188,169532,1,2,1:0:0:0:
334,267,169704,2,0,L|424:276,1,90,8|0,0:0|0:0,0:0:0:0:
236,328,170047,6,0,P|164:320|96:336,1,135,2|0,1:0|0:0,0:0:0:0:
88,348,170390,2,0,L|88:224,1,90,8|0,0:0|0:0,0:0:0:0:
72,240,170647,2,0,L|72:188,1,45,2|0,1:0|0:0,0:0:0:0:
172,108,170904,1,2,1:0:0:0:
160,224,171075,1,10,0:0:0:0:
72,160,171247,1,0,0:0:0:0:
120,48,171418,6,0,P|160:32|224:48,1,90,4|0,0:0|0:0,0:0:0:0:
256,140,171761,1,8,0:0:0:0:
183,194,171932,2,0,P|167:141|187:75,1,90,2|0,0:0|0:0,0:0:0:0:
256,252,172275,1,2,1:0:0:0:
340,107,172447,2,0,P|343:151|328:194,1,90,8|0,0:0|0:0,0:0:0:0:
168,280,172790,6,0,P|108:240|104:168,1,135,2|0,1:0|0:0,0:0:0:0:
80,172,173132,2,0,L|92:72,1,90,8|2,0:0|0:0,0:0:0:0:
183,194,173475,1,0,0:0:0:0:
92,328,173647,1,2,1:0:0:0:
224,288,173818,1,10,0:0:0:0:
328,376,173990,1,0,0:0:0:0:
156,334,174161,6,0,P|140:270|166:229,1,90,2|0,1:0|0:0,0:0:0:0:
160,81,174504,2,0,L|264:85,1,90,8|0,0:0|0:0,0:0:0:0:
249,84,174761,1,0,0:0:0:0:
249,84,174847,1,2,0:0:0:0:
292,244,175018,2,0,L|396:240,1,90,2|10,1:0|0:0,0:0:0:0:
224,299,175361,1,0,0:0:0:0:
224,299,175447,1,0,0:0:0:0:
224,299,175532,6,0,P|212:223|224:183,1,90,2|0,1:0|0:0,0:0:0:0:
496,276,175875,2,0,P|484:332|460:372,1,90,8|2,0:0|0:0,0:0:0:0:
448,372,176132,2,0,P|416:372|392:368,1,45,2|0,1:0|0:0,0:0:0:0:
292,244,176390,1,0,1:0:0:0:
254,352,176561,1,10,0:0:0:0:
373,285,176732,1,0,0:0:0:0:
192,248,176904,6,0,P|128:264|32:204,1,180,4|8,0:0|0:0,0:0:0:0:
224,168,177418,1,0,0:0:0:0:
336,292,177590,1,2,0:0:0:0:
140,332,177761,1,2,1:0:0:0:
280,228,177932,1,8,0:0:0:0:
317,362,178104,6,0,L|213:350,1,90,2|2,0:0|1:0,0:0:0:0:
60,348,178447,1,2,0:0:0:0:
134,178,178618,2,0,L|238:166,1,90,8|2,0:0|0:0,0:0:0:0:
223,167,178875,1,0,0:0:0:0:
223,167,178961,1,2,0:0:0:0:
354,126,179132,1,2,1:0:0:0:
360,228,179304,1,8,0:0:0:0:
264,72,179475,1,0,0:0:0:0:
148,252,179647,6,0,P|88:240|60:200,1,90,2|0,1:0|0:0,0:0:0:0:
48,100,179990,1,8,0:0:0:0:
224,248,180161,2,0,P|224:308|208:340,1,90,2|0,0:0|0:0,0:0:0:0:
128,344,180504,1,2,1:0:0:0:
308,308,180675,2,0,L|416:316,1,90,8|0,0:0|0:0,0:0:0:0:
468,364,181018,6,0,P|428:328|476:268,1,135,2|0,1:0|0:0,0:0:0:0:
488,268,181361,1,8,0:0:0:0:
436,140,181532,1,0,0:0:0:0:
436,140,181618,1,2,1:0:0:0:
304,228,181790,1,0,0:0:0:0:
304,228,181875,1,2,1:0:0:0:
400,292,182047,1,10,0:2:0:0:
392,196,182218,1,0,0:0:0:0:
240,172,182390,6,0,P|220:228|324:312,1,180,4|8,0:0|0:0,0:0:0:0:
320,128,182904,1,0,0:0:0:0:
480,156,183075,2,0,L|472:52,1,90,2|2,0:0|1:0,0:0:0:0:
256,68,183418,1,8,0:0:0:0:
304,228,183590,1,0,0:0:0:0:
404,92,183761,6,0,L|188:104,1,180,2|8,1:0|0:0,0:0:0:0:
128,176,184275,1,0,0:0:0:0:
195,261,184447,1,2,0:0:0:0:
76,116,184618,1,2,1:0:0:0:
32,312,184790,1,10,0:0:0:0:
195,261,184961,1,0,0:0:0:0:
52,192,185132,6,0,L|60:376,1,180,2|8,1:0|0:0,0:0:0:0:
193,367,185647,1,2,0:0:0:0:
288,212,185818,1,2,0:0:0:0:
288,212,185904,1,0,0:0:0:0:
288,212,185990,1,2,1:0:0:0:
195,261,186161,1,8,0:0:0:0:
376,216,186332,2,0,P|396:200|416:172,1,45,0|0,1:0|0:0,0:0:0:0:
436,116,186504,5,2,1:0:0:0:
296,48,186675,1,0,1:0:0:0:
288,212,186847,1,2,1:0:0:0:
508,80,187018,1,2,1:0:0:0:
432,280,187190,1,0,1:0:0:0:
356,108,187361,1,0,1:0:0:0:
344,288,187532,1,2,1:0:0:0:
344,288,187618,1,2,1:0:0:0:
344,288,187704,1,2,1:0:0:0:
344,288,187790,1,2,1:0:0:0:
344,288,187875,5,2,0:0:0:0:
400,248,198847,5,2,0:0:0:0:
394,243,199990,6,0,L|336:248,2,45.0000017166138,0|2|2,0:0|0:0|0:0,0:0:0:0:
460,188,200904,5,0,0:0:0:0:
376,160,201132,5,2,0:0:0:0:
312,224,201361,5,0,0:0:0:0:
340,308,201590,5,2,0:0:0:0:
341,307,202275,1,0,0:0:0:0:
342,306,202961,1,2,0:0:0:0:
343,305,203647,1,0,0:0:0:0:
344,304,204332,5,2,0:0:0:0:
345,303,205475,6,0,L|391:307,2,45.0000017166138,0|2|2,0:0|0:0|0:0,0:0:0:0:
280,160,206390,5,0,0:0:0:0:
216,224,206618,5,2,0:0:0:0:
128,240,206847,5,0,0:0:0:0:
48,196,207075,5,2,0:0:0:0:
44,192,207761,1,0,0:0:0:0:
40,188,208447,1,2,0:0:0:0:
36,184,209132,2,0,B|104:164|176:192|176:192|236:212|304:188,1,270.000010299683,2|0,0:0|0:0,0:0:0:0:
335,123,210847,6,0,L|310:208,1,67.5
344,204,211190,6,0,P|225:197|177:213,1,161.999995056153,6|0,1:0|0:0,0:0:0:0:
144,228,211532,1,8,0:0:0:0:
221,303,211704,2,0,P|173:335|117:335,1,90,2|0,0:0|0:0,0:0:0:0:
36,288,212047,1,2,0:1:0:0:
184,60,212218,2,0,P|217:102|216:164,1,90,10|0,0:0|0:0,0:0:0:0:
136,132,212561,6,0,B|68:148|16:108|16:108|-12:148|20:184,1,180,2|8,1:0|0:0,0:0:0:0:
36,288,213075,1,0,0:0:0:0:
196,232,213247,2,2,L|192:300,1,45
192,356,213418,1,2,0:1:0:0:
120,256,213590,2,0,P|124:196|160:152,1,90,8|0,0:0|0:0,0:0:0:0:
256,224,213932,6,0,P|192:232|76:200,1,180,2|8,1:0|0:0,0:0:0:0:
236,116,214447,2,0,L|328:108,1,90,2|0,0:0|0:0,0:0:0:0:
120,60,214790,1,2,0:1:0:0:
55,184,214961,2,0,L|49:292,1,90,10|0,0:0|0:0,0:0:0:0:
41,371,215304,6,0,L|174:351,1,135,2|0,1:0|0:0,0:0:0:0:
189,371,215647,2,0,P|177:303|153:267,1,90,8|0,0:0|0:0,0:0:0:0:
264,80,215990,2,0,P|276:148|300:184,1,90,0|2,0:0|0:1,0:0:0:0:
370,202,216332,1,8,0:0:0:0:
352,88,216504,1,0,0:0:0:0:
299,258,216675,5,2,0:0:0:0:
452,132,216847,1,2,0:0:0:0:
285,165,217018,1,8,0:0:0:0:
366,326,217190,2,0,P|405:346|450:348,1,90,2|0,0:0|0:0,0:0:0:0:
463,230,217532,1,2,0:1:0:0:
436,110,217704,2,0,P|396:89|351:87,1,90,10|0,0:0|0:0,0:0:0:0:
240,104,218047,6,0,P|184:108|88:92,1,135,2|0,0:0|0:0,0:0:0:0:
84,88,218390,1,8,0:0:0:0:
112,200,218561,2,0,P|120:256|112:304,1,90,2|0,0:0|0:0,0:0:0:0:
76,368,218904,1,2,0:1:0:0:
224,272,219075,2,0,P|272:256|336:264,1,90,8|0,0:0|0:0,0:0:0:0:
348,348,219418,6,0,B|312:336|264:348|264:348|216:364|144:336,1,180,2|8,0:0|0:0,0:0:0:0:
248,148,219932,2,0,B|284:160|332:148|332:148|380:132|452:160,1,180,2|2,0:0|1:0,0:0:0:0:
368,224,220447,1,8,0:0:0:0:
288,64,220618,1,0,0:0:0:0:
456,244,220790,6,0,P|424:296|380:308,1,90,2|0,1:0|0:0,0:0:0:0:
200,224,221132,2,0,B|168:216|168:216|56:268,1,135,8|0,0:0|0:0,0:0:0:0:
56,268,221475,1,0,0:0:0:0:
170,345,221647,1,2,0:1:0:0:
296,368,221818,2,0,P|308:304|272:240,1,135,12|0,0:0|0:0,0:0:0:0:
216,320,222161,6,0,L|352:312,1,135,4|0,0:0|0:0,0:0:0:0:
372,312,222504,1,8,0:0:0:0:
464,260,222675,2,0,P|476:328|464:364,1,90,2|0,0:0|0:0,0:0:0:0:
400,192,223018,1,2,0:1:0:0:
392,100,223190,2,0,L|432:-16,1,90,10|0,0:0|0:0,0:0:0:0:
312,152,223532,6,0,L|128:168,1,180,2|8,1:0|0:0,0:0:0:0:
33,88,224047,2,0,L|25:156,1,45,2|2,0:0|0:0,0:0:0:0:
18,209,224218,1,0,0:0:0:0:
184,128,224390,1,2,0:1:0:0:
273,238,224561,2,0,L|285:346,1,90,8|0,0:0|0:0,0:0:0:0:
172,296,224904,6,0,B|120:292|76:316|76:316|28:288|40:236,1,180,2|8,1:0|0:0,0:0:0:0:
263,156,225418,2,0,B|312:152|340:191|340:191|367:139|418:137,1,180,2|2,0:0|0:1,0:0:0:0:
328,360,225932,1,8,0:0:0:0:
273,238,226104,1,0,0:0:0:0:
296,84,226275,6,0,P|311:27|333:-1,1,90,2|0,1:0|0:0,0:0:0:0:
449,1,226618,1,8,0:0:0:0:
378,124,226790,2,0,L|378:180,1,45,2|0,0:0|0:0,0:0:0:0:
403,243,226961,1,2,0:0:0:0:
263,156,227132,1,2,1:0:0:0:
502,219,227304,2,0,P|498:287|482:323,1,90,8|0,0:0|0:0,0:0:0:0:
328,336,227647,6,0,B|284:352|240:336|240:336|188:320|120:344,1,180,2|8,0:0|0:0,0:0:0:0:
112,184,228161,2,0,B|156:168|200:184|200:184|256:212|320:176,1,180,2|2,0:0|0:1,0:0:0:0:
248,112,228675,1,8,0:0:0:0:
156,256,228847,1,2,0:0:0:0:
160,96,229018,6,0,L|52:92,1,90,2|0,0:0|0:0,0:0:0:0:
72,256,229361,1,8,0:0:0:0:
237,22,229532,2,0,L|252:146,1,90,2|0,0:0|0:0,0:0:0:0:
266,242,229875,1,2,0:1:0:0:
336,128,230047,2,0,P|384:104|400:12,1,135,8|0,0:0|0:0,0:0:0:0:
392,12,230390,6,0,P|439:7|491:23,1,90,2|0,0:0|0:0,0:0:0:0:
476,176,230732,1,8,0:0:0:0:
396,284,230904,2,0,L|288:264,1,90,2|0,0:0|0:0,0:0:0:0:
136,336,231247,2,0,L|244:316,2,90,2|8|0,0:1|0:0|0:0,0:0:0:0:
143,214,231761,5,2,1:0:0:0:
293,178,231932,1,2,1:0:0:0:
121,131,232104,1,2,1:0:0:0:
225,233,232275,1,2,1:0:0:0:
227,106,232447,6,0,L|222:48,1,45,0|0,1:0|0:0,0:0:0:0:
285,16,232618,2,0,P|309:16|345:32,1,45,0|0,1:0|0:0,0:0:0:0:
375,84,232790,2,0,L|378:128,1,45,0|0,1:0|0:0,0:0:0:0:
419,235,232961,2,0,L|423:191,1,45,0|0,1:0|0:0,0:0:0:0:
448,56,233132,5,6,0:0:0:0:
496,188,233304,1,2,0:0:0:0:
332,232,233475,1,8,0:0:0:0:
408,272,233647,1,0,0:0:0:0:
376,304,233733,1,0,0:0:0:0:
332,316,233818,1,2,0:0:0:0:
288,304,233904,1,0,0:0:0:0:
256,272,233990,1,2,0:1:0:0:
300,156,234161,1,10,0:0:0:0:
176,252,234332,1,2,0:0:0:0:
176,252,234418,1,0,0:0:0:0:
176,252,234504,5,2,0:1:0:0:
332,232,234675,1,2,0:1:0:0:
236,104,234847,1,8,0:0:0:0:
204,332,235018,1,2,0:0:0:0:
160,336,235104,1,0,0:0:0:0:
120,316,235190,2,0,P|96:288|92:264,1,45,2|0,0:0|0:0,0:0:0:0:
112,192,235361,2,0,L|116:132,1,45,2|0,0:1|0:0,0:0:0:0:
245,60,235532,6,0,P|239:96|233:109,1,45,0|0,1:0|0:0,0:0:0:0:
192,200,235704,2,0,L|194:244,1,45,0|0,1:0|0:0,0:0:0:0:
204,332,235875,5,0,0:0:0:0:
320,284,236047,1,2,0:0:0:0:
332,160,236218,1,10,0:0:0:0:
416,208,236390,1,0,0:0:0:0:
452,180,236475,1,0,0:0:0:0:
468,140,236561,1,2,0:0:0:0:
464,96,236647,1,0,0:0:0:0:
432,64,236732,1,2,0:1:0:0:
332,160,236904,1,10,0:0:0:0:
332,8,237075,1,2,0:0:0:0:
332,8,237161,1,0,0:0:0:0:
332,8,237247,5,2,0:1:0:0:
332,160,237418,1,2,0:1:0:0:
168,116,237590,1,8,0:0:0:0:
220,16,237761,1,2,0:0:0:0:
220,16,237847,1,0,0:0:0:0:
220,16,237932,2,0,L|224:72,1,45
288,116,238104,2,0,L|284:172,1,45
252,264,238275,5,0,1:0:0:0:
208,232,238361,1,0,1:0:0:0:
152,232,238447,1,0,1:0:0:0:
104,252,238532,1,0,1:0:0:0:
76,300,238618,5,0,1:0:0:0:
168,332,238790,1,2,0:0:0:0:
164,156,238961,1,8,0:0:0:0:
264,188,239132,1,2,0:0:0:0:
304,208,239218,1,0,0:3:0:0:
324,248,239304,1,0,0:3:0:0:
320,292,239390,1,0,0:3:0:0:
292,328,239475,1,2,0:1:0:0:
208,232,239647,1,10,0:0:0:0:
396,232,239818,1,2,0:0:0:0:
396,232,239904,1,0,0:0:0:0:
396,232,239990,5,2,0:1:0:0:
292,328,240161,1,2,0:1:0:0:
264,188,240332,1,8,0:0:0:0:
452,168,240504,1,2,0:0:0:0:
452,168,240590,1,0,0:0:0:0:
452,168,240675,2,0,L|448:232,1,45,2|0,0:0|0:0,0:0:0:0:
380,120,240847,2,0,L|376:72,1,45,2|0,0:1|0:0,0:0:0:0:
284,120,241018,6,0,P|256:116|236:120,1,45,0|0,1:0|0:0,0:0:0:0:
240,260,241190,2,0,P|268:264|288:260,1,45,0|0,1:0|0:0,0:0:0:0:
92,168,241361,5,4,0:0:0:0:
164,344,241532,1,2,0:0:0:0:
68,244,241704,1,8,0:0:0:0:
116,144,241875,5,4,0:0:0:0:
164,344,242047,1,0,0:0:0:0:
192,200,242218,1,0,0:0:0:0:
140,124,242390,5,12,0:0:0:0:
164,344,242561,1,0,0:0:0:0:
68,244,242732,1,2,1:0:0:0:
268,156,242904,1,2,1:0:0:0:
284,288,243075,1,0,1:0:0:0:
428,276,243247,1,2,0:0:0:0:
428,276,243332,1,2,0:0:0:0:
428,276,243418,6,0,P|376:272|348:260,1,67.5000025749208,0|0,1:0|0:0,1:0:0:0:
301,213,243590,2,0,P|275:176|264:141,1,67.5000025749208,0|0,1:0|0:0,0:0:0:0:
256,76,243761,1,0,0:0:0:0:
256,76,243847,1,0,0:0:0:0:
256,76,243932,2,0,L|280:76|300:76,4,33.7500012874604,0|0|0|0|4,0:0|0:0|0:0|0:0|0:1,0:0:0:0:
245,181,244447,5,0,0:0:0:0:
245,181,244618,2,0,P|165:165|133:105,1,135.000005149842
316,144,245132,2,0,L|328:240,1,67.5000025749208,2|0,0:1|0:0,0:0:0:0:
296,292,245475,5,0,0:0:0:0:
360,344,245647,1,0,0:0:0:0:
436,228,245818,1,2,0:1:0:0:
500,344,245990,1,0,0:0:0:0:
360,344,246161,2,0,L|364:268,1,67.5000025749208
436,228,246504,2,0,L|432:152,1,67.5000025749208,0|2,0:0|0:1,0:0:0:0:
428,64,246847,1,0,0:0:0:0:
300,65,247190,5,0,0:0:0:0:
300,65,247361,2,0,P|364:45|438:72,1,135.000005149842,2|2,0:1|0:1,0:0:0:0:
228,128,247875,2,0,L|212:40,1,67.5000025749208,2|0,0:1|0:0,0:0:0:0:
140,128,248218,5,0,0:0:0:0:
184,204,248390,1,0,0:0:0:0:
64,208,248561,1,2,0:1:0:0:
128,316,248732,1,0,0:0:0:0:
268,344,248904,2,0,L|360:344,1,67.5000025749208,0|2,0:0|0:1,0:0:0:0:
404,256,249247,2,0,L|312:256,1,67.5000025749208
336,256,249504,1,0,0:0:0:0:
336,256,249590,1,2,0:1:0:0:
409,128,249932,5,0,0:0:0:0:
409,128,250104,2,0,P|425:188|393:268,1,135.000005149842
328,120,250618,2,0,L|344:32,1,67.5000025749208,2|0,0:1|0:0,0:0:0:0:
432,44,250961,5,0,0:0:0:0:
409,128,251132,1,0,0:0:0:0:
252,108,251304,1,2,0:1:0:0:
308,260,251475,1,0,0:0:0:0:
212,216,251647,2,0,P|204:276|208:296,1,67.5000025749208,0|2,0:0|0:1,0:0:0:0:
408,284,251990,2,0,P|408:250|400:217,1,67.5000025749208,2|2,0:1|0:1,0:1:0:0:
148,128,252332,1,2,0:1:0:0:
53,195,252675,5,0,0:0:0:0:
53,195,252847,2,0,P|121:183|145:111,1,135.000005149842,2|0,0:1|0:0,0:0:0:0:
56,280,253361,2,0,L|68:360,1,67.5000025749208,2|0,0:1|0:0,0:0:0:0:
192,344,253704,5,0,0:0:0:0:
256,192,253875,1,2,0:1:0:0:
298,269,254047,1,2,0:1:0:0:
347,341,254218,1,0,0:0:0:0:
420,292,254390,2,0,L|476:240,1,67.5000025749208,0|2,0:0|0:1,0:0:0:0:
456,136,254732,2,0,L|406:181,1,67.5000025749208
406,181,254990,1,0,0:0:0:0:
406,181,255075,1,2,0:1:0:0:
279,180,255418,5,0,0:0:0:0:
279,180,255590,2,0,P|347:160|415:188,1,135.000005149842
216,248,256104,2,0,L|192:156,1,67.5000025749208,2|0,0:1|0:0,0:0:0:0:
184,96,256447,5,0,0:0:0:0:
264,48,256618,1,0,0:0:0:0:
364,120,256790,1,2,0:1:0:0:
372,0,256961,1,0,0:0:0:0:
272,144,257132,2,0,P|296:188|320:208,1,67.5000025749208
432,236,257475,2,0,P|408:280|384:300,1,67.5000025749208,0|2,0:0|0:1,0:0:0:0:
296,320,257818,1,2,0:1:0:0:
178,337,258161,5,0,0:0:0:0:
178,337,258332,2,0,P|220:304|300:324,1,135.000005149842,2|2,0:1|0:1,0:0:0:0:
96,320,258847,2,0,L|104:228,1,67.5000025749208,2|0,0:1|0:0,0:0:0:0:
112,164,259190,5,0,0:0:0:0:
32,176,259361,1,0,0:0:0:0:
96,84,259532,1,2,0:1:0:0:
16,96,259703,1,0,0:0:0:0:
168,108,259875,2,0,L|252:112,1,67.5000025749208,0|2,0:0|0:1,0:0:0:0:
296,172,260218,2,0,L|363:168,1,67.5000025749208
363,168,260475,1,0,0:0:0:0:
363,168,260561,1,2,0:1:0:0:
168,108,260904,5,2,1:0:0:0:
112,180,261075,1,0,0:0:0:0:
240,152,261247,1,8,0:0:0:0:
36,140,261418,1,0,0:0:0:0:
116,260,261590,2,0,P|160:244|188:220,1,67.5000025749208,2|0,1:0|0:0,0:0:0:0:
36,60,261932,5,0,0:0:0:0:
40,220,262104,1,0,0:0:0:0:
112,180,262275,1,2,1:0:0:0:
124,340,262447,1,0,0:0:0:0:
200,204,262618,2,0,P|208:252|204:276,1,67.5000025749208,8|2,0:0|0:1,0:0:0:0:
48,372,262961,2,0,P|48:316|64:288,1,67.5000025749208,2|2,1:0|0:1,0:0:0:0:
205,270,263304,6,0,P|257:266|313:242,1,90,4|0,0:0|0:0,0:0:0:0:
376,204,263647,1,8,0:0:0:0:
300,120,263818,1,0,0:0:0:0:
296,84,263904,1,0,0:0:0:0:
284,48,263990,2,0,P|272:20|260:-4,1,45
212,100,264161,1,0,0:0:0:0:
376,204,264332,1,8,0:0:0:0:
384,124,264504,2,0,P|384:84|372:56,1,45
352,12,264675,5,2,1:0:0:0:
300,120,264847,1,2,1:0:0:0:
464,88,265018,1,10,2:0:0:0:
284,48,265190,5,2,0:0:0:0:
244,68,265275,1,8,0:0:0:0:
224,108,265361,1,2,0:0:0:0:
232,152,265447,1,8,0:0:0:0:
264,184,265532,2,0,P|280:212|284:236,1,45,2|2,0:1|0:1,0:0:0:0:
288,304,265704,5,8,0:0:0:0:
272,348,265790,1,8,0:0:0:0:
244,384,265875,2,0,L|232:352,4,22.5,8|8|8|8|4,0:0|0:0|0:0|0:0|0:0,0:0:0:0:
387,251,287990,6,0,P|381:144|144:256,1,495,4|0,0:3|0:3,0:3:0:0:
212,231,290047,6,0,P|296:151|296:255,1,270,4|0,3:0|0:0,0:0:0:0:
304,248,290732,6,0,B|150:216|150:216|104:232,1,182.250000695229,6|0,1:0|0:0,0:0:0:0:
48,256,291075,2,0,L|56:124,1,121.500000463486,8|0,0:0|0:0,0:0:0:0:
64,40,291418,1,2,0:0:0:0:
268,144,291590,1,2,1:0:0:0:
152,152,291761,1,8,0:0:0:0:
296,40,291932,1,0,0:0:0:0:
392,176,292104,6,0,B|384:224|408:268|408:268|392:328|428:384,1,182.250000695229,2|0,1:0|0:0,0:0:0:0:
488,304,292447,1,8,0:0:0:0:
304,272,292618,1,0,0:0:0:0:
504,204,292790,1,2,0:0:0:0:
296,360,292961,2,0,P|236:366|164:364,1,121.500000463486,2|8,1:0|0:0,0:0:0:0:
60,320,293304,1,2,0:0:0:0:
68,172,293475,6,0,P|136:196|176:236,1,121.500000463486,2|2,1:0|0:0,0:0:0:0:
412,60,293818,2,0,P|344:84|304:124,1,121.500000463486,8|2,0:0|0:0,0:0:0:0:
408,172,294161,1,2,0:0:0:0:
220,56,294332,1,2,1:0:0:0:
472,220,294504,1,2,1:0:0:0:
428,252,294590,1,2,1:0:0:0:
376,244,294675,1,2,1:0:0:0:
336,204,294761,1,2,1:0:0:0:
336,148,294847,6,0,L|204:152,1,121.500000463486,2|0,1:0|0:0,0:0:0:0:
104,152,295190,1,10,0:0:0:0:
256,252,295361,1,2,1:0:0:0:
76,236,295532,1,0,1:0:0:0:
256,336,295704,1,2,1:0:0:0:
88,128,295875,2,0,L|180:120,1,60.7500002317429,8|2,0:0|1:0,0:0:0:0:
300,56,296047,2,2,L|208:48,1,60.7500002317429,2|2,0:0|1:0,0:0:0:0:
160,40,296218,6,0,L|172:224,1,182.250000695229,2|0,1:0|0:0,0:0:0:0:
180,312,296561,2,0,P|256:340|304:340,1,121.500000463486,8|0,0:0|0:0,0:0:0:0:
264,220,296904,1,2,0:0:0:0:
496,192,297075,1,2,1:0:0:0:
352,248,297247,1,8,0:0:0:0:
376,96,297418,1,0,0:0:0:0:
424,296,297590,6,0,B|372:324|372:324|304:324|304:324|224:368,1,182.250000695229,2|0,1:0|0:0,0:0:0:0:
164,356,297932,2,0,P|168:280|160:228,1,121.500000463486,8|0,0:0|0:0,0:0:0:0:
112,100,298275,1,2,0:0:0:0:
84,248,298447,1,2,1:0:0:0:
220,140,298618,1,0,1:0:0:0:
52,164,298790,1,0,0:0:0:0:
296,76,298961,6,0,B|312:132|312:132|296:208,1,121.500000463486,2|0,1:0|0:0,0:0:0:0:
20,304,299304,2,0,B|4:248|4:248|20:172,1,121.500000463486,10|2,0:0|1:0,0:0:0:0:
112,100,299647,1,2,0:0:0:0:
265,234,299818,1,2,1:0:0:0:
140,384,299990,1,2,1:0:0:0:
116,348,300075,1,2,1:0:0:0:
112,304,300161,1,2,1:0:0:0:
120,260,300247,1,2,1:0:0:0:
144,228,300332,6,0,L|292:236,1,121.500000463486,2|2,1:0|0:0,0:0:0:0:
440,244,300675,1,8,0:0:0:0:
392,156,300847,2,0,P|344:216|436:340,1,243.000000926971,2|2,1:0|1:0,0:0:0:0:
504,168,301361,2,0,L|420:176,1,60.7500002317429,2|2,1:0|1:0,1:0:0:0:
332,96,301532,2,0,L|271:90,1,60.7500002317429,2|2,1:0|1:0,1:0:0:0:
232,192,301704,6,0,P|160:120|192:16,1,182.250000695229,6|0,1:0|0:0,0:0:0:0:
156,4,302047,2,0,L|316:12,1,121.500000463486,8|0,0:0|0:0,0:0:0:0:
380,208,302390,1,2,0:0:0:0:
268,304,302561,1,2,1:0:0:0:
332,96,302732,1,8,0:0:0:0:
380,352,302904,1,0,0:0:0:0:
108,344,303075,6,0,B|48:348|-4:288|-4:288|27:298|60:296,1,182.250000695229,2|0,1:0|0:0,0:0:0:0:
124,272,303418,1,8,0:0:0:0:
296,280,303590,1,0,0:0:0:0:
188,344,303761,1,2,0:0:0:0:
212,176,303932,1,2,1:0:0:0:
308,264,304104,1,8,0:0:0:0:
332,96,304275,1,0,0:0:0:0:
448,208,304447,6,0,L|440:348,1,121.500000463486,2|2,1:0|0:0,0:0:0:0:
144,264,304790,2,0,P|136:188|164:124,1,121.500000463486,8|0,0:0|0:0,0:0:0:0:
240,76,305132,1,2,0:0:0:0:
264,216,305304,1,2,1:0:0:0:
240,76,305475,1,2,1:0:0:0:
280,56,305561,1,2,1:0:0:0:
324,56,305647,1,2,1:0:0:0:
364,72,305732,1,2,1:0:0:0:
400,96,305818,6,0,P|457:73|528:84,1,121.500000463486,2|2,1:0|0:0,0:0:0:0:
345,253,306161,1,8,0:0:0:0:
472,184,306332,1,2,1:0:0:0:
472,336,306504,1,2,0:0:0:0:
376,176,306675,1,2,1:0:0:0:
264,248,306847,2,0,P|270:290|294:322,1,60.7500002317429,2|2,1:0|1:0,0:0:0:0:
348,352,307018,2,0,P|359:311|351:271,1,60.7500002317429,2|2,1:0|1:0,0:0:0:0:
192,292,307190,6,0,B|140:280|104:308|104:308|120:240|64:188,1,182.250000695229,6|0,1:0|0:0,0:0:0:0:
32,272,307532,1,8,0:0:0:0:
280,140,307704,1,0,0:0:0:0:
116,104,307875,1,2,0:0:0:0:
228,256,308047,1,2,1:0:0:0:
325,33,308218,2,0,L|204:40,1,121.500000463486,8|0,0:0|0:0,0:0:0:0:
416,136,308561,6,0,B|408:208|336:216|336:216|340:256|376:292,1,182.250000695229,2|0,1:0|0:0,0:0:0:0:
420,312,308904,1,8,0:0:0:0:
500,136,309075,1,0,0:0:0:0:
332,136,309247,1,2,0:0:0:0:
432,328,309418,1,2,1:0:0:0:
332,136,309590,2,0,P|272:164|244:228,1,121.500000463486,8|0,0:0|0:0,0:0:0:0:
120,320,309932,6,0,L|104:196,1,121.500000463486,2|0,1:0|0:0,0:0:0:0:
88,84,310275,1,8,0:0:0:0:
361,239,310447,2,0,P|297:235|241:207,1,121.500000463486,2|0,1:0|0:0,0:0:0:0:
340,88,310790,1,2,1:0:0:0:
456,220,310961,1,2,1:0:0:0:
312,312,311132,2,0,P|272:304|240:292,1,60.7500002317429,2|2,1:0|1:0,0:0:0:0:
164,324,311304,6,0,P|100:320|36:352,1,121.500000463486,2|0,1:0|1:0,0:0:0:0:
176,180,311647,2,0,P|180:120|176:52,1,121.500000463486,8|0,0:0|1:0,0:0:0:0:
68,120,311990,1,2,1:0:0:0:
296,180,312161,1,2,1:0:0:0:
72,244,312332,1,2,1:0:0:0:
320,80,312504,1,2,1:0:0:0:
320,80,312590,1,2,1:0:0:0:
320,80,312675,6,0,P|352:136|400:172,1,121.500000463486,2|0,1:0|0:0,1:0:0:0:
512,220,313018,1,8,0:0:0:0:
260,232,313190,2,0,B|221:233|221:233|136:284,1,121.500000463486,2|2,1:0|1:2,0:0:0:0:
104,360,313532,1,2,1:2:0:0:
44,180,313704,1,8,0:0:0:0:
172,84,313875,1,2,1:2:0:0:
340,168,314047,5,2,1:0:0:0:
88,372,314218,1,2,0:0:0:0:
184,60,314390,1,8,0:0:0:0:
304,364,314561,1,2,0:0:0:0:
24,184,314732,1,2,0:0:0:0:
360,152,314904,1,2,1:0:0:0:
492,292,315075,5,2,1:0:0:0:
436,272,315161,1,2,1:0:0:0:
408,220,315247,1,2,1:0:0:0:
412,160,315332,1,2,1:0:0:0:
440,116,315418,6,0,B|360:112|360:112|312:128|312:128|200:120,1,215.999993408203,6|8,1:0|0:0,0:0:0:0:
108,116,315932,1,2,0:0:0:0:
300,48,316104,2,0,B|348:32|348:32|428:36,1,107.999996704102,2|2,0:0|1:0,0:0:0:0:
512,44,316447,1,8,0:0:0:0:
408,220,316618,1,2,0:0:0:0:
212,188,316790,6,0,P|207:132|224:65,1,107.999996704102,2|2,1:0|0:0,0:0:0:0:
304,264,317132,1,8,0:0:0:0:
125,266,317304,2,0,P|92:220|73:153,1,107.999996704102,2|2,0:0|0:0,0:0:0:0:
94,125,317561,1,0,0:0:0:0:
131,93,317647,1,2,1:0:0:0:
336,188,317818,1,2,1:2:0:0:
197,318,317990,1,2,0:0:0:0:
301,116,318161,6,0,P|354:109|400:136,1,107.999996704102,2|2,1:0|0:0,0:0:0:0:
392,260,318504,1,8,0:0:0:0:
232,232,318675,1,2,0:0:0:0:
184,232,318761,1,2,0:0:0:0:
140,248,318847,2,0,P|116:268|100:288,2,53.9999983520508,2|0|2,0:0|0:0|1:0,0:0:0:0:
336,188,319190,1,10,0:0:0:0:
372,344,319361,1,0,0:0:0:0:
460,216,319532,6,0,B|460:136|460:136|432:104,1,107.999996704102,0|0,1:0|0:0,0:0:0:0:
372,36,319875,1,8,0:0:0:0:
308,120,320047,1,2,0:0:0:0:
308,120,320132,1,2,0:0:0:0:
308,120,320218,2,0,L|380:120,1,53.9999983520508
441,114,320390,1,2,1:0:0:0:
212,56,320561,2,0,B|212:136|212:136|232:172,1,107.999996704102,8|2,0:0|0:0,0:0:0:0:
276,280,320904,6,0,P|196:264|148:372,1,215.999993408203,2|8,1:0|0:0,0:0:0:0:
282,151,321418,1,2,0:0:0:0:
308,120,321504,1,2,0:0:0:0:
316,80,321590,2,0,P|321:53|316:12,2,53.9999983520508,2|0|2,0:2|0:0|1:0,0:0:0:0:
512,152,321932,1,8,0:0:0:0:
424,28,322104,1,2,0:0:0:0:
348,236,322275,6,0,P|352:332|360:376,1,107.999996704102,2|0,1:0|0:0,0:0:0:0:
208,152,322618,2,0,P|207:98|202:44,1,107.999996704102,8|0,0:0|0:0,0:0:0:0:
244,20,322875,1,0,0:0:0:0:
292,32,322961,2,0,P|328:36|360:36,1,53.9999983520508,2|0,0:0|0:0,0:0:0:0:
424,28,323132,1,2,1:0:0:0:
152,16,323304,1,8,0:0:0:0:
296,132,323475,1,0,0:0:0:0:
144,92,323647,6,0,P|84:60|80:4,1,107.999996704102,2|0,1:0|0:0,0:0:0:0:
244,20,323990,1,8,0:0:0:0:
87,196,324161,2,0,P|85:228|90:253,1,53.9999983520508,2|2,0:0|0:0,0:0:0:0:
173,284,324332,2,0,P|187:312|204:331,2,53.9999983520508,2|0|2,0:0|0:0|1:0,0:0:0:0:
182,188,324675,1,8,0:0:0:0:
256,265,324847,1,2,0:0:0:0:
364,292,325018,6,0,P|424:280|488:340,1,107.999996704102,2|0,1:0|0:0,0:0:0:0:
320,216,325361,1,8,0:0:0:0:
412,352,325532,1,2,0:0:0:0:
412,352,325618,1,2,0:0:0:0:
412,352,325704,1,0,0:0:0:0:
320,216,325875,1,2,1:0:0:0:
456,196,326047,2,0,B|456:120|456:120|412:56,1,107.999996704102,8|2,0:0|0:0,0:0:0:0:
235,154,326390,6,0,P|139:166|112:48,1,215.999993408203,2|8,1:0|0:0,0:0:0:0:
180,91,326904,1,2,0:0:0:0:
180,256,327075,2,0,P|196:320|232:352,1,107.999996704102,2|2,0:0|1:0,0:0:0:0:
384,184,327418,1,8,0:0:0:0:
292,256,327590,1,0,0:0:0:0:
472,292,327761,6,0,L|480:144,1,107.999996704102,2|0,1:0|0:0,0:0:0:0:
484,52,328104,1,8,0:0:0:0:
380,144,328275,1,2,0:0:0:0:
380,144,328361,1,2,0:0:0:0:
380,144,328447,1,2,0:0:0:0:
232,60,328618,1,2,1:0:0:0:
408,32,328790,1,8,0:0:0:0:
348,224,328961,1,2,0:0:0:0:
188,159,329132,6,0,P|244:167|284:127,1,107.999996704102,2|0,1:0|0:0,0:0:0:0:
240,36,329475,1,8,0:0:0:0:
88,160,329647,2,0,L|92:232,1,53.9999983520508,2|2,0:0|0:0,0:0:0:0:
168,252,329818,2,0,L|164:328,2,53.9999983520508,2|2|2,0:0|0:0|1:0,0:0:0:0:
188,159,330161,1,8,0:0:0:0:
268,284,330332,1,2,0:0:0:0:
368,120,330504,6,0,P|428:108|484:144,1,107.999996704102,2|0,1:0|0:0,0:0:0:0:
348,224,330847,1,8,0:0:0:0:
188,159,331018,1,2,0:0:0:0:
188,159,331104,1,2,0:0:0:0:
188,159,331190,1,2,0:0:0:0:
268,284,331361,1,2,1:0:0:0:
52,212,331532,2,0,P|40:159|59:85,1,107.999996704102,8|2,0:0|0:0,0:0:0:0:
184,156,331875,6,0,P|248:156|304:8,1,215.999993408203,2|8,1:0|0:0,0:0:0:0:
220,64,332390,2,0,P|188:68|140:60,1,53.9999983520508,2|2,0:0|0:0,0:0:0:0:
344,108,332561,2,0,P|376:104|424:108,2,53.9999983520508,2|0|2,0:0|0:0|1:0,0:0:0:0:
184,156,332904,1,8,0:0:0:0:
376,192,333075,1,0,0:0:0:0:
492,348,333247,6,0,B|408:348|408:348|356:320,1,107.999996704102,2|0,1:0|0:0,0:0:0:0:
300,248,333590,1,8,0:0:0:0:
200,316,333761,1,2,0:0:0:0:
200,316,333847,1,2,0:0:0:0:
200,316,333932,1,2,0:0:0:0:
104,264,334104,1,2,1:0:0:0:
200,316,334275,1,8,0:0:0:0:
20,324,334447,1,2,0:0:0:0:
116,160,334618,6,0,P|168:144|188:68,1,107.999996704102,2|0,1:0|0:0,0:0:0:0:
188,0,334961,1,8,0:0:0:0:
120,84,335132,1,2,0:0:0:0:
120,84,335218,1,2,0:0:0:0:
120,84,335304,2,0,L|216:84,1,53.9999983520508,2|0,0:0|0:0,0:0:0:0:
272,128,335475,2,0,L|392:128,1,107.999996704102,2|8,1:0|0:0,0:0:0:0:
340,212,335818,1,2,0:0:0:0:
340,212,335904,1,2,0:0:0:0:
340,212,335990,5,0,1:0:0:0:
256,312,336161,1,2,1:2:0:0:
364,360,336332,1,0,1:0:0:0:
256,168,336504,1,2,1:2:0:0:
148,360,336675,1,0,1:0:0:0:
428,176,336847,1,0,1:0:0:0:
84,176,337018,5,2,1:0:0:0:
56,228,337104,1,2,1:0:0:0:
60,288,337190,1,2,1:0:0:0:
92,340,337275,1,2,1:0:0:0:
148,360,337361,5,6,1:0:0:0:
256,192,337447,12,0,342847,0:0:0:0:
