osu file format v14

[General]
AudioFilename: koi.mp3
AudioLeadIn: 2000
PreviewTime: 76464
Countdown: 0
SampleSet: Soft
StackLeniency: 0.7
Mode: 3
LetterboxInBreaks: 0
SpecialStyle: 0
WidescreenStoryboard: 0

[Editor]
Bookmarks: 30479
DistanceSpacing: 0.5
BeatDivisor: 4
GridSize: 4
TimelineZoom: 1.8

[Metadata]
Title:Koi no Serenade
TitleUnicode:恋のセレナーデ
Artist:Halozy
ArtistUnicode:Halozy
Creator:17VA
Version:Insane
Source:東方Project
Tags:Nitori Kawashiro Touhou Tonic Triangle ZUN Mountain of Faith The Gensokyo the Gods Loved Sumijun c81 Hotaru
BeatmapID:690817
BeatmapSetID:308944

[Difficulty]
HPDrainRate:8.5
CircleSize:7
OverallDifficulty:8
ApproachRate:8
SliderMultiplier:1.8
SliderTickRate:2

[Events]
//Background and Video events
0,0,"BG.jpg",0,0
//Break Periods
//Storyboard Layer 0 (Background)
//Storyboard Layer 1 (Fail)
//Storyboard Layer 2 (Pass)
//Storyboard Layer 3 (Foreground)
//Storyboard Sound Samples

[TimingPoints]
293,468.75,4,2,1,30,1,0
15293,-100,4,2,1,30,0,1
15410,-100,4,2,1,30,0,0
77168,-100,4,2,1,30,0,1
92050,-100,4,2,1,30,0,0
92168,-100,4,2,1,30,0,1
107168,-100,4,2,1,30,0,0

[Colours]
Combo1 : 251,156,51
Combo2 : 158,206,254
Combo3 : 252,116,204

[HitObjects]
36,192,293,5,0,0:0:0:0:
182,192,527,1,0,0:0:0:0:
329,192,761,1,0,0:0:0:0:
402,192,761,1,0,0:0:0:70:clap.wav
475,192,761,1,0,0:0:0:0:
109,192,996,1,0,0:0:0:0:
36,192,1230,1,0,0:0:0:0:
182,192,1464,1,0,0:0:0:0:
475,192,1699,1,0,0:0:0:0:
402,192,1699,1,0,0:0:0:70:clap.wav
329,192,1699,1,0,0:0:0:0:
256,192,1933,1,0,0:0:0:0:
36,192,2168,1,0,0:0:0:0:
182,192,2168,1,0,0:0:0:0:
109,192,2402,1,0,0:0:0:0:
256,192,2402,1,0,0:0:0:0:
182,192,2636,1,0,0:0:0:0:
329,192,2636,1,0,0:0:0:0:
402,192,2636,1,0,0:0:0:70:clap.wav
475,192,2636,1,0,0:0:0:0:
109,192,2871,128,0,3574:0:0:0:0:
36,192,3105,1,0,0:0:0:0:
329,192,3339,1,0,0:0:0:0:
402,192,3339,1,0,0:0:0:70:clap.wav
475,192,3339,1,0,0:0:0:0:
329,192,3574,1,0,0:0:0:0:
402,192,3574,1,0,0:0:0:70:clap.wav
475,192,3574,1,0,0:0:0:0:
256,192,3808,1,0,0:0:0:0:
36,192,4043,1,0,0:0:0:0:
182,192,4277,1,0,0:0:0:0:
329,192,4511,1,0,0:0:0:0:
402,192,4511,1,0,0:0:0:70:clap.wav
475,192,4511,1,0,0:0:0:0:
109,192,4746,1,0,0:0:0:0:
36,192,4980,1,0,0:0:0:0:
182,192,5214,1,0,0:0:0:0:
329,192,5449,1,0,0:0:0:0:
402,192,5449,1,0,0:0:0:70:clap.wav
475,192,5449,1,0,0:0:0:0:
256,192,5683,1,0,0:0:0:0:
36,192,5918,1,0,0:0:0:0:
182,192,5918,1,0,0:0:0:0:
256,192,6152,1,0,0:0:0:0:
109,192,6152,1,0,0:0:0:0:
329,192,6386,1,0,0:0:0:0:
402,192,6386,1,0,0:0:0:70:clap.wav
475,192,6386,1,0,0:0:0:0:
36,192,6386,1,0,0:0:0:0:
182,192,6621,128,0,7324:0:0:0:0:
36,192,6855,1,0,0:0:0:0:
329,192,7089,1,0,0:0:0:0:
402,192,7089,1,0,0:0:0:70:clap.wav
475,192,7089,1,0,0:0:0:0:
329,192,7324,1,0,0:0:0:0:
402,192,7324,1,0,0:0:0:70:clap.wav
475,192,7324,1,0,0:0:0:0:
256,192,7558,1,0,0:0:0:0:
182,192,7793,1,0,0:0:0:0:
329,192,8027,1,0,0:0:0:0:
36,192,8261,1,0,0:0:0:0:
182,192,8261,1,0,0:0:0:0:
109,192,8261,1,0,0:0:0:70:clap.wav
402,192,8496,1,0,0:0:0:0:
109,192,8730,1,0,0:0:0:0:
256,192,8964,1,0,0:0:0:0:
36,192,9199,1,0,0:0:0:0:
109,192,9199,1,0,0:0:0:70:clap.wav
182,192,9199,1,0,0:0:0:0:
402,192,9433,1,0,0:0:0:0:
182,192,9668,1,0,0:0:0:0:
329,192,9668,1,0,0:0:0:0:
256,192,9902,1,0,0:0:0:0:
402,192,9902,1,0,0:0:0:0:
182,192,10136,1,0,0:0:0:0:
475,192,10136,1,0,0:0:0:0:
36,192,10136,1,0,0:0:0:0:
109,192,10136,1,0,0:0:0:70:clap.wav
329,192,10371,128,0,11074:0:0:0:0:
475,192,10605,1,0,0:0:0:0:
36,192,10839,1,0,0:0:0:0:
109,192,10839,1,0,0:0:0:70:clap.wav
182,192,10839,1,0,0:0:0:0:
36,192,11074,1,0,0:0:0:0:
109,192,11074,1,0,0:0:0:70:clap.wav
182,192,11074,1,0,0:0:0:0:
256,192,11308,1,0,0:0:0:0:
36,192,11543,1,0,0:0:0:0:
182,192,11777,1,0,0:0:0:0:
329,192,12011,1,0,0:0:0:0:
402,192,12011,1,0,0:0:0:70:clap.wav
475,192,12011,1,0,0:0:0:0:
109,192,12246,1,0,0:0:0:0:
36,192,12480,1,0,0:0:0:0:
182,192,12714,1,0,0:0:0:0:
329,192,12949,1,0,0:0:0:0:
402,192,12949,1,0,0:0:0:70:clap.wav
475,192,12949,1,0,0:0:0:0:
256,192,13183,1,0,0:0:0:0:
36,192,13418,1,0,0:0:0:0:
182,192,13418,1,0,0:0:0:0:
109,192,13652,1,0,0:0:0:0:
256,192,13652,1,0,0:0:0:0:
182,192,13886,1,0,0:0:0:0:
329,192,13886,1,0,0:0:0:0:
402,192,13886,1,0,0:0:0:70:clap.wav
475,192,13886,1,0,0:0:0:0:
256,192,14121,128,0,14824:0:0:0:0:
475,192,14355,1,0,0:0:0:0:
36,192,14355,1,0,0:0:0:0:
402,192,14589,1,0,0:0:0:0:
329,192,14824,128,0,15293:0:0:0:0:
36,192,15293,1,0,0:0:0:70:cymbol.wav
182,192,15293,1,0,0:0:0:0:
475,192,15293,1,0,0:0:0:0:
256,192,15293,1,0,0:0:0:70:bass.wav
109,192,15527,1,0,0:0:0:70:hihat.wav
329,192,15527,1,0,0:0:0:0:
182,192,15644,1,0,0:0:0:70:hihat.wav
402,192,15644,1,0,0:0:0:0:
256,192,15761,1,0,0:0:0:0:
475,192,15761,1,0,0:0:0:70:clap.wav
36,192,15761,1,0,0:0:0:0:
402,192,15996,1,0,0:0:0:0:
182,192,15996,1,0,0:0:0:70:hihat.wav
475,192,16113,1,0,0:0:0:0:
36,192,16230,1,0,0:0:0:0:
329,192,16230,1,0,0:0:0:0:
182,192,16464,1,0,0:0:0:70:hihat.wav
256,192,16582,1,0,0:0:0:70:hihat.wav
329,192,16699,1,0,0:0:0:70:clap.wav
36,192,16699,1,0,0:0:0:0:
475,192,16699,1,0,0:0:0:0:
182,192,16933,1,0,0:0:0:70:hihat.wav
329,192,16933,1,0,0:0:0:0:
36,192,17168,1,0,0:0:0:0:
182,192,17168,1,0,0:0:0:0:
475,192,17168,1,0,0:0:0:0:
329,192,17402,1,0,0:0:0:70:hihat.wav
256,192,17519,1,0,0:0:0:70:hihat.wav
402,192,17636,1,0,0:0:0:70:clap.wav
36,192,17636,1,0,0:0:0:0:
182,192,17636,1,0,0:0:0:0:
256,192,17871,1,0,0:0:0:70:hihat.wav
475,192,17871,1,0,0:0:0:0:
36,192,18105,1,0,0:0:0:0:
182,192,18105,1,0,0:0:0:0:
329,192,18339,1,0,0:0:0:0:
402,192,18339,1,0,0:0:0:70:clap.wav
475,192,18339,1,0,0:0:0:0:
182,192,18339,1,0,0:0:0:0:
109,192,18457,1,0,0:0:0:70:hihat.wav
329,192,18574,1,0,0:0:0:0:
36,192,18574,1,0,0:0:0:0:
402,192,18574,1,0,0:0:0:70:clap.wav
475,192,18574,1,0,0:0:0:0:
182,192,18808,1,0,0:0:0:70:hihat.wav
36,192,19043,1,0,0:0:0:0:
109,192,19043,1,0,0:0:0:0:
256,192,19043,1,0,0:0:0:0:
475,192,19043,1,0,0:0:0:0:
182,192,19277,1,0,0:0:0:0:
329,192,19277,1,0,0:0:0:70:hihat.wav
256,192,19394,1,0,0:0:0:0:
402,192,19394,1,0,0:0:0:70:hihat.wav
329,192,19511,1,0,0:0:0:0:
475,192,19511,1,0,0:0:0:0:
36,192,19511,1,0,0:0:0:70:clap.wav
182,192,19746,1,0,0:0:0:70:hihat.wav
329,192,19863,1,0,0:0:0:0:
36,192,19980,1,0,0:0:0:0:
475,192,19980,128,0,20214:0:0:0:0:
182,192,20214,1,0,0:0:0:70:hihat.wav
402,192,20214,128,0,20449:0:0:0:0:
256,192,20332,1,0,0:0:0:70:hihat.wav
475,192,20449,1,0,0:0:0:0:
36,192,20449,1,0,0:0:0:70:clap.wav
329,192,20449,128,0,20683:0:0:0:0:
109,192,20683,1,0,0:0:0:70:hihat.wav
256,192,20683,128,0,20918:0:0:0:0:
475,192,20918,1,0,0:0:0:0:
36,192,20918,1,0,0:0:0:0:
182,192,20918,1,0,0:0:0:0:
402,192,21152,1,0,0:0:0:70:hihat.wav
182,192,21152,1,0,0:0:0:0:
329,192,21269,1,0,0:0:0:70:hihat.wav
109,192,21269,1,0,0:0:0:0:
36,192,21386,1,0,0:0:0:70:clap.wav
256,192,21386,1,0,0:0:0:0:
475,192,21386,1,0,0:0:0:0:
182,192,21621,1,0,0:0:0:0:
402,192,21621,1,0,0:0:0:70:hihat.wav
36,192,21855,1,0,0:0:0:0:
182,192,21855,1,0,0:0:0:0:
475,192,22089,1,0,0:0:0:0:
402,192,22089,1,0,0:0:0:70:clap.wav
329,192,22089,1,0,0:0:0:0:
109,192,22089,1,0,0:0:0:0:
182,192,22207,1,0,0:0:0:70:hihat.wav
36,192,22324,1,0,0:0:0:0:
402,192,22324,1,0,0:0:0:70:clap.wav
329,192,22324,1,0,0:0:0:0:
475,192,22324,1,0,0:0:0:0:
109,192,22558,1,0,0:0:0:0:
256,192,22558,1,0,0:0:0:70:hihat.wav
256,192,22793,128,0,26074:0:0:0:0:
36,192,22793,1,0,0:0:0:70:bass.wav
475,192,22793,128,0,23027:0:0:0:0:
402,192,23027,1,0,0:0:0:70:hihat.wav
475,192,23144,1,0,0:0:0:70:hihat.wav
36,192,23261,1,0,0:0:0:70:bass.wav
329,192,23261,128,0,23496:0:0:0:0:
475,192,23496,128,0,23730:0:0:0:70:hihat.wav
36,192,23730,1,0,0:0:0:70:bass.wav
402,192,23730,128,0,24199:0:0:0:0:
329,192,23964,1,0,0:0:0:70:hihat.wav
182,192,24082,1,0,0:0:0:0:
36,192,24199,1,0,0:0:0:70:bass.wav
329,192,24199,128,0,24433:0:0:0:0:
475,192,24433,128,0,24668:0:0:0:70:hihat.wav
402,192,24668,128,0,24902:0:0:0:0:
36,192,24668,1,0,0:0:0:70:bass.wav
329,192,24902,1,0,0:0:0:70:hihat.wav
402,192,25019,1,0,0:0:0:70:hihat.wav
329,192,25136,128,0,25605:0:0:0:0:
36,192,25136,1,0,0:0:0:70:bass.wav
475,192,25371,128,0,25605:0:0:0:70:hihat.wav
402,192,25605,1,0,0:0:0:0:
36,192,25605,1,0,0:0:0:70:bass.wav
329,192,25839,1,0,0:0:0:0:
402,192,25839,1,0,0:0:0:70:clap.wav
475,192,25839,1,0,0:0:0:0:
329,192,26074,1,0,0:0:0:0:
402,192,26074,1,0,0:0:0:70:clap.wav
475,192,26074,1,0,0:0:0:0:
36,192,26074,1,0,0:0:0:70:bass.wav
182,192,26308,1,0,0:0:0:70:hihat.wav
36,192,26543,1,0,0:0:0:70:bass.wav
475,192,26543,1,0,0:0:0:0:
256,192,26543,1,0,0:0:0:0:
109,192,26777,1,0,0:0:0:70:bass.wav
402,192,26777,1,0,0:0:0:0:
182,192,27011,1,0,0:0:0:70:bass.wav
329,192,27011,1,0,0:0:0:0:
109,192,27246,1,0,0:0:0:70:bass.wav
402,192,27246,1,0,0:0:0:0:
36,192,27480,1,0,0:0:0:70:bass.wav
256,192,27480,1,0,0:0:0:0:
256,192,27714,1,0,0:0:0:70:bass.wav
475,192,27714,1,0,0:0:0:0:
36,192,27949,1,0,0:0:0:0:
182,192,27949,1,0,0:0:0:70:bass.wav
329,192,28183,1,0,0:0:0:70:bass.wav
475,192,28183,1,0,0:0:0:0:
36,192,28418,1,0,0:0:0:0:
256,192,28418,1,0,0:0:0:70:bass.wav
329,192,28535,1,0,0:0:0:70:bass.wav
475,192,28535,1,0,0:0:0:0:
109,192,28652,1,0,0:0:0:0:
256,192,28652,1,0,0:0:0:70:bass.wav
329,192,28769,1,0,0:0:0:70:bass.wav
475,192,28769,1,0,0:0:0:0:
36,192,28886,1,0,0:0:0:0:
182,192,28886,1,0,0:0:0:70:bass.wav
475,192,29003,1,0,0:0:0:0:
329,192,29003,1,0,0:0:0:70:bass.wav
36,192,29121,1,0,0:0:0:0:
182,192,29121,1,0,0:0:0:70:bass.wav
475,192,29238,1,0,0:0:0:0:
329,192,29238,1,0,0:0:0:70:bass.wav
256,192,29355,1,0,0:0:0:0:
109,192,29355,128,0,29824:0:0:0:70:01.wav
329,192,29589,128,0,30058:0:0:0:0:
182,192,29707,1,0,0:0:0:70:bass.wav
36,192,29824,1,0,0:0:0:70:bass.wav
36,192,30058,1,0,0:0:0:70:bass.wav
475,192,30293,128,0,30644:0:0:0:0:
36,192,30293,1,0,0:0:0:70:bass.wav
182,192,30293,1,0,0:0:0:0:
329,192,30293,1,0,0:0:0:70:cymbol.wav
256,192,30527,1,0,0:0:0:70:hihat.wav
402,192,30644,128,0,31113:0:0:0:0:
182,192,30644,1,0,0:0:0:70:hihat.wav
36,192,30761,1,0,0:0:0:70:snare.wav
109,192,30761,1,0,0:0:0:0:
329,192,30996,128,0,31113:0:0:0:0:
182,192,30996,1,0,0:0:0:70:hihat.wav
329,192,31230,128,0,31933:0:0:0:0:
109,192,31230,1,0,0:0:0:70:bass.wav
256,192,31347,1,0,0:0:0:70:hihat.wav
109,192,31464,1,0,0:0:0:70:hihat.wav
256,192,31582,1,0,0:0:0:70:hihat.wav
475,192,31582,128,0,31933:0:0:0:0:
36,192,31699,1,0,0:0:0:70:snare.wav
182,192,31699,1,0,0:0:0:0:
402,192,31933,128,0,32168:0:0:0:0:
182,192,31933,1,0,0:0:0:70:hihat.wav
256,192,32168,128,0,33339:0:0:0:0:
36,192,32168,1,0,0:0:0:70:bass.wav
475,192,32168,1,0,0:0:0:0:
109,192,32402,1,0,0:0:0:0:
182,192,32402,1,0,0:0:0:70:hihat.wav
329,192,32519,1,0,0:0:0:70:hihat.wav
402,192,32519,1,0,0:0:0:0:
36,192,32636,1,0,0:0:0:70:snare.wav
182,192,32636,1,0,0:0:0:0:
475,192,32871,1,0,0:0:0:70:hihat.wav
329,192,32871,1,0,0:0:0:0:
109,192,33105,1,0,0:0:0:70:bass.wav
475,192,33222,1,0,0:0:0:70:hihat.wav
329,192,33339,128,0,33925:0:0:0:0:
109,192,33339,1,0,0:0:0:70:hihat.wav
475,192,33457,1,0,0:0:0:70:hihat.wav
402,192,33574,128,0,33925:0:0:0:0:
36,192,33574,1,0,0:0:0:70:snare.wav
182,192,33574,1,0,0:0:0:0:
475,192,33808,128,0,33925:0:0:0:0:
182,192,33808,1,0,0:0:0:70:hihat.wav
475,192,34043,128,0,34511:0:0:0:0:
36,192,34043,1,0,0:0:0:70:bass.wav
256,192,34043,1,0,0:0:0:0:
329,192,34277,1,0,0:0:0:70:hihat.wav
182,192,34277,1,0,0:0:0:0:
256,192,34394,1,0,0:0:0:70:hihat.wav
109,192,34394,1,0,0:0:0:0:
402,192,34511,128,0,34980:0:0:0:0:
36,192,34511,1,0,0:0:0:70:snare.wav
182,192,34511,1,0,0:0:0:0:
109,192,34746,1,0,0:0:0:70:hihat.wav
329,192,34980,128,0,35449:0:0:0:0:
182,192,34980,1,0,0:0:0:0:
36,192,34980,1,0,0:0:0:70:bass.wav
475,192,35097,1,0,0:0:0:70:hihat.wav
182,192,35214,1,0,0:0:0:70:hihat.wav
475,192,35332,1,0,0:0:0:70:hihat.wav
256,192,35449,128,0,35918:0:0:0:0:
36,192,35449,1,0,0:0:0:70:snare.wav
109,192,35449,1,0,0:0:0:0:
402,192,35566,1,0,0:0:0:70:hihat.wav
109,192,35683,1,0,0:0:0:0:
182,192,35683,1,0,0:0:0:70:hihat.wav
36,192,35918,128,0,36386:0:0:0:0:
329,192,35918,1,0,0:0:0:70:bass.wav
475,192,35918,1,0,0:0:0:0:
402,192,36152,1,0,0:0:0:70:hihat.wav
256,192,36152,1,0,0:0:0:0:
329,192,36269,1,0,0:0:0:70:hihat.wav
182,192,36269,1,0,0:0:0:0:
109,192,36386,128,0,36855:0:0:0:0:
256,192,36386,1,0,0:0:0:0:
475,192,36386,1,0,0:0:0:70:snare.wav
402,192,36621,1,0,0:0:0:70:hihat.wav
182,192,36855,128,0,37324:0:0:0:0:
329,192,36855,1,0,0:0:0:70:bass.wav
475,192,36972,1,0,0:0:0:70:hihat.wav
329,192,37089,1,0,0:0:0:70:hihat.wav
475,192,37207,1,0,0:0:0:70:hihat.wav
256,192,37324,128,0,37793:0:0:0:0:
109,192,37324,1,0,0:0:0:0:
402,192,37324,1,0,0:0:0:70:snare.wav
402,192,37558,1,0,0:0:0:70:hihat.wav
109,192,37558,1,0,0:0:0:0:
475,192,37793,128,0,38613:0:0:0:0:
36,192,37793,1,0,0:0:0:70:bass.wav
182,192,37793,1,0,0:0:0:0:
256,192,38027,1,0,0:0:0:70:hihat.wav
402,192,38144,128,0,38613:0:0:0:0:
182,192,38144,1,0,0:0:0:70:hihat.wav
36,192,38261,1,0,0:0:0:70:snare.wav
109,192,38261,1,0,0:0:0:0:
329,192,38496,128,0,38613:0:0:0:0:
256,192,38496,1,0,0:0:0:70:hihat.wav
36,192,38730,128,0,39550:0:0:0:0:
329,192,38730,1,0,0:0:0:0:
182,192,38730,1,0,0:0:0:70:bass.wav
475,192,38847,1,0,0:0:0:70:hihat.wav
329,192,38964,1,0,0:0:0:70:hihat.wav
109,192,39082,128,0,39550:0:0:0:0:
475,192,39082,1,0,0:0:0:70:hihat.wav
256,192,39199,1,0,0:0:0:0:
402,192,39199,1,0,0:0:0:70:snare.wav
182,192,39433,128,0,39550:0:0:0:0:
402,192,39433,1,0,0:0:0:70:hihat.wav
475,192,39668,128,0,40136:0:0:0:0:
36,192,39668,1,0,0:0:0:0:
256,192,39668,1,0,0:0:0:70:bass.wav
329,192,39902,1,0,0:0:0:70:hihat.wav
182,192,39902,1,0,0:0:0:0:
256,192,40019,1,0,0:0:0:70:hihat.wav
109,192,40019,1,0,0:0:0:0:
329,192,40136,128,0,40605:0:0:0:0:
36,192,40136,1,0,0:0:0:70:snare.wav
182,192,40136,1,0,0:0:0:0:
109,192,40371,1,0,0:0:0:0:
256,192,40371,1,0,0:0:0:70:hihat.wav
182,192,40605,128,0,41074:0:0:0:0:
402,192,40605,1,0,0:0:0:70:bass.wav
36,192,40605,1,0,0:0:0:0:
256,192,40722,1,0,0:0:0:70:hihat.wav
402,192,40839,1,0,0:0:0:70:hihat.wav
256,192,40957,1,0,0:0:0:70:hihat.wav
36,192,41074,128,0,41543:0:0:0:0:
329,192,41074,1,0,0:0:0:0:
475,192,41074,1,0,0:0:0:70:snare.wav
475,192,41308,1,0,0:0:0:70:hihat.wav
329,192,41308,1,0,0:0:0:0:
256,192,41543,128,0,41894:0:0:0:0:
402,192,41543,1,0,0:0:0:70:bass.wav
109,192,41543,1,0,0:0:0:0:
475,192,41777,1,0,0:0:0:70:hihat.wav
182,192,41894,128,0,42480:0:0:0:0:
402,192,41894,1,0,0:0:0:70:hihat.wav
36,192,42011,1,0,0:0:0:70:snare.wav
329,192,42011,1,0,0:0:0:0:
329,192,42246,128,0,42480:0:0:0:70:hihat.wav
109,192,42480,128,0,43418:0:0:0:0:
256,192,42480,1,0,0:0:0:70:bass.wav
36,192,42480,1,0,0:0:0:0:
475,192,42597,1,0,0:0:0:70:hihat.wav
256,192,42714,1,0,0:0:0:70:hihat.wav
402,192,42832,128,0,43418:0:0:0:0:
475,192,42832,1,0,0:0:0:70:hihat.wav
329,192,42949,1,0,0:0:0:0:
36,192,42949,1,0,0:0:0:70:snare.wav
182,192,43183,1,0,0:0:0:70:hihat.wav
256,192,43183,128,0,43418:0:0:0:0:
329,192,43418,128,0,44355:0:0:0:0:
475,192,43418,128,0,44355:0:0:0:0:
36,192,43418,1,0,0:0:0:70:bass.wav
109,192,43652,1,0,0:0:0:70:hihat.wav
182,192,43769,1,0,0:0:0:70:hihat.wav
256,192,43886,1,0,0:0:0:0:
402,192,43886,1,0,0:0:0:0:
36,192,43886,1,0,0:0:0:70:snare.wav
182,192,44121,1,0,0:0:0:70:hihat.wav
109,192,44238,1,0,0:0:0:0:
36,192,44355,1,0,0:0:0:70:bass.wav
256,192,44355,1,0,0:0:0:0:
329,192,44472,1,0,0:0:0:70:hihat.wav
475,192,44472,1,0,0:0:0:0:
109,192,44589,1,0,0:0:0:0:
256,192,44589,1,0,0:0:0:70:hihat.wav
329,192,44707,1,0,0:0:0:70:hihat.wav
475,192,44707,1,0,0:0:0:0:
182,192,44824,128,0,44941:0:0:0:0:
182,192,45058,128,0,45175:0:0:0:0:
36,192,45293,1,0,0:0:0:70:bass.wav
256,192,45293,1,0,0:0:0:0:
475,192,45293,1,0,0:0:0:0:
182,192,45293,1,0,0:0:0:70:cymbol.wav
109,192,45527,1,0,0:0:0:70:hihat.wav
329,192,45527,1,0,0:0:0:0:
182,192,45644,1,0,0:0:0:70:hihat.wav
402,192,45644,1,0,0:0:0:0:
36,192,45761,1,0,0:0:0:0:
256,192,45761,1,0,0:0:0:70:hihat.wav
475,192,45761,1,0,0:0:0:0:
182,192,45996,1,0,0:0:0:70:hihat.wav
402,192,45996,1,0,0:0:0:0:
36,192,46230,1,0,0:0:0:70:bass.wav
329,192,46230,1,0,0:0:0:0:
475,192,46230,1,0,0:0:0:0:
256,192,46347,1,0,0:0:0:70:hihat.wav
402,192,46464,1,0,0:0:0:0:
109,192,46464,1,0,0:0:0:70:hihat.wav
329,192,46582,1,0,0:0:0:0:
182,192,46582,1,0,0:0:0:70:hihat.wav
36,192,46699,1,0,0:0:0:0:
256,192,46699,1,0,0:0:0:70:hihat.wav
475,192,46699,1,0,0:0:0:0:
109,192,46816,1,0,0:0:0:70:hihat.wav
402,192,46933,1,0,0:0:0:70:hihat.wav
182,192,46933,1,0,0:0:0:0:
402,192,47050,1,0,0:0:0:70:hihat.wav
36,192,47168,1,0,0:0:0:70:bass.wav
256,192,47168,1,0,0:0:0:0:
475,192,47168,1,0,0:0:0:0:
182,192,47402,1,0,0:0:0:70:hihat.wav
329,192,47402,1,0,0:0:0:0:
256,192,47519,1,0,0:0:0:70:hihat.wav
402,192,47519,1,0,0:0:0:0:
36,192,47636,1,0,0:0:0:0:
329,192,47636,1,0,0:0:0:70:hihat.wav
475,192,47636,1,0,0:0:0:0:
109,192,47753,1,0,0:0:0:70:hihat.wav
182,192,47871,1,0,0:0:0:70:hihat.wav
402,192,47871,1,0,0:0:0:0:
36,192,48105,1,0,0:0:0:70:bass.wav
475,192,48105,1,0,0:0:0:0:
256,192,48105,1,0,0:0:0:0:
329,192,48222,1,0,0:0:0:70:hihat.wav
475,192,48339,1,0,0:0:0:70:hihat.wav
109,192,48339,1,0,0:0:0:0:
329,192,48457,1,0,0:0:0:70:hihat.wav
36,192,48574,1,0,0:0:0:0:
475,192,48574,1,0,0:0:0:70:hihat.wav
182,192,48574,1,0,0:0:0:0:
256,192,48691,1,0,0:0:0:70:hihat.wav
109,192,48808,1,0,0:0:0:0:
402,192,48808,1,0,0:0:0:70:hihat.wav
402,192,48925,1,0,0:0:0:70:hihat.wav
36,192,49043,1,0,0:0:0:70:bass.wav
256,192,49043,1,0,0:0:0:0:
475,192,49043,1,0,0:0:0:0:
109,192,49277,1,0,0:0:0:0:
329,192,49277,1,0,0:0:0:70:hihat.wav
182,192,49394,1,0,0:0:0:0:
402,192,49394,1,0,0:0:0:70:hihat.wav
256,192,49511,1,0,0:0:0:0:
36,192,49511,1,0,0:0:0:0:
475,192,49511,1,0,0:0:0:70:hihat.wav
109,192,49628,1,0,0:0:0:70:hihat.wav
475,192,49746,1,0,0:0:0:70:hihat.wav
182,192,49746,1,0,0:0:0:0:
256,192,49980,1,0,0:0:0:0:
475,192,49980,1,0,0:0:0:0:
36,192,49980,1,0,0:0:0:70:bass.wav
402,192,50214,1,0,0:0:0:70:hihat.wav
109,192,50214,1,0,0:0:0:0:
182,192,50332,1,0,0:0:0:0:
329,192,50332,1,0,0:0:0:70:hihat.wav
256,192,50449,1,0,0:0:0:70:hihat.wav
475,192,50449,1,0,0:0:0:0:
36,192,50449,1,0,0:0:0:0:
402,192,50566,1,0,0:0:0:70:hihat.wav
329,192,50683,1,0,0:0:0:70:hihat.wav
182,192,50683,1,0,0:0:0:0:
402,192,50800,1,0,0:0:0:70:hihat.wav
36,192,50918,1,0,0:0:0:70:bass.wav
256,192,50918,1,0,0:0:0:0:
475,192,50918,1,0,0:0:0:0:
182,192,51152,1,0,0:0:0:0:
329,192,51152,1,0,0:0:0:70:hihat.wav
109,192,51269,1,0,0:0:0:0:
402,192,51269,1,0,0:0:0:70:hihat.wav
256,192,51386,1,0,0:0:0:0:
475,192,51386,1,0,0:0:0:70:hihat.wav
36,192,51386,1,0,0:0:0:0:
329,192,51621,1,0,0:0:0:70:hihat.wav
182,192,51621,1,0,0:0:0:0:
256,192,51855,1,0,0:0:0:0:
36,192,51855,1,0,0:0:0:70:bass.wav
475,192,51855,1,0,0:0:0:0:
402,192,51972,1,0,0:0:0:70:hihat.wav
329,192,52089,1,0,0:0:0:70:hihat.wav
109,192,52089,1,0,0:0:0:0:
402,192,52207,1,0,0:0:0:70:hihat.wav
109,192,52207,1,0,0:0:0:0:
475,192,52324,1,0,0:0:0:70:hihat.wav
256,192,52324,1,0,0:0:0:0:
36,192,52324,1,0,0:0:0:0:snare.wav
109,192,52441,1,0,0:0:0:0:
329,192,52441,1,0,0:0:0:70:hihat.wav
182,192,52558,1,0,0:0:0:0:
402,192,52558,1,0,0:0:0:70:hihat.wav
182,192,52793,1,0,0:0:0:0:
256,192,52793,1,0,0:0:0:0:
475,192,52793,1,0,0:0:0:0:
36,192,52793,1,0,0:0:0:70:bass.wav
109,192,53027,1,0,0:0:0:70:hihat.wav
329,192,53027,1,0,0:0:0:0:
256,192,53144,1,0,0:0:0:70:hihat.wav
402,192,53144,1,0,0:0:0:0:
36,192,53261,1,0,0:0:0:0:
182,192,53261,1,0,0:0:0:70:hihat.wav
475,192,53261,1,0,0:0:0:0:
256,192,53496,1,0,0:0:0:70:hihat.wav
402,192,53496,1,0,0:0:0:0:
36,192,53730,1,0,0:0:0:70:bass.wav
182,192,53730,1,0,0:0:0:0:
475,192,53730,1,0,0:0:0:0:
329,192,53847,1,0,0:0:0:70:hihat.wav
109,192,53964,1,0,0:0:0:70:hihat.wav
475,192,53964,1,0,0:0:0:0:
182,192,54082,1,0,0:0:0:70:hihat.wav
329,192,54082,1,0,0:0:0:0:
36,192,54199,1,0,0:0:0:0:
256,192,54199,1,0,0:0:0:70:hihat.wav
475,192,54199,1,0,0:0:0:0:
109,192,54316,1,0,0:0:0:70:hihat.wav
182,192,54433,1,0,0:0:0:0:
402,192,54433,1,0,0:0:0:70:hihat.wav
402,192,54550,1,0,0:0:0:70:hihat.wav
36,192,54668,1,0,0:0:0:70:bass.wav
475,192,54668,1,0,0:0:0:0:
256,192,54668,1,0,0:0:0:0:
182,192,54902,1,0,0:0:0:70:hihat.wav
329,192,54902,1,0,0:0:0:0:
109,192,55019,1,0,0:0:0:70:hihat.wav
402,192,55019,1,0,0:0:0:0:
256,192,55136,1,0,0:0:0:70:hihat.wav
36,192,55136,1,0,0:0:0:0:
475,192,55136,1,0,0:0:0:0:
329,192,55253,1,0,0:0:0:70:hihat.wav
109,192,55371,1,0,0:0:0:70:hihat.wav
402,192,55371,1,0,0:0:0:0:
182,192,55488,1,0,0:0:0:70:hihat.wav
36,192,55605,1,0,0:0:0:70:bass.wav
475,192,55605,1,0,0:0:0:0:
256,192,55605,1,0,0:0:0:0:
402,192,55722,1,0,0:0:0:70:hihat.wav
329,192,55839,1,0,0:0:0:70:hihat.wav
109,192,55839,1,0,0:0:0:0:
402,192,55957,1,0,0:0:0:70:hihat.wav
182,192,55957,1,0,0:0:0:0:
475,192,56074,1,0,0:0:0:70:hihat.wav
36,192,56074,1,0,0:0:0:0:
256,192,56074,1,0,0:0:0:0:
329,192,56191,1,0,0:0:0:70:hihat.wav
109,192,56308,1,0,0:0:0:0:
402,192,56308,1,0,0:0:0:70:hihat.wav
329,192,56425,1,0,0:0:0:70:hihat.wav
182,192,56425,1,0,0:0:0:0:
475,192,56543,1,0,0:0:0:0:
36,192,56543,1,0,0:0:0:70:bass.wav
256,192,56543,1,0,0:0:0:0:
109,192,56777,1,0,0:0:0:0:
329,192,56777,1,0,0:0:0:70:hihat.wav
182,192,56894,1,0,0:0:0:0:
402,192,56894,1,0,0:0:0:70:hihat.wav
256,192,57011,1,0,0:0:0:0:
475,192,57011,1,0,0:0:0:70:hihat.wav
36,192,57011,1,0,0:0:0:0:
182,192,57128,1,0,0:0:0:70:hihat.wav
109,192,57246,1,0,0:0:0:0:
475,192,57246,1,0,0:0:0:70:hihat.wav
182,192,57363,1,0,0:0:0:70:hihat.wav
475,192,57480,1,0,0:0:0:0:
256,192,57480,1,0,0:0:0:0:
36,192,57480,1,0,0:0:0:70:bass.wav
109,192,57714,1,0,0:0:0:0:
402,192,57714,1,0,0:0:0:70:hihat.wav
182,192,57832,1,0,0:0:0:0:
329,192,57832,1,0,0:0:0:70:hihat.wav
475,192,57949,1,0,0:0:0:0:
256,192,57949,1,0,0:0:0:70:hihat.wav
36,192,57949,1,0,0:0:0:0:
402,192,58066,1,0,0:0:0:70:hihat.wav
329,192,58183,1,0,0:0:0:70:hihat.wav
182,192,58183,1,0,0:0:0:0:
402,192,58300,1,0,0:0:0:70:hihat.wav
475,192,58418,1,0,0:0:0:0:
36,192,58418,1,0,0:0:0:70:bass.wav
256,192,58418,1,0,0:0:0:0:
182,192,58652,1,0,0:0:0:0:
329,192,58652,1,0,0:0:0:70:hihat.wav
256,192,58769,1,0,0:0:0:0:
402,192,58769,1,0,0:0:0:70:hihat.wav
329,192,58886,1,0,0:0:0:0:
475,192,58886,1,0,0:0:0:70:hihat.wav
36,192,58886,1,0,0:0:0:0:
256,192,59003,1,0,0:0:0:70:hihat.wav
402,192,59121,1,0,0:0:0:70:hihat.wav
182,192,59121,1,0,0:0:0:0:
109,192,59238,1,0,0:0:0:70:hihat.wav
36,192,59355,1,0,0:0:0:70:bass.wav
256,192,59355,1,0,0:0:0:0:
475,192,59355,1,0,0:0:0:0:
329,192,59472,1,0,0:0:0:70:hihat.wav
475,192,59589,5,0,0:0:0:70:hihat.wav
109,192,59589,1,0,0:0:0:0:
329,192,59707,1,0,0:0:0:70:hihat.wav
109,192,59707,1,0,0:0:0:0:
475,192,59824,1,0,0:0:0:70:hihat.wav
36,192,59824,1,0,0:0:0:0:snare.wav
256,192,59824,1,0,0:0:0:0:
329,192,59941,1,0,0:0:0:70:hihat.wav
182,192,59941,1,0,0:0:0:0:
36,192,60058,1,0,0:0:0:0:
475,192,60058,1,0,0:0:0:70:hihat.wav
256,192,60293,5,0,0:0:0:70:bass.wav
36,192,60293,128,0,60761:0:0:0:0:
475,192,60293,128,0,60761:0:0:0:70:cymbol.wav
182,192,60644,128,0,61113:0:0:0:0:
329,192,60644,128,0,61113:0:0:0:70:hihat.wav
256,192,60761,1,2,0:0:0:0:
36,192,60996,128,0,61113:0:0:0:0:
475,192,60996,128,0,61113:0:0:0:70:hihat.wav
182,192,61230,128,0,61699:0:0:0:0:
329,192,61230,128,0,61699:0:0:0:0:
256,192,61230,1,0,0:0:0:70:bass.wav
36,192,61582,128,0,62050:0:0:0:0:
475,192,61582,128,0,62050:0:0:0:70:hihat.wav
256,192,61699,1,2,0:0:0:0:
182,192,61933,128,0,62050:0:0:0:0:
329,192,61933,128,0,62050:0:0:0:70:hihat.wav
256,192,62168,128,0,62988:0:0:0:70:bass.wav
109,192,62168,1,0,0:0:0:0:
402,192,62168,1,0,0:0:0:0:
36,192,62402,1,0,0:0:0:0:
475,192,62402,1,0,0:0:0:70:hihat.wav
182,192,62519,1,0,0:0:0:0:
329,192,62519,1,0,0:0:0:70:hihat.wav
109,192,62636,128,0,62753:0:0:0:0:
402,192,62636,128,0,62753:0:0:0:70:hihat.wav
109,192,62871,128,0,62988:0:0:0:0:
402,192,62871,128,0,62988:0:0:0:70:hihat.wav
36,192,63105,1,0,0:0:0:0:
475,192,63105,1,0,0:0:0:70:bass.wav
182,192,63222,1,0,0:0:0:0:
329,192,63222,1,0,0:0:0:70:hihat.wav
36,192,63339,1,0,0:0:0:0:
475,192,63339,1,0,0:0:0:70:hihat.wav
182,192,63457,1,0,0:0:0:0:
329,192,63457,1,0,0:0:0:70:hihat.wav
36,192,63574,1,0,0:0:0:0:
475,192,63574,1,0,0:0:0:70:hihat.wav
256,192,63691,1,0,0:0:0:70:hihat.wav
109,192,63808,1,0,0:0:0:0:
402,192,63808,1,0,0:0:0:70:hihat.wav
109,192,63925,1,0,0:0:0:0:
402,192,63925,1,0,0:0:0:70:hihat.wav
329,192,64043,128,0,64511:0:0:0:0:
36,192,64043,1,0,0:0:0:0:
256,192,64043,1,0,0:0:0:70:bass.wav
475,192,64043,1,0,0:0:0:0:
109,192,64277,1,0,0:0:0:70:hihat.wav
256,192,64394,1,0,0:0:0:70:hihat.wav
182,192,64511,128,0,64980:0:0:0:0:
402,192,64511,1,0,0:0:0:70:hihat.wav
475,192,64511,1,0,0:0:0:0:
36,192,64511,1,0,0:0:0:0:
109,192,64746,1,0,0:0:0:0:
329,192,64746,1,0,0:0:0:70:hihat.wav
402,192,64980,128,0,65449:0:0:0:0:
36,192,64980,1,0,0:0:0:70:bass.wav
475,192,64980,1,0,0:0:0:0:
256,192,64980,1,0,0:0:0:0:
329,192,65097,1,0,0:0:0:70:hihat.wav
182,192,65214,1,0,0:0:0:70:hihat.wav
329,192,65332,1,0,0:0:0:70:hihat.wav
109,192,65449,128,0,65918:0:0:0:0:
36,192,65449,1,0,0:0:0:0:
256,192,65449,1,0,0:0:0:70:hihat.wav
475,192,65449,1,0,0:0:0:0:
256,192,65683,1,0,0:0:0:70:hihat.wav
402,192,65683,1,0,0:0:0:0:
329,192,65918,128,0,67324:0:0:0:0:
36,192,65918,1,0,0:0:0:0:
256,192,65918,1,0,0:0:0:70:bass.wav
475,192,65918,1,0,0:0:0:0:
109,192,66152,1,0,0:0:0:70:hihat.wav
402,192,66152,1,0,0:0:0:0:
182,192,66269,1,0,0:0:0:70:hihat.wav
256,192,66386,1,0,0:0:0:0:
36,192,66386,1,0,0:0:0:70:hihat.wav
402,192,66386,1,0,0:0:0:0:
475,192,66386,1,0,0:0:0:0:
109,192,66503,1,0,0:0:0:70:hihat.wav
182,192,66621,1,0,0:0:0:70:hihat.wav
109,192,66738,1,0,0:0:0:70:hihat.wav
36,192,66855,1,0,0:0:0:70:bass.wav
475,192,66855,1,0,0:0:0:0:
256,192,66855,1,0,0:0:0:0:
109,192,66972,1,0,0:0:0:70:hihat.wav
402,192,66972,1,0,0:0:0:0:
182,192,67089,1,0,0:0:0:70:hihat.wav
475,192,67089,1,0,0:0:0:0:
109,192,67207,1,0,0:0:0:70:hihat.wav
36,192,67324,1,0,0:0:0:70:hihat.wav
256,192,67324,1,0,0:0:0:0:
475,192,67324,1,0,0:0:0:0:
109,192,67441,1,0,0:0:0:70:hihat.wav
402,192,67441,1,0,0:0:0:0:
182,192,67558,1,0,0:0:0:70:hihat.wav
329,192,67558,1,0,0:0:0:0:
402,192,67675,1,0,0:0:0:0:
109,192,67675,1,0,0:0:0:70:hihat.wav
36,192,67793,128,0,68261:0:0:0:0:
475,192,67793,128,0,68261:0:0:0:0:
256,192,67793,1,0,0:0:0:70:bass.wav
182,192,68144,128,0,68613:0:0:0:0:
329,192,68144,128,0,68613:0:0:0:70:hihat.wav
256,192,68261,1,2,0:0:0:0:
36,192,68496,128,0,68613:0:0:0:0:
475,192,68496,128,0,68613:0:0:0:70:hihat.wav
109,192,68730,128,0,69199:0:0:0:0:
256,192,68730,1,0,0:0:0:70:bass.wav
402,192,68730,128,0,69199:0:0:0:0:
182,192,69082,128,0,69550:0:0:0:70:hihat.wav
329,192,69082,128,0,69550:0:0:0:0:
256,192,69199,1,2,0:0:0:0:hihat.wav
475,192,69433,128,0,69550:0:0:0:0:
36,192,69433,128,0,69550:0:0:0:70:hihat.wav
256,192,69668,128,0,70488:0:0:0:70:bass.wav
109,192,69668,1,0,0:0:0:0:
402,192,69668,1,0,0:0:0:0:
36,192,69902,1,0,0:0:0:0:
475,192,69902,1,0,0:0:0:70:hihat.wav
329,192,70019,1,0,0:0:0:70:hihat.wav
182,192,70019,1,0,0:0:0:0:
36,192,70136,128,0,70488:0:0:0:0:
475,192,70136,128,0,70488:0:0:0:70:hihat.wav
109,192,70371,128,0,70488:0:0:0:0:
402,192,70371,128,0,70488:0:0:0:70:hihat.wav
36,192,70605,1,0,0:0:0:0:
475,192,70605,1,0,0:0:0:70:bass.wav
329,192,70722,1,0,0:0:0:70:hihat.wav
182,192,70722,1,0,0:0:0:0:
475,192,70839,1,0,0:0:0:70:hihat.wav
36,192,70839,1,0,0:0:0:0:
182,192,70957,1,0,0:0:0:0:
329,192,70957,1,0,0:0:0:70:hihat.wav
36,192,71074,1,0,0:0:0:0:
475,192,71074,1,0,0:0:0:70:hihat.wav
256,192,71191,1,0,0:0:0:0:
109,192,71308,1,0,0:0:0:0:
402,192,71308,1,0,0:0:0:70:hihat.wav
109,192,71425,1,0,0:0:0:0:
402,192,71425,1,0,0:0:0:70:hihat.wav
329,192,71543,128,0,71777:0:0:0:0:
36,192,71543,1,0,0:0:0:0:
182,192,71543,1,0,0:0:0:70:bass.wav
475,192,71543,1,0,0:0:0:0:
256,192,71777,1,0,0:0:0:70:hihat.wav
329,192,71894,128,0,72128:0:0:0:0:
182,192,71894,1,0,0:0:0:70:hihat.wav
36,192,72011,1,0,0:0:0:0:
109,192,72011,1,0,0:0:0:70:hihat.wav
329,192,72246,128,0,72363:0:0:0:0:
109,192,72246,1,0,0:0:0:70:hihat.wav
475,192,72246,1,0,0:0:0:0:
182,192,72480,128,0,72714:0:0:0:0:
36,192,72480,1,0,0:0:0:0:
256,192,72480,1,0,0:0:0:70:bass.wav
475,192,72480,1,0,0:0:0:0:
402,192,72597,1,0,0:0:0:70:hihat.wav
256,192,72714,1,0,0:0:0:70:hihat.wav
182,192,72832,128,0,73066:0:0:0:0:
402,192,72832,1,0,0:0:0:70:hihat.wav
36,192,72949,1,0,0:0:0:0:
329,192,72949,1,0,0:0:0:70:hihat.wav
182,192,73183,128,0,73300:0:0:0:0:
329,192,73183,1,0,0:0:0:70:hihat.wav
475,192,73183,1,0,0:0:0:0:
36,192,73418,128,0,75293:0:0:0:0:
256,192,73418,1,0,0:0:0:70:bass.wav
475,192,73418,1,0,0:0:0:0:
109,192,73652,1,0,0:0:0:0:
402,192,73652,1,0,0:0:0:70:hihat.wav
182,192,73769,1,0,0:0:0:0:
329,192,73769,1,0,0:0:0:70:hihat.wav
256,192,73886,128,0,75293:0:0:0:70:hihat.wav
475,192,73886,1,0,0:0:0:0:
182,192,74121,1,0,0:0:0:70:hihat.wav
329,192,74238,1,0,0:0:0:70:hihat.wav
475,192,74355,128,0,75293:0:0:0:0:
109,192,74355,1,0,0:0:0:70:bass.wav
402,192,74589,1,0,0:0:0:70:hihat.wav
329,192,74707,1,0,0:0:0:70:hihat.wav
182,192,74824,1,0,0:0:0:70:snare.wav
109,192,74824,1,0,0:0:0:0:
402,192,75058,1,0,0:0:0:70:snare.wav
329,192,75058,1,0,0:0:0:0:
182,192,75293,1,0,0:0:0:70:hihat.wav
329,192,75293,1,0,0:0:0:0:
182,192,75761,1,0,0:0:0:0:
329,192,75761,1,0,0:0:0:70:LR4_DrumCSNHS.wav
36,192,76230,1,0,0:0:0:0:
256,192,76230,1,0,0:0:0:70:LR_Tom Hit.wav
475,192,76230,1,0,0:0:0:0:
109,192,76464,1,0,0:0:0:0:
402,192,76464,1,0,0:0:0:0:
182,192,76582,1,0,0:0:0:70:LR_Tom Hit.wav
329,192,76582,1,0,0:0:0:0:
256,192,76699,1,0,0:0:0:70:LR_Tom Hit.wav
182,192,76816,1,0,0:0:0:0:
329,192,76816,1,0,0:0:0:0:
109,192,76933,1,0,0:0:0:0:
402,192,76933,1,0,0:0:0:70:LR_Tom Hit 2.wav
329,192,77168,128,0,77988:0:0:0:0:
36,192,77168,1,0,0:0:0:70:bass.wav
256,192,77168,1,0,0:0:0:0:
475,192,77168,1,0,0:0:0:70:cymbol.wav
109,192,77402,1,0,0:0:0:70:hihat.wav
182,192,77519,1,0,0:0:0:70:hihat.wav
256,192,77636,1,0,0:0:0:70:snare.wav
475,192,77636,1,0,0:0:0:0:
36,192,77636,1,0,0:0:0:0:
182,192,77871,1,0,0:0:0:70:hihat.wav
109,192,77988,1,0,0:0:0:70:hihat.wav
475,192,78105,128,0,78925:0:0:0:0:
36,192,78105,1,0,0:0:0:70:bass.wav
256,192,78105,1,0,0:0:0:0:
402,192,78222,1,0,0:0:0:70:hihat.wav
182,192,78339,1,0,0:0:0:70:hihat.wav
329,192,78457,1,0,0:0:0:70:hihat.wav
109,192,78574,1,0,0:0:0:70:snare.wav
36,192,78574,1,0,0:0:0:0:
256,192,78691,1,0,0:0:0:0:hihat.wav
402,192,78808,1,0,0:0:0:70:hihat.wav
256,192,79043,128,0,80800:0:0:0:0:
36,192,79043,1,0,0:0:0:70:bass.wav
329,192,79043,1,0,0:0:0:0:
182,192,79277,1,0,0:0:0:0:
475,192,79277,1,0,0:0:0:70:hihat.wav
109,192,79394,1,0,0:0:0:0:
402,192,79394,1,0,0:0:0:70:hihat.wav
36,192,79511,1,0,0:0:0:70:snare.wav
329,192,79511,1,0,0:0:0:0:
109,192,79746,1,0,0:0:0:0:
182,192,79746,1,0,0:0:0:0:
475,192,79746,1,0,0:0:0:70:hihat.wav
36,192,79980,1,0,0:0:0:70:bass.wav
475,192,79980,1,0,0:0:0:0:
109,192,80097,1,0,0:0:0:0:
402,192,80097,1,0,0:0:0:70:hihat.wav
182,192,80214,1,0,0:0:0:0:
329,192,80214,1,0,0:0:0:70:hihat.wav
402,192,80332,1,0,0:0:0:70:hihat.wav
109,192,80332,1,0,0:0:0:0:
36,192,80449,128,0,80800:0:0:0:70:snare.wav
475,192,80449,128,0,80800:0:0:0:0:
182,192,80683,128,0,80800:0:0:0:0:
329,192,80683,128,0,80800:0:0:0:70:hihat.wav
36,192,80918,1,0,0:0:0:70:bass.wav
256,192,80918,1,0,0:0:0:0:
475,192,80918,128,0,82675:0:0:0:0:
109,192,81152,1,0,0:0:0:0:
256,192,81152,1,0,0:0:0:70:hihat.wav
182,192,81269,1,0,0:0:0:0:
329,192,81269,1,0,0:0:0:70:hihat.wav
256,192,81386,1,0,0:0:0:0:
402,192,81386,1,0,0:0:0:0:
36,192,81386,1,0,0:0:0:70:snare.wav
329,192,81621,1,0,0:0:0:70:hihat.wav
182,192,81738,1,0,0:0:0:70:hihat.wav
256,192,81855,1,0,0:0:0:70:bass.wav
36,192,81855,128,0,82675:0:0:0:0:
402,192,81972,1,0,0:0:0:70:hihat.wav
182,192,82089,1,0,0:0:0:70:hihat.wav
329,192,82207,1,0,0:0:0:70:hihat.wav
109,192,82324,1,0,0:0:0:70:snare.wav
256,192,82441,1,0,0:0:0:0:
402,192,82558,1,0,0:0:0:70:hihat.wav
182,192,82675,1,0,0:0:0:0:
36,192,82793,1,0,0:0:0:70:bass.wav
475,192,82793,1,0,0:0:0:0:
256,192,82793,128,0,84550:0:0:0:0:bass.wav
329,192,83027,1,0,0:0:0:0:
36,192,83027,1,0,0:0:0:70:hihat.wav
402,192,83144,1,0,0:0:0:0:
109,192,83144,1,0,0:0:0:70:hihat.wav
182,192,83261,1,0,0:0:0:70:snare.wav
475,192,83261,1,0,0:0:0:0:
329,192,83496,1,0,0:0:0:70:hihat.wav
402,192,83496,1,0,0:0:0:0:
36,192,83496,1,0,0:0:0:0:
36,192,83730,1,0,0:0:0:70:bass.wav
475,192,83730,1,0,0:0:0:0:
402,192,83847,1,0,0:0:0:70:hihat.wav
109,192,83847,1,0,0:0:0:0:
182,192,83964,1,0,0:0:0:0:
329,192,83964,1,0,0:0:0:70:hihat.wav
402,192,84082,1,0,0:0:0:70:hihat.wav
109,192,84082,1,0,0:0:0:0:
475,192,84199,128,0,84550:0:0:0:0:
36,192,84199,128,0,84550:0:0:0:70:snare.wav
109,192,84433,128,0,84550:0:0:0:0:
402,192,84433,128,0,84550:0:0:0:70:hihat.wav
329,192,84668,128,0,85605:0:0:0:0:
36,192,84668,1,0,0:0:0:0:
256,192,84668,1,0,0:0:0:70:bass.wav
475,192,84668,1,0,0:0:0:0:
109,192,84902,1,0,0:0:0:70:hihat.wav
182,192,85019,1,0,0:0:0:70:hihat.wav
256,192,85136,1,0,0:0:0:70:snare.wav
475,192,85136,1,0,0:0:0:0:
36,192,85136,1,0,0:0:0:0:
109,192,85371,1,0,0:0:0:70:hihat.wav
402,192,85371,1,0,0:0:0:0:
36,192,85605,1,0,0:0:0:0:
182,192,85605,1,0,0:0:0:70:bass.wav
329,192,85722,1,0,0:0:0:70:hihat.wav
475,192,85722,1,0,0:0:0:0:
109,192,85839,1,0,0:0:0:0:
182,192,85839,1,0,0:0:0:70:hihat.wav
329,192,85957,1,0,0:0:0:70:hihat.wav
402,192,85957,1,0,0:0:0:0:
475,192,86074,1,0,0:0:0:0:
36,192,86074,1,0,0:0:0:0:
256,192,86074,1,0,0:0:0:70:snare.wav
402,192,86191,1,0,0:0:0:0:
329,192,86308,1,0,0:0:0:0:
109,192,86308,1,0,0:0:0:70:hihat.wav
256,192,86425,1,0,0:0:0:0:
109,192,86425,1,0,0:0:0:70:hihat.wav
36,192,86543,128,0,87011:0:0:0:0:
182,192,86543,128,0,87011:0:0:0:0:
329,192,86543,1,0,0:0:0:70:bass.wav
475,192,86543,1,0,0:0:0:0:
329,192,86777,1,0,0:0:0:70:hihat.wav
475,192,86777,1,0,0:0:0:0:
329,192,86894,1,0,0:0:0:70:hihat.wav
475,192,86894,1,0,0:0:0:0:
475,192,87011,128,0,87949:0:0:0:0:
329,192,87011,128,0,87949:0:0:0:70:snare.wav
36,192,87246,1,0,0:0:0:0:
182,192,87246,1,0,0:0:0:70:hihat.wav
36,192,87363,1,0,0:0:0:0:
182,192,87363,1,0,0:0:0:70:hihat.wav
36,192,87480,128,0,87949:0:0:0:0:
182,192,87480,128,0,87949:0:0:0:70:bass.wav
109,192,87714,1,0,0:0:0:70:hihat.wav
402,192,87714,1,0,0:0:0:0:
256,192,87832,1,0,0:0:0:70:hihat.wav
402,192,87949,1,0,0:0:0:70:snare.wav
109,192,87949,1,0,0:0:0:0:
36,192,88183,1,0,0:0:0:0:
475,192,88183,1,0,0:0:0:70:hihat.wav
182,192,88300,1,0,0:0:0:0:
329,192,88300,1,0,0:0:0:0:
36,192,88418,1,0,0:0:0:0:
475,192,88418,1,0,0:0:0:70:bass.wav
256,192,88418,128,0,89589:0:0:0:0:
109,192,88652,1,0,0:0:0:70:hihat.wav
182,192,88769,1,0,0:0:0:70:hihat.wav
36,192,88886,1,0,0:0:0:0:
475,192,88886,1,0,0:0:0:0:
329,192,88886,1,0,0:0:0:70:snare.wav
109,192,89003,1,0,0:0:0:70:hihat.wav
182,192,89121,1,0,0:0:0:70:hihat.wav
475,192,89121,1,0,0:0:0:0:
109,192,89238,1,0,0:0:0:70:hihat.wav
402,192,89238,1,0,0:0:0:0:
36,192,89355,1,0,0:0:0:0:
329,192,89355,1,0,0:0:0:70:bass.wav
182,192,89589,128,0,89824:0:0:0:0:
109,192,89589,1,0,0:0:0:70:hihat.wav
402,192,89707,1,0,0:0:0:70:hihat.wav
329,192,89824,128,0,90293:0:0:0:0:
36,192,89824,1,0,0:0:0:70:snare.wav
475,192,89941,128,0,90293:0:0:0:0:
109,192,89941,1,0,0:0:0:0:hihat.wav
182,192,90058,1,0,0:0:0:70:hihat.wav
256,192,90058,1,0,0:0:0:0:
36,192,90293,1,0,0:0:0:0:
402,192,90293,128,0,91230:0:0:0:0:
256,192,90293,1,0,0:0:0:70:bass.wav
182,192,90527,1,0,0:0:0:70:hihat.wav
109,192,90644,1,0,0:0:0:70:hihat.wav
36,192,90761,1,0,0:0:0:0:
256,192,90761,1,0,0:0:0:70:snare.wav
475,192,90761,1,0,0:0:0:0:
109,192,90878,1,0,0:0:0:70:hihat.wav
329,192,90878,1,0,0:0:0:0:
475,192,90996,1,0,0:0:0:0:
182,192,90996,1,0,0:0:0:70:hihat.wav
109,192,91113,1,0,0:0:0:70:hihat.wav
36,192,91230,1,0,0:0:0:0:
256,192,91230,1,0,0:0:0:70:bass.wav
475,192,91230,1,0,0:0:0:0:
182,192,91464,1,0,0:0:0:70:hihat.wav
329,192,91464,1,0,0:0:0:0:
36,192,91582,1,0,0:0:0:0:
475,192,91582,1,0,0:0:0:70:hihat.wav
256,192,91699,1,0,0:0:0:70:snare.wav
402,192,91816,1,0,0:0:0:70:hihat.wav
109,192,91816,1,0,0:0:0:0:
256,192,91933,1,0,0:0:0:70:hihat.wav
402,192,92050,1,0,0:0:0:70:hihat.wav
109,192,92050,1,0,0:0:0:0:
475,192,92168,128,0,92871:0:0:0:0:
36,192,92168,1,0,0:0:0:0:
182,192,92168,1,0,0:0:0:70:cymbol.wav
329,192,92168,1,0,0:0:0:70:bass.wav
109,192,92402,1,0,0:0:0:70:hihat.wav
182,192,92519,1,0,0:0:0:70:hihat.wav
256,192,92636,1,0,0:0:0:0:
329,192,92636,1,0,0:0:0:70:snare.wav
402,192,92871,1,0,0:0:0:70:hihat.wav
36,192,92871,1,0,0:0:0:0:
475,192,92988,1,0,0:0:0:70:hihat.wav
329,192,93105,128,0,93457:0:0:0:0:
109,192,93105,1,0,0:0:0:70:bass.wav
256,192,93222,1,0,0:0:0:70:hihat.wav
475,192,93339,128,0,93691:0:0:0:0:
109,192,93339,1,0,0:0:0:70:hihat.wav
256,192,93457,1,0,0:0:0:70:hihat.wav
329,192,93574,128,0,94043:0:0:0:0:
36,192,93574,1,0,0:0:0:0:
182,192,93574,1,0,0:0:0:70:snare.wav
475,192,93808,128,0,94043:0:0:0:0:
109,192,93808,1,0,0:0:0:0:
256,192,93808,1,0,0:0:0:70:hihat.wav
402,192,94043,128,0,94980:0:0:0:0:
36,192,94043,1,0,0:0:0:0:
182,192,94043,1,0,0:0:0:70:bass.wav
256,192,94277,1,0,0:0:0:70:hihat.wav
182,192,94394,1,0,0:0:0:70:hihat.wav
36,192,94511,1,0,0:0:0:0:
109,192,94511,1,0,0:0:0:70:snare.wav
329,192,94746,1,0,0:0:0:0:
182,192,94746,1,0,0:0:0:70:hihat.wav
36,192,94980,1,0,0:0:0:0:
475,192,94980,1,0,0:0:0:0:
256,192,94980,1,0,0:0:0:70:bass.wav
109,192,95097,1,0,0:0:0:70:hihat.wav
402,192,95097,1,0,0:0:0:0:
182,192,95214,1,0,0:0:0:70:hihat.wav
329,192,95214,1,0,0:0:0:0:
109,192,95332,1,0,0:0:0:70:hihat.wav
402,192,95332,1,0,0:0:0:0:
256,192,95449,128,0,95800:0:0:0:70:snare.wav
36,192,95449,128,0,95800:0:0:0:0:
475,192,95449,128,0,95800:0:0:0:0:
109,192,95683,128,0,95800:0:0:0:70:hihat.wav
402,192,95683,128,0,95800:0:0:0:0:
329,192,95918,128,0,96621:0:0:0:0:
36,192,95918,1,0,0:0:0:0:
256,192,95918,1,0,0:0:0:70:bass.wav
475,192,95918,1,0,0:0:0:0:
109,192,96152,1,0,0:0:0:70:hihat.wav
182,192,96269,1,0,0:0:0:70:hihat.wav
256,192,96386,1,0,0:0:0:70:snare.wav
475,192,96386,1,0,0:0:0:0:
36,192,96386,1,0,0:0:0:0:
402,192,96621,1,0,0:0:0:0:
182,192,96621,1,0,0:0:0:70:hihat.wav
329,192,96738,1,0,0:0:0:70:hihat.wav
475,192,96855,128,0,97324:0:0:0:0:
109,192,96855,1,0,0:0:0:70:bass.wav
256,192,96972,1,0,0:0:0:70:hihat.wav
329,192,97089,128,0,97558:0:0:0:0:
109,192,97089,1,0,0:0:0:70:hihat.wav
256,192,97207,1,0,0:0:0:70:hihat.wav
182,192,97324,128,0,97793:0:0:0:0:
36,192,97324,1,0,0:0:0:70:snare.wav
402,192,97324,1,0,0:0:0:0:
36,192,97558,128,0,98027:0:0:0:0:
256,192,97558,1,0,0:0:0:70:hihat.wav
475,192,97558,1,0,0:0:0:0:
402,192,97793,128,0,98730:0:0:0:0:
109,192,97793,1,0,0:0:0:0:
329,192,97793,1,0,0:0:0:70:bass.wav
182,192,98027,1,0,0:0:0:0:
329,192,98027,1,0,0:0:0:70:hihat.wav
109,192,98144,1,0,0:0:0:0:
256,192,98144,1,0,0:0:0:70:hihat.wav
36,192,98261,1,0,0:0:0:0:
182,192,98261,1,0,0:0:0:70:snare.wav
475,192,98261,1,0,0:0:0:0:
329,192,98378,1,0,0:0:0:70:hihat.wav
109,192,98496,1,0,0:0:0:70:hihat.wav
256,192,98613,1,0,0:0:0:70:hihat.wav
329,192,98730,1,0,0:0:0:70:bass.wav
475,192,98730,1,0,0:0:0:0:
36,192,98730,1,0,0:0:0:0:
182,192,98730,1,0,0:0:0:0:
109,192,98964,1,0,0:0:0:0:
182,192,98964,1,0,0:0:0:70:hihat.wav
329,192,99082,1,0,0:0:0:70:hihat.wav
402,192,99082,1,0,0:0:0:0:
109,192,99199,128,0,99316:0:0:0:0:
182,192,99199,128,0,99316:0:0:0:0:
256,192,99199,1,0,0:0:0:70:snare.wav
109,192,99433,1,0,0:0:0:0:
182,192,99433,1,0,0:0:0:70:hihat.wav
256,192,99668,128,0,100839:0:0:0:0:
36,192,99668,1,0,0:0:0:0:
475,192,99668,1,0,0:0:0:0:
329,192,99668,1,0,0:0:0:70:bass.wav
36,192,99902,1,0,0:0:0:0:
329,192,99902,1,0,0:0:0:70:hihat.wav
109,192,100019,1,0,0:0:0:0:
402,192,100019,1,0,0:0:0:70:hihat.wav
182,192,100136,1,0,0:0:0:0:
475,192,100136,1,0,0:0:0:70:snare.wav
329,192,100136,1,0,0:0:0:0:
109,192,100371,1,0,0:0:0:0:
402,192,100371,1,0,0:0:0:70:hihat.wav
402,192,100488,1,0,0:0:0:70:hihat.wav
36,192,100605,1,0,0:0:0:70:bass.wav
182,192,100722,1,0,0:0:0:70:hihat.wav
329,192,100839,1,0,0:0:0:0:
36,192,100839,1,0,0:0:0:70:hihat.wav
402,192,100957,1,0,0:0:0:0:
182,192,100957,1,0,0:0:0:70:hihat.wav
475,192,101074,128,0,101308:0:0:0:0:
36,192,101074,1,0,0:0:0:0:
256,192,101074,1,0,0:0:0:70:snare.wav
329,192,101308,128,0,101543:0:0:0:0:
182,192,101308,1,0,0:0:0:70:hihat.wav
36,192,101543,128,0,102597:0:0:0:0:
256,192,101543,1,0,0:0:0:70:bass.wav
475,192,101543,1,0,0:0:0:0:
109,192,101777,1,0,0:0:0:0:
402,192,101777,1,0,0:0:0:70:hihat.wav
182,192,101894,1,0,0:0:0:0:
329,192,101894,1,0,0:0:0:70:hihat.wav
475,192,102011,128,0,102597:0:0:0:0:
256,192,102011,1,0,0:0:0:70:snare.wav
182,192,102128,1,0,0:0:0:0:
329,192,102128,1,0,0:0:0:70:hihat.wav
109,192,102246,1,0,0:0:0:0:
402,192,102246,1,0,0:0:0:70:hihat.wav
256,192,102480,128,0,102597:0:0:0:70:bass.wav
182,192,102480,128,0,102597:0:0:0:0:
329,192,102480,128,0,102597:0:0:0:0:
36,192,102714,1,0,0:0:0:0:
182,192,102714,1,0,0:0:0:70:hihat.wav
329,192,102832,1,0,0:0:0:70:hihat.wav
475,192,102832,1,0,0:0:0:0:
36,192,102949,1,0,0:0:0:0:
182,192,102949,1,0,0:0:0:70:snare.wav
329,192,103066,1,0,0:0:0:70:hihat.wav
475,192,103066,1,0,0:0:0:0:
109,192,103183,1,0,0:0:0:0:
256,192,103183,1,0,0:0:0:70:hihat.wav
329,192,103418,128,0,103886:0:0:0:0:
36,192,103418,1,0,0:0:0:0:
256,192,103418,1,0,0:0:0:70:bass.wav
475,192,103418,1,0,0:0:0:0:
109,192,103535,1,0,0:0:0:0:
182,192,103652,1,0,0:0:0:70:hihat.wav
109,192,103769,1,0,0:0:0:0:
256,192,103769,1,0,0:0:0:70:hihat.wav
475,192,103886,128,0,104355:0:0:0:0:
36,192,103886,1,0,0:0:0:70:snare.wav
402,192,103886,1,0,0:0:0:70:hihat.wav
109,192,104003,1,0,0:0:0:70:hihat.wav
182,192,104121,1,0,0:0:0:70:hihat.wav
329,192,104121,1,0,0:0:0:0:
109,192,104238,1,0,0:0:0:70:hihat.wav
36,192,104355,1,0,0:0:0:0:
256,192,104355,128,0,104941:0:0:0:0:
402,192,104355,1,0,0:0:0:70:bass.wav
109,192,104472,1,0,0:0:0:0:hihat.wav
182,192,104589,1,0,0:0:0:70:hihat.wav
402,192,104589,1,0,0:0:0:0:
329,192,104707,128,0,104941:0:0:0:0:
109,192,104707,1,0,0:0:0:70:hihat.wav
36,192,104824,1,0,0:0:0:70:snare.wav
475,192,104824,1,0,0:0:0:0:
109,192,104941,1,0,0:0:0:70:hihat.wav
329,192,105058,128,0,105293:0:0:0:0:
182,192,105058,1,0,0:0:0:70:hihat.wav
109,192,105175,1,0,0:0:0:70:hihat.wav
402,192,105293,128,0,106699:0:0:0:0:
36,192,105293,1,0,0:0:0:0:
475,192,105293,1,0,0:0:0:0:
256,192,105293,1,0,0:0:0:70:bass.wav
182,192,105527,1,0,0:0:0:0:
329,192,105527,1,0,0:0:0:70:hihat.wav
109,192,105644,1,0,0:0:0:0:
256,192,105644,1,0,0:0:0:70:hihat.wav
36,192,105761,1,0,0:0:0:70:snare.wav
182,192,105761,1,0,0:0:0:0:
256,192,105878,1,0,0:0:0:0:hihat.wav
329,192,105996,1,0,0:0:0:70:hihat.wav
475,192,105996,1,0,0:0:0:0:
256,192,106113,1,0,0:0:0:70:hihat.wav
36,192,106230,1,0,0:0:0:0:
182,192,106230,1,0,0:0:0:70:bass.wav
256,192,106347,1,0,0:0:0:70:hihat.wav
329,192,106464,1,0,0:0:0:0:
109,192,106464,1,0,0:0:0:70:hihat.wav
256,192,106582,1,0,0:0:0:0:
109,192,106582,1,0,0:0:0:70:hihat.wav
36,192,106699,1,0,0:0:0:70:snare.wav
475,192,106699,1,0,0:0:0:0:
182,192,106699,1,0,0:0:0:0:
36,192,106933,1,0,0:0:0:0:
256,192,106933,1,0,0:0:0:70:hihat.wav
475,192,106933,1,0,0:0:0:0:
36,192,107168,1,0,0:0:0:0:
329,192,107168,1,0,0:0:0:70:cymbol.wav
475,192,107168,128,0,107988:0:0:0:0:
402,192,107519,128,0,107988:0:0:0:0:
36,192,107636,1,0,0:0:0:0:
109,192,107636,1,0,0:0:0:70:clap.wav
182,192,107636,1,0,0:0:0:0:
329,192,107871,128,0,107988:0:0:0:0:
36,192,108105,128,0,108925:0:0:0:0:
109,192,108457,128,0,108925:0:0:0:0:
329,192,108574,1,0,0:0:0:0:
475,192,108574,1,0,0:0:0:0:
402,192,108574,1,0,0:0:0:70:clap.wav
182,192,108808,128,0,108925:0:0:0:0:
256,192,109043,128,0,110449:0:0:0:0:
36,192,109043,1,0,0:0:0:0:
182,192,109277,1,0,0:0:0:0:
329,192,109511,1,0,0:0:0:0:
402,192,109511,1,0,0:0:0:70:clap.wav
475,192,109511,1,0,0:0:0:0:
182,192,109746,1,0,0:0:0:0:
109,192,109980,1,0,0:0:0:0:
329,192,110214,1,0,0:0:0:0:
402,192,110214,1,0,0:0:0:70:clap.wav
475,192,110214,1,0,0:0:0:0:
36,192,110214,128,0,110800:0:0:0:0:
329,192,110449,1,0,0:0:0:0:
402,192,110449,1,0,0:0:0:70:clap.wav
475,192,110449,1,0,0:0:0:0:
109,192,110449,128,0,110800:0:0:0:0:
182,192,110683,128,0,110800:0:0:0:0:
329,192,110918,128,0,111503:0:0:0:0:
36,192,110918,1,0,0:0:0:0:
182,192,110918,1,0,0:0:0:0:
475,192,111152,128,0,111738:0:0:0:0:
256,192,111386,128,0,111503:0:0:0:0:
36,192,111386,1,0,0:0:0:0:
109,192,111386,1,0,0:0:0:70:clap.wav
182,192,111386,1,0,0:0:0:0:
402,192,111621,128,0,111738:0:0:0:0:
182,192,111855,128,0,112441:0:0:0:0:
36,192,112089,128,0,112675:0:0:0:0:
475,192,112324,1,0,0:0:0:0:
402,192,112324,1,0,0:0:0:70:clap.wav
329,192,112324,1,0,0:0:0:0:
256,192,112324,128,0,112441:0:0:0:0:
109,192,112558,128,0,112675:0:0:0:0:
256,192,112793,128,0,114668:0:0:0:0:
475,192,112793,128,0,113261:0:0:0:0:
36,192,112793,1,0,0:0:0:0:
402,192,113027,1,0,0:0:0:0:
182,192,113261,1,0,0:0:0:0:
36,192,113261,1,0,0:0:0:0:
109,192,113261,1,0,0:0:0:70:clap.wav
329,192,113261,128,0,113730:0:0:0:0:
402,192,113496,1,0,0:0:0:0:
475,192,113730,128,0,114199:0:0:0:0:
182,192,113964,1,0,0:0:0:0:
109,192,113964,1,0,0:0:0:70:clap.wav
36,192,113964,1,0,0:0:0:0:
402,192,113964,1,0,0:0:0:0:
182,192,114199,1,0,0:0:0:0:
36,192,114199,1,0,0:0:0:0:
109,192,114199,1,0,0:0:0:70:clap.wav
329,192,114199,128,0,114668:0:0:0:0:
402,192,114433,1,0,0:0:0:0:
475,192,114668,128,0,115488:0:0:0:0:
36,192,114668,1,0,0:0:0:0:
182,192,114668,1,0,0:0:0:0:
256,192,114902,1,0,0:0:0:0:
402,192,115019,128,0,115488:0:0:0:0:
329,192,115019,1,0,0:0:0:0:
36,192,115136,1,0,0:0:0:0:
109,192,115136,1,0,0:0:0:70:clap.wav
182,192,115136,1,0,0:0:0:0:
329,192,115371,128,0,115488:0:0:0:0:
256,192,115371,1,0,0:0:0:0:
36,192,115605,128,0,116425:0:0:0:0:
329,192,115605,1,0,0:0:0:0:
475,192,115605,1,0,0:0:0:0:
256,192,115839,1,0,0:0:0:0:
182,192,115957,1,0,0:0:0:0:
109,192,115957,128,0,116425:0:0:0:0:
402,192,116074,1,0,0:0:0:70:clap.wav
329,192,116074,1,0,0:0:0:0:
475,192,116074,1,0,0:0:0:0:
182,192,116308,128,0,116425:0:0:0:0:
256,192,116308,1,0,0:0:0:0:
182,192,116543,1,0,0:0:0:0:
329,192,116543,128,0,117128:0:0:0:0:
36,192,116543,1,0,0:0:0:0:
475,192,116777,128,0,117363:0:0:0:0:
182,192,116777,1,0,0:0:0:0:
182,192,117011,1,0,0:0:0:0:
256,192,117011,128,0,117128:0:0:0:0:
36,192,117011,1,0,0:0:0:0:
109,192,117011,1,0,0:0:0:70:clap.wav
402,192,117246,128,0,117363:0:0:0:0:
182,192,117480,128,0,118066:0:0:0:0:
36,192,117714,128,0,118300:0:0:0:0:
329,192,117714,1,0,0:0:0:0:
402,192,117714,1,0,0:0:0:70:clap.wav
475,192,117714,1,0,0:0:0:0:
475,192,117949,1,0,0:0:0:0:
402,192,117949,1,0,0:0:0:70:clap.wav
329,192,117949,1,0,0:0:0:0:
256,192,117949,128,0,118066:0:0:0:0:
109,192,118183,128,0,118300:0:0:0:0:
475,192,118418,128,0,118769:0:0:0:0:
36,192,118418,1,0,0:0:0:0:
256,192,118418,1,0,0:0:0:0:
182,192,118652,1,0,0:0:0:0:
109,192,118652,1,0,0:0:0:0:
256,192,118769,128,0,119238:0:0:0:0:
329,192,118886,1,0,0:0:0:0:
402,192,118886,1,0,0:0:0:70:clap.wav
475,192,118886,1,0,0:0:0:0:
36,192,119121,128,0,119238:0:0:0:0:
109,192,119355,128,0,119707:0:0:0:0:
36,192,119355,1,0,0:0:0:0:
256,192,119355,1,0,0:0:0:0:
475,192,119355,1,0,0:0:0:0:
329,192,119589,1,0,0:0:0:0:
402,192,119589,1,0,0:0:0:0:
256,192,119707,128,0,120175:0:0:0:0:
182,192,119824,1,0,0:0:0:70:clap.wav
36,192,119824,1,0,0:0:0:0:
109,192,119824,1,0,0:0:0:0:
402,192,120058,128,0,120175:0:0:0:0:
36,192,120293,1,0,0:0:0:0:
182,192,120293,1,0,0:0:0:0:
475,192,120293,1,0,0:0:0:0:
329,192,120293,1,0,0:0:0:0:
256,192,120527,1,0,0:0:0:0:
329,192,120761,1,0,0:0:0:0:
402,192,120761,1,0,0:0:0:70:clap.wav
475,192,120761,1,0,0:0:0:0:
182,192,120996,128,0,121699:0:0:0:0:
36,192,121230,1,0,0:0:0:0:
329,192,121464,1,0,0:0:0:0:
402,192,121464,1,0,0:0:0:70:clap.wav
475,192,121464,1,0,0:0:0:0:
329,192,121699,1,0,0:0:0:0:
402,192,121699,1,0,0:0:0:70:clap.wav
475,192,121699,1,0,0:0:0:0:
36,192,122168,1,0,0:0:0:0:
256,192,122168,1,0,0:0:0:70:cymbol.wav
109,192,122168,1,0,0:0:0:0:
329,192,122636,1,0,0:0:0:0:
402,192,122636,1,0,0:0:0:70:clap.wav
475,192,122636,1,0,0:0:0:0:
36,192,123105,1,0,0:0:0:0:
256,192,123105,1,0,0:0:0:0:
36,192,123339,1,0,0:0:0:0:
329,192,123574,1,0,0:0:0:0:
402,192,123574,1,0,0:0:0:70:clap.wav
475,192,123574,1,0,0:0:0:0:
36,192,124043,1,0,0:0:0:0:
182,192,124277,1,0,0:0:0:0:
329,192,124511,1,0,0:0:0:0:
402,192,124511,1,0,0:0:0:70:clap.wav
475,192,124511,1,0,0:0:0:0:
109,192,124746,128,0,125449:0:0:0:0:
36,192,124980,1,0,0:0:0:0:
329,192,125214,1,0,0:0:0:0:
402,192,125214,1,0,0:0:0:70:clap.wav
475,192,125214,1,0,0:0:0:0:
329,192,125449,1,0,0:0:0:0:
402,192,125449,1,0,0:0:0:70:clap.wav
475,192,125449,1,0,0:0:0:0:
109,192,125683,1,0,0:0:0:0:
182,192,125918,128,0,126386:0:0:0:0:
36,192,125918,1,0,0:0:0:0:
256,192,125918,1,0,0:0:0:0:
329,192,126386,1,0,0:0:0:0:
475,192,126386,1,0,0:0:0:0:
402,192,126386,1,0,0:0:0:70:clap.wav
109,192,126855,128,0,127324:0:0:0:0:
36,192,126855,1,0,0:0:0:0:
256,192,126855,1,0,0:0:0:0:
256,192,127089,1,0,0:0:0:0:
329,192,127324,1,0,0:0:0:0:
402,192,127324,1,0,0:0:0:70:clap.wav
475,192,127324,1,0,0:0:0:0:
36,192,127793,1,0,0:0:0:0:
182,192,128027,1,0,0:0:0:0:
329,192,128261,1,0,0:0:0:0:
475,192,128261,1,0,0:0:0:0:
402,192,128261,1,0,0:0:0:70:clap.wav
182,192,128496,128,0,129199:0:0:0:0:
36,192,128730,1,0,0:0:0:0:
402,192,128964,1,0,0:0:0:70:clap.wav
329,192,128964,1,0,0:0:0:0:
475,192,128964,1,0,0:0:0:0:
402,192,129199,1,0,0:0:0:70:clap.wav
329,192,129199,1,0,0:0:0:0:
475,192,129199,1,0,0:0:0:0:
182,192,129433,1,0,0:0:0:0:
36,192,129668,1,0,0:0:0:0:
256,192,129668,1,0,0:0:0:0:
109,192,129902,1,0,0:0:0:0:
329,192,130136,1,0,0:0:0:0:
402,192,130136,1,0,0:0:0:70:clap.wav
475,192,130136,1,0,0:0:0:0:
182,192,130371,1,0,0:0:0:0:
36,192,130605,1,0,0:0:0:0:
182,192,130839,1,0,0:0:0:0:
329,192,131074,1,0,0:0:0:0:
402,192,131074,1,0,0:0:0:70:clap.wav
475,192,131074,1,0,0:0:0:0:
182,192,131308,1,0,0:0:0:0:
36,192,131543,128,0,132949:0:0:0:0:
256,192,131543,1,0,0:0:0:0:
475,192,131543,1,0,0:0:0:0:
182,192,131777,1,0,0:0:0:0:
256,192,132011,128,0,132949:0:0:0:0:
402,192,132011,1,0,0:0:0:70:clap.wav
329,192,132011,1,0,0:0:0:0:
475,192,132011,1,0,0:0:0:0:
182,192,132246,1,0,0:0:0:0:
109,192,132480,128,0,132949:0:0:0:0:
475,192,132714,1,0,0:0:0:0:
329,192,132714,1,0,0:0:0:0:
402,192,132714,1,0,0:0:0:70:clap.wav
475,192,132949,1,0,0:0:0:0:
329,192,132949,1,0,0:0:0:0:
402,192,132949,1,0,0:0:0:70:clap.wav
182,192,133183,1,0,0:0:0:0:
36,192,133418,1,0,0:0:0:0:
182,192,133652,1,0,0:0:0:0:
329,192,133886,1,0,0:0:0:0:
402,192,133886,1,0,0:0:0:70:clap.wav
475,192,133886,1,0,0:0:0:0:
109,192,134121,1,0,0:0:0:0:
256,192,134355,1,0,0:0:0:0:
109,192,134589,1,0,0:0:0:0:
329,192,134824,1,0,0:0:0:0:
402,192,134824,1,0,0:0:0:70:clap.wav
475,192,134824,1,0,0:0:0:0:
182,192,135058,1,0,0:0:0:0:
36,192,135293,1,0,0:0:0:0:
182,192,135527,1,0,0:0:0:0:
329,192,135761,1,0,0:0:0:0:
402,192,135761,1,0,0:0:0:70:clap.wav
475,192,135761,1,0,0:0:0:0:
109,192,135996,128,0,136699:0:0:0:0:
36,192,136230,1,0,0:0:0:0:
329,192,136464,1,0,0:0:0:0:
402,192,136464,1,0,0:0:0:70:clap.wav
475,192,136464,1,0,0:0:0:0:
329,192,136699,1,0,0:0:0:0:
402,192,136699,1,0,0:0:0:70:clap.wav
475,192,136699,1,0,0:0:0:0:
