osu file format v14

[General]
AudioFilename: Vocal (katsu sumijun R&B HOUSE Revival) Halozy.mp3
AudioLeadIn: 0
PreviewTime: -1
Countdown: 0
SampleSet: None
StackLeniency: 0.7
Mode: 0
LetterboxInBreaks: 1
WidescreenStoryboard: 0

[Editor]
Bookmarks: 16950,31606,64584,86568,93897,123210,152522,185500
DistanceSpacing: 1
BeatDivisor: 4
GridSize: 8
TimelineZoom: 1

[Metadata]
Title:Katsu Sumijun R&B HOUSE Revival
TitleUnicode:Katsu Sumijun R&B HOUSE Revival
Artist:Halozy
ArtistUnicode:Halozy
Creator:Ilfri-chan
Version:Insane
Source:
Tags:
BeatmapID:670818
BeatmapSetID:298959

[Difficulty]
HPDrainRate:5
CircleSize:5
OverallDifficulty:8
ApproachRate:9
SliderMultiplier:2
SliderTickRate:1

[Events]
//Background and Video events
//Break Periods
2,70051,183068
//Storyboard Layer 0 (Background)
//Storyboard Layer 1 (Fail)
//Storyboard Layer 2 (Pass)
//Storyboard Layer 3 (Foreground)
//Storyboard Sound Samples

[TimingPoints]
2293.98651811003,458.015267175573,4,1,0,45,1,0
55423,-100,4,1,0,30,0,0
57255,-100,4,1,0,35,0,0
60919,-100,4,1,0,40,0,0
61835,-100,4,1,0,45,0,0
64584,-66.6666666666667,4,1,0,45,0,1
86568,-100,4,1,0,45,0,0

[HitObjects]
120,112,461,6,0,P|176:80|192:96,1,100
168,248,919,1,0,0:0:0:0:
320,264,1148,2,0,P|352:208|336:192,1,100
335,41,1606,1,0,0:0:0:0:
256,192,1835,12,0,2293,0:0:0:0:
104,120,2522,5,0,0:0:0:0:
210,226,2752,2,0,P|208:160|176:160,1,100
304,224,3210,2,0,P|306:158|338:158,1,100
432,48,3668,1,0,0:0:0:0:
432,48,3897,1,0,0:0:0:0:
288,96,4126,6,0,P|224:120|184:112,1,100
184,264,4584,2,0,P|240:296|288:304,1,100
200,176,5042,1,0,0:0:0:0:
112,56,5271,1,0,0:0:0:0:
64,200,5500,1,0,0:0:0:0:
64,200,5729,1,0,0:0:0:0:
368,64,5958,6,0,P|384:112|360:168,1,100
240,80,6416,2,0,P|168:72|136:104,1,100
296,48,6874,2,0,P|368:40|392:64,1,100
296,176,7332,1,0,0:0:0:0:
296,176,7561,1,0,0:0:0:0:
144,152,7790,6,0,P|88:160|56:192,1,100
72,224,8133,1,0,0:0:0:0:
88,264,8248,2,0,P|128:296|192:312,1,100
320,264,8706,2,0,P|376:232|400:184,1,100
392,168,9049,1,0,0:0:0:0:
376,128,9164,1,0,0:0:0:0:
256,40,9393,1,0,0:0:0:0:
112,96,9622,6,0,P|72:128|56:176,1,100
184,256,10080,2,0,P|256:272|304:264,1,100
312,248,10423,1,0,0:0:0:0:
344,224,10538,2,0,P|392:184|416:136,1,100
288,64,10996,1,0,0:0:0:0:
152,128,11225,1,0,0:0:0:0:
45,234,11454,6,0,P|72:288|128:320,1,100
152,311,11797,1,0,0:0:0:0:
202,311,11912,1,0,0:0:0:0:
343,169,12141,1,0,0:0:0:0:
378,204,12255,1,0,0:0:0:0:
396,250,12370,1,0,0:0:0:0:
246,250,12599,2,0,P|240:192|264:144,2,100,0|0|0,0:0|0:0|0:0,0:0:0:0:
139,143,13286,6,0,P|160:88|208:80,1,100
139,143,13744,2,0,P|96:200|88:248,1,100
195,332,14202,2,0,P|264:296|272:264,1,100
420,279,14660,1,0,0:0:0:0:
420,129,14889,1,0,0:0:0:0:
256,192,15118,12,0,15576,0:0:0:0:
256,192,15690,12,0,16034,0:0:0:0:
256,192,16148,12,0,16950,0:0:0:0:
216,192,17179,5,0,0:0:0:0:
322,298,17408,2,0,P|344:240|336:192,1,100
339,153,17752,1,0,0:0:0:0:
339,103,17866,2,0,P|296:80|224:72,1,100
139,177,18324,1,0,0:0:0:0:
139,326,18553,1,0,0:0:0:0:
192,96,18782,6,0,P|232:144|224:184,1,100
227,327,19240,2,0,P|304:312|304:272,1,100
306,253,19584,1,0,0:0:0:0:
306,203,19698,2,0,L|304:88,1,100
139,177,20156,1,0,0:0:0:0:
139,326,20385,1,0,0:0:0:0:
122,75,20614,5,0,0:0:0:0:
271,75,20843,1,0,0:0:0:0:
377,181,21072,2,0,P|384:240|368:288,1,100
322,278,21416,1,0,0:0:0:0:
272,278,21530,2,0,P|264:224|280:176,1,100
170,75,21988,1,0,0:0:0:0:
63,181,22217,1,0,0:0:0:0:
169,287,22446,6,0,P|224:312|264:304,1,100
367,199,22904,2,0,P|400:256|416:304,1,100
461,287,23248,1,0,0:0:0:0:
496,251,23362,2,0,P|488:192|464:152,1,100
362,51,23820,1,0,0:0:0:0:
149,263,24278,6,0,P|224:304|280:312,1,100
287,307,24622,1,0,0:0:0:0:
336,307,24736,1,0,0:0:0:0:
336,157,24965,1,0,0:0:0:0:
287,145,25080,1,0,0:0:0:0:
238,131,25194,1,0,0:0:0:0:
88,131,25423,2,0,P|72:192|72:240,2,100
194,24,26110,6,0,P|280:40|304:56,1,100
331,73,26454,1,0,0:0:0:0:
366,108,26568,1,0,0:0:0:0:
366,207,26797,2,0,P|344:256|304:272,1,100
203,272,27255,2,0,L|112:232,1,100
111,81,27713,1,0,0:0:0:0:
260,81,27942,6,0,P|320:80|352:120,1,100
371,149,28286,1,0,0:0:0:0:
388,195,28400,1,0,0:0:0:0:
242,156,28629,1,0,0:0:0:0:
206,191,28744,1,0,0:0:0:0:
170,226,28858,1,0,0:0:0:0:
319,226,29087,2,0,P|304:160|296:120,1,100
191,22,29545,1,0,0:0:0:0:
256,192,29774,12,0,31377,0:0:0:0:
144,256,31606,5,0,0:0:0:0:
256,192,31835,12,0,33210,0:0:0:0:
160,96,33439,6,0,L|352:96,1,150
310,321,34126,2,0,L|312:160,1,150
161,246,34813,2,0,L|160:392,1,100
160,196,35271,6,0,L|160:40,1,150
385,46,35958,2,0,L|384:208,1,150
158,195,36645,2,0,L|296:192,1,100
364,298,37103,6,0,L|256:152,1,150
362,84,37790,2,0,L|216:192,1,150
82,332,38477,2,0,P|96:272|144:296,1,100
122,122,38935,6,0,L|280:120,1,150
326,58,39622,2,0,L|328:216,1,150
168,48,40309,2,0,P|112:80|128:104,1,100
224,201,40767,6,0,L|384:200,1,150
265,224,41454,2,0,L|264:64,1,150
104,233,42141,2,0,P|120:280|176:280,1,100
164,136,42599,6,0,L|312:80,1,150
312,100,43286,2,0,L|368:248,1,150
139,240,43973,2,0,L|200:328,1,100
195,172,44431,6,0,L|192:16,1,150
351,181,45118,2,0,L|448:320,1,150
211,304,45805,2,0,L|312:304,1,100
204,197,46263,6,0,L|112:64,1,150
343,73,46950,2,0,L|224:184,1,150
392,334,47637,2,0,P|392:272|336:248,1,100
259,144,48095,6,0,L|128:64,1,150,4|0,0:0|0:0,0:0:0:0:
80,65,48553,1,0,0:0:0:0:
221,206,49011,1,0,0:0:0:0:
362,347,49469,1,0,0:0:0:0:
362,147,49927,6,0,P|288:80|224:88,1,150
192,81,50385,1,0,0:0:0:0:
192,280,50843,1,0,0:0:0:0:
391,280,51301,1,0,0:0:0:0:
391,80,51759,6,0,P|272:48|232:48,1,150
200,56,52217,1,0,0:0:0:0:
200,255,52675,1,0,0:0:0:0:
399,255,53133,1,0,0:0:0:0:
257,113,53591,6,0,P|176:112|112:160,1,150
85,184,54049,1,0,0:0:0:0:
226,325,54507,1,0,0:0:0:0:
26,325,54965,1,0,0:0:0:0:
167,183,55423,5,0,0:0:0:0:
273,76,55652,1,0,0:0:0:0:
379,182,55881,1,0,0:0:0:0:
485,75,56110,1,0,0:0:0:0:
485,224,56339,1,0,0:0:0:0:
378,117,56568,1,0,0:0:0:0:
271,223,56797,1,0,0:0:0:0:
164,116,57026,1,0,0:0:0:0:
164,265,57255,6,0,P|224:296|264:296,1,100
255,147,57713,2,0,P|176:128|136:144,1,100
53,238,58171,1,0,0:0:0:0:
159,344,58400,1,0,0:0:0:0:
308,344,58629,1,0,0:0:0:0:
414,237,58858,1,0,0:0:0:0:
376,144,59087,6,0,L|336:88,4,50
300,144,59660,2,0,L|264:88,3,50
219,155,60118,2,0,L|184:96,3,50
140,165,60576,2,0,L|112:120,3,50
63,122,61034,1,0,0:0:0:0:
63,146,61148,1,0,0:0:0:0:
63,171,61263,1,0,0:0:0:0:
63,195,61377,1,0,0:0:0:0:
63,220,61492,1,0,0:0:0:0:
63,244,61606,1,0,0:0:0:0:
73,266,61721,1,0,0:0:0:0:
95,276,61835,2,0,L|136:280,12,33.3333333333333
184,96,64584,6,0,P|216:176|320:248,1,150.000005722046
286,246,64927,1,0,0:0:0:0:
312,272,65042,2,0,P|408:272|456:216,1,150.000005722046
338,132,65500,1,0,0:0:0:0:
231,25,65729,1,0,0:0:0:0:
124,131,65958,1,0,0:0:0:0:
17,24,66187,1,0,0:0:0:0:
17,173,66416,6,0,P|88:240|152:264,1,150.000005722046
169,274,66759,1,0,0:0:0:0:
205,281,66874,2,0,P|320:288|360:240,1,150.000005722046
340,120,67332,1,0,0:0:0:0:
233,13,67561,1,0,0:0:0:0:
339,119,67790,1,0,0:0:0:0:
233,13,68019,1,0,0:0:0:0:
130,115,68248,6,0,P|88:208|112:256,1,150.000005722046
130,272,68591,1,0,0:0:0:0:
156,298,68706,1,0,0:0:0:0:
305,298,68935,1,0,0:0:0:0:
342,298,69049,1,0,0:0:0:0:
379,298,69164,1,0,0:0:0:0:
448,168,69393,2,0,P|424:96|312:72,1,150.000005722046
361,64,69851,1,0,0:0:0:0:
192,152,183668,6,0,L|208:176,1,25
424,304,184011,2,0,L|392:280,1,25
192,272,184355,2,0,L|232:256,1,25
339,138,184813,2,0,P|304:80|256:64,1,100
126,67,185271,1,0,0:0:0:0:
