osu file format v14

[General]
AudioFilename: Gennryuu Kaiko.mp3
AudioLeadIn: 0
PreviewTime: 1099
Countdown: 0
SampleSet: Soft
StackLeniency: 0.2
Mode: 0
LetterboxInBreaks: 0
EpilepsyWarning: 1
WidescreenStoryboard: 1

[Editor]
DistanceSpacing: 0.6
BeatDivisor: 4
GridSize: 4
TimelineZoom: 1.8

[Metadata]
Title:Genryuu Kaiko
TitleUnicode:源流懐古
Artist:Halozy
ArtistUnicode:Halozy
Creator:Hollow Wings
Version:Higan Torrent
Source:東方Project
Tags:Touhou Cosmic Armonica ほたる hotaru すみじゅん Sumijun くまりす kumarisu 東方花映塚 彼岸帰航 Higan Retour ~ Riverside View 小野塚 小町 おのづか こまち Onozuka Komachi th09 c79 HW ShallICompareThee SICT zun
BeatmapID:433005
BeatmapSetID:180138

[Difficulty]
HPDrainRate:6
CircleSize:4
OverallDifficulty:8
ApproachRate:9.6
SliderMultiplier:2.8
SliderTickRate:1

[Events]
//Background and Video events
0,0,"Gennryuu Kaiko.jpg",0,0
//Break Periods
//Storyboard Layer 0 (Background)
//Storyboard Layer 1 (Fail)
//Storyboard Layer 2 (Pass)
//Storyboard Layer 3 (Foreground)
//Storyboard Sound Samples

[TimingPoints]
-1155,346.820809248555,4,2,1,70,1,0
1619,-200,4,2,1,70,0,0
1792,-200,4,2,1,60,0,0
12717,-100,4,2,1,80,0,0
23469,-50,4,2,1,100,0,0
23816,-100,4,2,2,100,0,1
24162,-100,4,2,2,100,0,0
34567,-100,4,2,1,100,0,0
34914,-100,4,2,2,100,0,1
35261,-100,4,2,2,100,0,0
44625,-100,4,2,1,80,0,0
45145,-100,4,2,2,70,0,0
46012,-100,4,2,1,80,0,0
66821,-200,4,2,1,70,0,0
68209,-100,4,2,2,90,0,0
77920,-100,4,2,1,80,0,0
78960,-66.6666666666667,4,2,1,90,0,0
79307,-100,4,2,2,90,0,1
100116,-100,4,2,1,80,0,1
101157,-66.6666666666667,4,2,1,90,0,0
101503,-100,4,2,2,100,0,1
101850,-100,4,2,2,100,0,0
112255,-100,4,2,1,100,0,0
112602,-80,4,2,2,100,0,1
112949,-80,4,2,2,80,0,0
122313,-100,4,2,1,70,0,0
122833,-100,4,2,2,80,0,0
123700,-100,4,2,1,100,0,1
123873,-100,4,2,1,80,0,0
134798,-133.333333333333,4,2,1,70,0,0
144509,-200,4,2,1,80,0,0
145897,-100,4,2,2,90,0,0
155608,-100,4,2,1,80,0,0
156648,-66.6666666666667,4,2,1,90,0,0
156995,-100,4,2,2,90,0,1
177804,-100,4,2,1,80,0,1
178845,-66.6666666666667,4,2,1,90,0,1
179191,-200,4,2,1,50,0,0
201388,-133.333333333333,4,2,1,70,0,0
212486,-100,4,2,1,80,0,0
221850,-80,4,2,1,90,0,0
222197,-80,4,2,1,100,0,0
223238,-57.1428571428571,4,2,1,90,0,0
223584,-66.6666666666667,4,2,2,90,0,1
243006,-100,4,2,2,90,0,1
243873,-80,4,2,2,90,0,1
244047,-66.6666666666667,4,2,2,90,0,1
244394,-66.6666666666667,4,2,1,100,0,1
245434,-50,4,2,1,90,0,0
245781,-80,4,2,2,80,0,1
246128,-80,4,2,2,80,0,0
256879,-80,4,2,2,100,0,1
257226,-80,4,2,2,100,0,0
266590,-66.6666666666667,4,2,1,100,0,0
267977,-100,4,2,2,80,0,1
268324,-100,4,2,2,80,0,0
278729,-100,4,2,1,80,0,0
279076,-80,4,2,2,80,0,1
279423,-80,4,2,2,80,0,0
288787,-80,4,2,1,70,0,0
289307,-80,4,2,2,80,0,0
290174,-50,4,2,2,100,0,1
295376,-50,4,2,2,100,0,0
295723,-50,4,2,2,100,0,1
301272,-100,4,2,1,100,0,0
301359,-100,4,2,1,30,0,0
302660,-100,4,2,1,25,0,0
304047,-100,4,2,1,20,0,0
305434,-100,4,2,1,15,0,0

[Colours]
Combo1 : 255,0,0
Combo2 : 136,106,255
Combo3 : 255,149,181
Combo4 : 194,102,75
Combo5 : 237,159,143

[HitObjects]
76,270,1619,6,0,B|106:271|128:253|128:253|144:272|178:280|178:280|201:258|241:250|276:264,1,210,6|0,0:1|0:0,0:0:0:0:
240,340,2660,1,0,0:0:0:0:
432,191,3006,6,0,B|401:192|379:174|379:174|363:193|329:201|329:201|307:179|266:171|232:185,1,210
268,261,4047,1,0,0:0:0:0:
268,261,4740,5,0,0:0:0:0:
240,182,4914,1,0,0:0:0:0:
280,111,5087,1,0,0:0:0:0:
260,34,5434,5,0,0:0:0:0:
76,253,5781,2,0,B|106:251|128:269|128:269|144:250|178:242|178:242|201:265|241:272|276:259,2,210
432,191,7168,22,0,B|401:192|379:174|379:174|363:193|329:201|329:201|307:179|266:171|232:185,1,210
268,261,8209,1,0,0:0:0:0:
77,113,8555,6,0,B|107:114|129:96|129:96|145:115|179:123|179:123|202:101|242:93|277:107,1,210
241,183,9596,1,0,0:0:0:0:
260,34,9943,5,0,0:0:0:0:
268,261,10116,1,0,0:0:0:0:
280,111,10463,5,0,0:0:0:0:
221,331,10810,21,0,0:0:0:0:
241,183,10983,1,0,0:0:0:0:
260,34,11157,1,0,0:0:0:0:
268,261,11330,6,0,B|261:236|261:236|241:220|241:220|262:186|304:189|304:189|314:138|263:93,1,210
256,192,11937,12,0,12631,3:0:0:0:
77,223,12717,5,6,0:1:0:0:
298,340,13064,2,0,B|345:343|386:321|386:321|448:337,1,140,8|0,0:0|0:0,0:0:0:0:
77,223,13584,5,2,0:0:0:0:
298,340,13758,2,0,B|345:343|386:321|386:321|448:337,1,140,10|0,0:0|0:0,0:0:0:0:
434,113,14105,21,2,0:0:0:0:
213,230,14452,2,0,B|166:233|125:211|125:211|63:227,1,140,8|2,0:0|0:0,0:0:0:0:
434,113,14972,5,2,0:0:0:0:
213,230,15146,2,0,B|166:233|125:211|125:211|63:227,1,140,8|0,0:0|0:0,0:0:0:0:
298,340,15492,5,2,0:0:0:0:
200,118,15839,2,0,P|198:34|253:6,1,140,8|0,0:0|0:0,0:0:0:0:
298,340,16186,5,2,0:0:0:0:
298,340,16359,1,2,0:0:0:0:
200,118,16532,2,0,P|198:34|253:6,1,140,8|0,0:0|0:0,0:0:0:0:
259,230,16879,21,2,0:0:0:0:
298,340,17226,2,0,P|300:256|245:228,1,140,8|2,0:0|0:0,0:0:0:0:
259,230,17746,5,2,0:0:0:0:
298,340,17920,2,0,P|300:256|245:228,1,140,8|0,0:0|0:0,0:0:0:0:
426,321,18266,5,6,0:1:0:0:
71,152,18613,2,0,L|52:300,1,140,8|0,0:0|0:0,0:0:0:0:
426,321,19134,5,2,0:0:0:0:
71,152,19307,2,0,L|52:300,1,140,8|0,0:0|0:0,0:0:0:0:
85,67,19654,21,2,0:0:0:0:
477,32,20001,2,0,L|496:180,1,140,8|2,0:0|0:0,0:0:0:0:
85,67,20521,5,2,0:0:0:0:
477,32,20694,2,0,L|494:170,1,140,8|2,0:0|0:0,0:0:0:0:
246,110,21041,5,2,0:0:0:0:
293,331,21214,1,2,0:0:0:0:
507,255,21388,2,0,L|365:241,1,140,8|0,0:0|0:0,0:0:0:0:
293,331,21908,5,2,0:0:0:0:
507,255,22082,2,0,L|365:241,1,140,8|0,0:0|0:0,0:0:0:0:
298,37,22428,21,4,0:1:0:0:
251,258,22601,1,0,0:3:0:0:
37,182,22775,1,8,0:3:0:0:
298,37,22949,6,0,L|282:114,1,70,4|0,0:3|0:0,0:0:0:0:
251,258,23122,2,0,L|235:335,1,70,0|0,0:0|0:0,0:0:0:0:
37,182,23295,2,0,B|35:140|59:106,1,70,0|0,0:0|0:0,0:0:0:0:
508,255,23469,38,0,P|452:113|236:183,1,420,2|0,0:1|3:0,0:0:0:0:
160,241,23816,5,8,0:1:0:0:
110,242,23902,1,0,0:0:0:0:
64,224,23989,1,0,0:0:0:0:
37,182,24076,1,0,0:0:0:0:
22,135,24162,1,8,0:0:0:0:
29,87,24248,1,0,0:0:0:0:
58,48,24335,1,2,0:0:0:0:
102,27,24422,1,0,0:0:0:0:
150,29,24508,1,0,0:0:0:0:
192,53,24595,1,0,0:0:0:0:
215,96,24683,1,4,0:0:0:0:
244,135,24770,1,0,0:0:0:0:
288,156,24857,1,8,0:0:0:0:
336,154,24943,1,0,0:0:0:0:
378,130,25029,2,0,P|407:103|423:68,1,70,2|0,0:0|0:0,0:0:0:0:
446,343,25203,5,6,0:0:0:0:
402,364,25290,1,0,0:0:0:0:
354,362,25377,1,0,0:0:0:0:
311,340,25463,1,4,0:0:0:0:
287,297,25550,1,8,0:0:0:0:
288,248,25636,1,0,0:0:0:0:
306,201,25723,1,6,0:0:0:0:
288,156,25810,1,0,0:0:0:0:
246,128,25897,1,0,0:0:0:0:
196,126,25983,1,0,0:0:0:0:
154,151,26069,1,4,0:0:0:0:
128,191,26157,1,0,0:0:0:0:
132,240,26242,1,10,0:0:0:0:
168,274,26329,1,0,0:0:0:0:
190,316,26417,2,0,P|185:350|162:385,1,70
336,106,26590,6,0,P|332:72|345:34,1,70,4|0,0:1|0:0,0:0:0:0:
420,146,26764,2,0,P|407:114|410:74,1,70
178,342,26937,6,0,P|151:319|134:289,1,70,8|0,0:0|0:0,0:0:0:0:
32,291,27110,2,0,P|37:256|56:227,1,70
10,132,27284,22,0,P|42:119|77:120,3,70,0|0|6|0,0:0|0:0|0:0|0:0,0:0:0:0:
131,33,27631,2,0,P|157:55|174:85,3,70,8|0|0|0,0:0|0:0|0:0|0:3,0:0:0:0:
258,192,27977,54,0,P|292:197|326:188,1,70,6|0,0:0|0:3,0:0:0:0:
243,156,28151,2,0,P|264:128|274:95,1,70,2|0,0:3|0:0,0:0:0:0:
199,150,28324,2,0,P|180:120|174:86,1,70,8|0,0:0|0:3,0:0:0:0:
173,186,28498,2,0,P|138:186|105:174,1,70,6|0,0:0|0:0,0:0:0:0:
275,289,28671,2,0,P|240:294|206:285,1,70,2|0,0:3|0:3,0:0:0:0:
290,253,28845,2,0,P|268:225|258:192,1,70,4|0,0:0|0:3,0:0:0:0:
334,247,29018,2,0,P|352:217|358:183,1,70,8|0,0:0|0:3,0:0:0:0:
360,283,29192,2,0,P|394:283|427:271,1,70,2|0,0:0|0:0,0:0:0:0:
471,64,29365,5,6,0:0:0:0:
471,113,29451,1,0,0:0:0:0:
451,159,29538,1,0,0:0:0:0:
407,182,29625,1,0,0:0:0:0:
358,183,29712,1,8,0:0:0:0:
318,154,29798,1,0,0:0:0:0:
302,107,29885,1,0,0:0:0:0:
291,59,29972,1,0,0:0:0:0:
263,18,30059,1,0,0:0:0:0:
216,5,30145,1,0,0:0:0:0:
167,14,30232,1,4,0:0:0:0:
132,48,30319,1,0,0:0:0:0:
126,96,30406,1,10,0:0:0:0:
146,139,30492,1,0,0:0:0:0:
189,161,30579,2,0,P|210:120|203:78,1,70
46,21,30753,5,4,0:0:0:0:
30,66,30838,1,0,0:0:0:0:
30,115,30925,1,0,0:0:0:0:
45,161,31011,1,0,0:0:0:0:
72,201,31098,1,10,0:0:0:0:
110,231,31185,1,0,0:0:0:0:
156,245,31271,1,4,0:0:0:0:
205,243,31359,1,0,0:0:0:0:
249,224,31445,1,0,0:0:0:0:
283,189,31531,1,0,0:0:0:0:
319,154,31618,1,6,0:0:0:0:
367,154,31706,1,0,0:0:0:0:
410,177,31791,1,10,0:0:0:0:
422,225,31879,1,0,0:0:0:0:
400,268,31966,2,0,P|401:304|432:344,1,70
317,37,32139,6,0,P|279:37|246:45,1,70,4|0,0:0|0:0,0:0:0:0:
124,96,32313,2,0,P|93:117|72:148,1,70
58,285,32485,1,10,0:0:0:0:
79,328,32572,1,0,0:0:0:0:
117,359,32660,2,0,P|150:371|192:370,3,70
282,356,33006,6,0,P|276:322|277:277,1,70,4|0,0:0|0:0,0:0:0:0:
284,188,33180,2,0,P|295:155|319:117,1,70,10|0,0:0|0:0,0:0:0:0:
377,48,33353,2,0,P|403:25|434:8,1,70,2|0,0:0|0:0,0:0:0:0:
465,206,33527,22,0,L|493:278,3,70,4|0|2|0,0:0|0:0|0:0|0:0,0:0:0:0:
400,268,33873,1,8,0:0:0:0:
393,317,33960,1,0,0:0:0:0:
350,341,34047,2,0,L|269:359,3,70,4|0|2|0,0:0|0:0|0:0|0:0,0:0:0:0:
202,289,34394,2,0,L|122:309,1,70,4|0,0:0|0:0,0:0:0:0:
176,212,34567,5,2,0:1:0:0:
239,174,34653,1,0,0:0:0:0:
312,168,34739,1,2,0:3:0:0:
383,187,34827,1,0,0:0:0:0:
427,246,34914,5,8,0:1:0:0:
433,198,35000,1,0,0:0:0:0:
419,152,35087,1,0,0:0:0:0:
388,116,35173,1,0,0:0:0:0:
346,93,35261,1,8,0:0:0:0:
298,87,35347,1,0,0:0:0:0:
251,96,35433,1,0,0:0:0:0:
209,122,35521,1,0,0:0:0:0:
183,163,35607,1,0,0:0:0:0:
176,212,35694,1,0,0:0:0:0:
185,261,35781,1,6,0:0:0:0:
220,296,35867,1,0,0:0:0:0:
262,319,35953,1,8,0:0:0:0:
311,321,36040,1,0,0:0:0:0:
358,312,36128,2,0,P|336:282|327:249,1,70
346,93,36301,5,4,0:0:0:0:
371,51,36387,1,0,0:0:0:0:
416,32,36474,1,0,0:0:0:0:
463,41,36560,1,4,0:0:0:0:
494,78,36647,1,10,0:0:0:0:
494,127,36734,1,0,0:0:0:0:
476,172,36820,1,4,0:0:0:0:
433,198,36908,1,0,0:0:0:0:
385,190,36994,1,0,0:0:0:0:
336,184,37080,1,0,0:0:0:0:
290,203,37167,1,6,0:0:0:0:
270,247,37255,1,0,0:0:0:0:
279,295,37342,1,8,0:0:0:0:
311,321,37428,1,0,0:0:0:0:
358,328,37515,2,0,P|399:324|442:306,1,70
132,349,37688,22,0,P|91:345|48:327,1,70,4|0,0:1|0:0,0:0:0:0:
85,238,37862,2,0,P|51:214|23:176,1,70
303,134,38035,6,0,P|292:168|290:203,1,70,8|0,0:0|0:0,0:0:0:0:
194,233,38209,2,0,P|201:267|217:299,1,70
311,321,38382,6,0,P|334:287|372:259,3,70,0|0|6|0,0:0|0:0|0:0|0:0,0:0:0:0:
432,337,38729,2,0,P|469:319|515:314,3,70,8|0|0|0,0:0|0:0|0:0|0:0,0:0:0:0:
512,190,39075,22,0,P|479:201|444:201,1,70,6|0,0:0|0:0,0:0:0:0:
443,102,39249,2,0,P|436:136|417:165,1,70,2|0,0:3|0:0,0:0:0:0:
343,110,39423,2,0,P|353:143|374:171,1,70,8|0,0:0|0:0,0:0:0:0:
291,203,39596,2,0,P|324:211|359:207,1,70,6|0,0:0|0:0,0:0:0:0:
233,291,39769,2,0,P|200:303|165:303,1,70,2|0,0:3|0:0,0:0:0:0:
163,203,39943,2,0,P|156:237|139:267,1,70,4|0,0:0|0:0,0:0:0:0:
63,212,40116,2,0,P|73:245|94:272,1,70,8|0,0:0|0:0,0:0:0:0:
12,305,40290,2,0,P|45:313|80:308,1,70,2|0,0:0|0:0,0:0:0:0:
218,98,40463,5,6,0:0:0:0:
244,57,40549,1,0,0:0:0:0:
283,27,40636,1,0,0:0:0:0:
331,20,40722,1,0,0:0:0:0:
380,29,40809,1,8,0:0:0:0:
421,57,40896,1,0,0:0:0:0:
443,102,40983,1,0,0:0:0:0:
440,151,41070,1,0,0:0:0:0:
405,184,41156,1,0,0:0:0:0:
360,202,41242,1,0,0:0:0:0:
331,241,41329,1,4,0:0:0:0:
321,288,41417,1,0,0:0:0:0:
339,333,41503,1,10,0:0:0:0:
380,359,41589,1,0,0:0:0:0:
427,366,41677,2,0,P|467:357|493:332,1,70
405,184,41850,5,4,0:0:0:0:
357,154,41936,1,0,0:0:0:0:
300,156,42023,1,0,0:0:0:0:
251,183,42109,1,0,0:0:0:0:
225,234,42196,1,10,0:0:0:0:
227,290,42283,1,0,0:0:0:0:
254,338,42371,1,4,0:0:0:0:
206,368,42457,1,0,0:0:0:0:
149,370,42544,1,0,0:0:0:0:
96,355,42631,1,0,0:0:0:0:
54,317,42716,1,6,0:0:0:0:
34,265,42804,1,0,0:0:0:0:
23,209,42891,1,8,0:0:0:0:
37,154,42976,1,0,0:0:0:0:
65,104,43064,2,0,P|94:67|135:49,1,70,2|0,0:0|0:0,0:0:0:0:
138,277,43238,5,6,0:0:0:0:
124,201,43323,1,0,0:0:0:0:
153,129,43411,1,0,0:0:0:0:
210,79,43498,1,0,0:0:0:0:
285,62,43583,1,8,0:0:0:0:
361,70,43670,1,0,0:0:0:0:
424,112,43758,1,2,0:0:0:0:
453,184,43844,1,0,0:0:0:0:
454,260,43930,1,0,0:0:0:0:
424,330,44018,1,0,0:0:0:0:
357,291,44105,1,4,0:0:0:0:
329,219,44191,1,0,0:0:0:0:
352,145,44278,1,8,0:0:0:0:
424,112,44365,1,0,0:0:0:0:
500,118,44451,2,0,P|507:83|508:48,1,70,2|0,0:0|0:0,0:0:0:0:
285,62,44625,5,4,0:3:0:0:
279,281,44798,1,0,0:0:0:0:
153,129,44972,1,8,0:0:0:0:
279,281,45145,37,4,0:0:0:0:
197,300,45232,1,0,0:0:0:0:
116,280,45318,1,0,0:0:0:0:
64,212,45405,1,0,0:0:0:0:
54,128,45492,1,0,0:0:0:0:
303,345,45665,37,2,0:1:0:0:
424,330,45752,1,0,0:0:0:0:
505,238,45839,1,0,0:0:0:0:
500,117,45925,1,0,0:0:0:0:
429,17,46012,1,4,0:1:0:0:
424,330,46359,6,0,L|402:178,2,140,8|0|0,0:0|0:0|0:0,0:0:0:0:
500,375,46879,1,2,0:0:0:0:
505,238,47053,2,0,L|482:85,1,140,8|0,0:0|0:0,0:0:0:0:
304,345,47399,5,2,0:0:0:0:
337,148,47573,2,0,L|359:-4,1,140,2|8,0:0|0:0,0:0:0:0:
304,345,47920,1,2,0:0:0:0:
304,345,48266,5,2,0:0:0:0:
337,148,48440,2,0,L|359:-4,1,140,8|0,0:0|0:0,0:0:0:0:
69,9,48787,6,0,L|90:148,1,140,2|0,0:0|0:0,0:0:0:0:
304,345,49134,1,8,0:0:0:0:
123,345,49654,21,2,0:0:0:0:
90,148,49827,2,0,L|69:9,1,140,8|0,0:0|0:0,0:0:0:0:
159,369,50174,5,2,0:0:0:0:
126,172,50347,2,0,L|105:33,1,140,2|8,0:0|0:0,0:0:0:0:
159,369,50694,1,2,0:0:0:0:
159,369,51041,5,2,0:0:0:0:
126,172,51214,2,0,L|105:33,1,140,8|0,0:0|0:0,0:0:0:0:
90,148,51561,6,0,L|69:9,1,140,2|0,0:0|0:0,0:0:0:0:
159,369,51908,2,0,L|138:230,1,140,8|0,0:0|0:0,0:0:0:0:
105,33,52255,1,0,0:0:0:0:
159,369,52428,21,2,0:0:0:0:
90,148,52602,2,0,L|69:9,1,140,8|0,0:0|0:0,0:0:0:0:
374,369,52949,6,0,L|394:230,2,140,0|2|8,0:0|0:0|0:0,0:0:0:0:
443,148,53469,1,2,0:0:0:0:
374,369,53816,5,0,0:0:0:0:
443,148,53989,2,0,L|463:9,1,140,8|0,0:0|0:0,0:0:0:0:
82,380,54336,6,0,L|102:241,1,140,2|0,0:0|0:0,0:0:0:0:
172,21,54683,1,8,0:0:0:0:
82,380,55203,21,2,0:0:0:0:
152,159,55376,2,0,L|172:20,1,140,8|0,0:0|0:0,0:0:0:0:
152,159,55723,5,2,0:0:0:0:
82,380,55897,2,0,L|102:241,1,140,2|8,0:0|0:0,0:0:0:0:
172,21,56243,1,2,0:0:0:0:
82,380,56590,5,2,0:0:0:0:
152,159,56764,2,0,L|172:20,1,140,8|2,0:3|0:3,0:0:0:0:
266,366,57110,5,6,0:1:0:0:
316,35,57284,1,0,0:0:0:0:
404,126,57457,21,8,0:0:0:0:
316,35,57631,1,0,0:0:0:0:
172,21,57804,1,0,0:0:0:0:
48,98,57977,1,2,0:0:0:0:
296,174,58151,2,0,L|316:35,1,140,8|0,0:3|0:0,0:0:0:0:
369,326,58498,5,2,0:0:0:0:
342,180,58671,1,2,0:0:0:0:
316,35,58844,1,8,0:0:0:0:
369,326,59018,1,2,0:0:0:0:
369,326,59365,5,2,0:0:0:0:
205,168,59538,2,0,L|184:29,1,140,8|8,0:0|0:3,0:0:0:0:
135,360,59885,5,2,0:0:0:0:
185,29,60059,1,0,0:0:0:0:
135,360,60232,21,8,0:0:0:0:
60,251,60406,1,0,0:0:0:0:
80,118,60580,1,0,0:0:0:0:
186,29,60753,1,2,0:0:0:0:
165,168,60926,2,0,L|185:29,1,140,8|0,0:3|0:0,0:0:0:0:
369,326,61272,5,2,0:0:0:0:
473,216,61445,1,2,0:0:0:0:
488,66,61619,1,8,0:0:0:0:
369,326,61792,1,2,0:0:0:0:
369,326,62139,5,2,0:0:0:0:
369,172,62313,2,0,L|348:33,1,140,8|8,0:0|0:3,0:0:0:0:
443,358,62660,5,2,0:0:0:0:
488,66,62833,1,0,0:0:0:0:
339,247,63006,21,8,0:0:0:0:
443,358,63180,1,0,0:0:0:0:
445,136,63353,5,0,0:0:0:0:
369,326,63528,1,2,0:0:0:0:
369,172,63701,2,0,L|348:33,1,140,8|0,0:3|0:0,0:0:0:0:
62,272,64047,5,2,0:0:0:0:
82,103,64220,1,2,0:0:0:0:
207,15,64394,1,8,0:0:0:0:
62,272,64567,1,2,0:0:0:0:
62,272,64914,5,2,0:0:0:0:
153,371,65087,2,0,L|132:232,1,140,8|8,0:0|0:3,0:0:0:0:
153,371,65434,21,2,0:0:0:0:
102,30,65608,1,0,0:0:0:0:
224,252,65781,5,8,0:0:0:0:
153,371,65954,1,2,0:0:0:0:
102,30,66128,5,0,0:0:0:0:
211,121,66301,1,2,0:0:0:0:
153,371,66475,2,0,L|132:232,1,140,8|8,0:3|0:3,0:0:0:0:
211,14,66821,6,0,P|175:148|102:31,1,350,2|2,0:0|0:0,0:0:0:0:
165,74,67862,1,8,0:3:0:0:
393,359,68209,22,0,P|413:330|421:296,1,70,4|0,0:1|0:0,0:0:0:0:
338,289,68382,2,0,P|340:254|330:220,1,70
258,265,68555,2,0,P|242:233|217:209,1,70,0|0,0:0|0:0,0:0:0:0:
169,278,68729,2,0,P|140:258|106:250,1,70
411,280,68902,6,0,P|377:271|348:252,1,70
299,320,69075,2,0,P|273:296|258:264,1,70,4|0,0:0|0:0,0:0:0:0:
186,309,69249,2,0,P|176:275|178:240,1,70,8|0,0:0|0:0,0:0:0:0:
95,234,69423,2,0,P|103:200|122:171,1,70,2|0,0:0|0:0,0:0:0:0:
411,280,69596,6,0,P|402:246|383:217,1,70,4|0,0:0|0:0,0:0:0:0:
453,170,69769,2,0,P|429:144|397:129,1,70
96,234,69943,2,0,P|104:200|123:171,1,70
54,124,70116,2,0,P|77:98|109:83,1,70,4|0,0:0|0:0,0:0:0:0:
296,12,70290,6,0,P|305:45|303:80,1,70,0|0,0:0|0:0,0:0:0:0:
186,308,70463,2,0,P|176:274|178:239,1,70,6|0,0:0|0:0,0:0:0:0:
383,84,70636,2,0,P|374:117|355:146,3,70,8|0|2|0,0:0|0:0|0:0|0:0,0:0:0:0:
304,80,70983,22,0,P|270:89|235:87,1,70,4|0,0:0|0:0,0:0:0:0:
139,49,71157,2,0,P|108:32|85:6,1,70,0|0,0:0|0:0,0:0:0:0:
86,154,71330,2,0,P|119:163|154:161,1,70,0|0,0:0|0:0,0:0:0:0:
251,123,71504,2,0,P|281:106|304:80,1,70,0|0,0:0|0:0,0:0:0:0:
427,95,71677,2,0,P|452:118|467:150,1,70,0|0,0:0|0:0,0:0:0:0:
482,253,71851,2,0,P|482:287|471:320,1,70,4|0,0:0|0:0,0:0:0:0:
396,259,72024,6,0,P|386:225|387:190,3,70,8|0|2|0,0:0|0:0|0:0|0:0,0:0:0:0:
469,40,72371,2,0,P|442:64|427:95,1,70,4|0,0:0|0:0,0:0:0:0:
388,191,72544,6,0,P|364:216|332:231,1,70,0|0,0:0|0:0,0:0:0:0:
230,246,72718,2,0,P|195:246|162:235,1,70,0|0,0:0|0:0,0:0:0:0:
79,176,72891,2,0,P|53:152|38:120,1,70,4|0,0:0|0:0,0:0:0:0:
137,299,73064,6,0,P|155:269|161:235,1,70,0|0,0:0|0:0,0:0:0:0:
151,133,73237,2,0,P|142:99|123:70,1,70,6|0,0:0|0:0,0:0:0:0:
241,94,73411,2,0,P|243:129|233:163,1,70,8|0,0:0|0:0,0:0:0:0:
191,256,73584,2,0,P|168:282|138:299,1,70,2|0,0:0|0:0,0:0:0:0:
429,367,73758,22,0,P|398:350|375:324,1,70,8|0,0:1|0:0,0:0:0:0:
333,231,73931,2,0,P|323:197|325:162,1,70,0|0,0:0|0:0,0:0:0:0:
354,64,74105,2,0,P|370:33|396:10,1,70,0|0,0:0|0:0,0:0:0:0:
388,191,74278,6,0,P|364:216|332:231,1,70,0|0,0:0|0:0,0:0:0:0:
160,178,74451,6,0,P|189:159|223:153,1,70,0|0,0:0|0:0,0:0:0:0:
326,163,74625,2,0,P|359:171|388:190,1,70,4|0,0:0|0:0,0:0:0:0:
460,264,74798,2,0,P|478:293|484:327,1,70,8|0,0:0|0:0,0:0:0:0:
333,231,74972,6,0,P|323:197|325:162,1,70,2|0,0:0|0:0,0:0:0:0:
107,5,75145,22,0,P|76:22|55:49,1,70,8|0,0:1|0:0,0:0:0:0:
14,144,75318,2,0,P|6:177|9:212,1,70,0|0,0:0|0:0,0:0:0:0:
42,310,75492,2,0,P|59:340|86:361,1,70,0|0,0:0|0:0,0:0:0:0:
199,266,75665,6,0,P|164:266|131:279,1,70,4|0,0:0|0:0,0:0:0:0:
339,329,75839,6,0,P|320:299|314:265,1,70,0|0,0:0|0:0,0:0:0:0:
325,163,76012,2,0,P|333:129|352:100,1,70,4|0,0:0|0:0,0:0:0:0:
228,129,76186,2,0,P|225:163|235:197,1,70,8|0,0:0|0:0,0:0:0:0:
286,286,76359,2,0,P|308:312|339:328,1,70,2|0,0:0|0:0,0:0:0:0:
476,143,76532,6,0,P|455:114|426:95,1,70,8|0,0:1|0:0,0:0:0:0:
330,60,76705,2,0,P|295:54|261:61,1,70,0|0,0:0|0:0,0:0:0:0:
14,211,76879,2,0,P|34:182|63:163,1,70,0|0,0:0|0:0,0:0:0:0:
160,128,77052,2,0,P|194:122|228:129,1,70,2|0,0:0|0:0,0:0:0:0:
251,344,77226,22,0,P|274:318|287:286,3,70,8|0|4|0,0:1|0:0|0:0|0:0,0:0:0:0:
367,228,77573,2,0,P|401:222|435:229,1,70,8|0,0:0|0:0,0:0:0:0:
295,118,77746,2,0,P|307:85|330:59,1,70,2|0,0:0|0:0,0:0:0:0:
167,253,77920,5,6,0:3:0:0:
160,128,78093,1,0,0:0:0:0:
220,15,78266,1,0,0:0:0:0:
251,344,78440,6,0,P|219:329|194:305,1,70,4|0,0:3|0:0,0:0:0:0:
295,287,78613,2,0,L|273:231,4,35,0|0|0|0|4,0:0|0:0|0:0|0:0|0:3,0:0:0:0:
368,280,78873,5,0,0:0:0:0:
430,319,78960,2,0,P|468:251|466:114,1,210.000008010865,2|0,0:1|0:0,0:0:0:0:
220,15,79307,21,8,0:1:0:0:
171,11,79394,1,0,0:0:0:0:
126,31,79480,1,0,0:0:0:0:
103,75,79567,1,0,0:0:0:0:
104,124,79654,1,8,0:0:0:0:
131,165,79741,1,0,0:0:0:0:
176,185,79827,1,0,0:0:0:0:
225,183,79914,1,0,0:0:0:0:
273,195,80001,1,0,0:0:0:0:
296,237,80088,1,0,0:0:0:0:
295,287,80174,1,4,0:0:0:0:
265,326,80261,1,0,0:0:0:0:
218,341,80348,1,8,0:0:0:0:
171,323,80435,1,0,0:0:0:0:
125,305,80521,2,0,P|91:322|63:358,1,70,2|0,0:0|0:0,0:0:0:0:
365,349,80694,5,4,0:0:0:0:
388,305,80781,1,0,0:0:0:0:
398,257,80867,1,0,0:0:0:0:
395,207,80954,1,0,0:0:0:0:
374,162,81041,1,8,0:0:0:0:
337,129,81128,1,0,0:0:0:0:
291,112,81214,1,4,0:0:0:0:
241,112,81301,1,0,0:0:0:0:
193,123,81388,1,0,0:0:0:0:
152,150,81475,1,0,0:0:0:0:
122,188,81561,1,6,0:0:0:0:
74,199,81648,1,0,0:0:0:0:
31,174,81735,1,8,0:0:0:0:
13,128,81822,1,0,0:0:0:0:
18,79,81908,2,0,P|41:46|77:29,1,70,2|0,0:0|0:0,0:0:0:0:
308,20,82081,6,0,P|340:23|381:45,1,70,4|0,0:1|0:0,0:0:0:0:
446,108,82255,2,0,P|458:138|460:183,1,70
316,373,82428,2,0,P|303:342|301:297,1,70,8|0,0:0|0:0,0:0:0:0:
324,210,82602,2,0,P|343:183|382:159,1,70
300,306,82775,2,0,P|280:332|241:356,1,70
154,380,82949,2,0,P|121:376|80:355,1,70,4|0,0:0|0:0,0:0:0:0:
24,286,83122,2,0,P|11:255|9:210,1,70,8|0,0:0|0:0,0:0:0:0:
32,122,83295,2,0,P|51:95|90:71,1,70,2|0,0:0|0:0,0:0:0:0:
56,269,83469,22,0,P|29:249|5:210,1,70,4|0,0:0|0:0,0:0:0:0:
112,223,83642,2,0,P|99:192|97:147,1,70,2|0,0:0|0:0,0:0:0:0:
186,205,83816,2,0,P|189:172|211:132,1,70,10|0,0:0|0:0,0:0:0:0:
253,232,83989,2,0,P|272:205|311:181,1,70,4|0,0:0|0:0,0:0:0:0:
403,361,84162,2,0,P|429:341|453:302,1,70,2|0,0:0|0:0,0:0:0:0:
347,315,84336,2,0,P|359:284|361:239,1,70,6|0,0:0|0:0,0:0:0:0:
273,297,84509,2,0,P|269:264|248:224,1,70,8|0,0:0|0:0,0:0:0:0:
206,324,84682,2,0,P|186:297|147:273,1,70,2|0,0:0|0:0,0:0:0:0:
30,185,84856,5,4,0:0:0:0:
58,145,84942,1,0,0:0:0:0:
99,119,85029,1,0,0:0:0:0:
147,111,85116,1,0,0:0:0:0:
195,121,85202,1,8,0:0:0:0:
234,149,85289,1,0,0:0:0:0:
261,190,85376,1,0,0:0:0:0:
269,239,85463,1,0,0:0:0:0:
277,287,85549,1,0,0:0:0:0:
303,329,85636,1,0,0:0:0:0:
343,357,85723,1,4,0:0:0:0:
390,367,85809,1,0,0:0:0:0:
438,359,85896,1,8,0:0:0:0:
479,333,85983,1,0,0:0:0:0:
507,293,86070,2,0,P|512:258|499:213,1,70,2|0,0:0|0:0,0:0:0:0:
430,40,86243,5,4,0:0:0:0:
439,88,86329,1,0,0:0:0:0:
437,137,86416,1,0,0:0:0:0:
428,186,86503,1,0,0:0:0:0:
406,230,86589,1,8,0:0:0:0:
378,269,86676,1,0,0:0:0:0:
342,303,86763,1,4,0:0:0:0:
303,329,86849,1,0,0:0:0:0:
257,348,86936,1,0,0:0:0:0:
208,356,87023,1,0,0:0:0:0:
160,355,87110,1,6,0:0:0:0:
112,344,87196,1,0,0:0:0:0:
66,325,87283,1,8,0:0:0:0:
29,292,87370,1,0,0:0:0:0:
1,254,87457,2,0,P|40:263|69:288,1,70,2|0,0:0|0:0,0:0:0:0:
87,136,87631,38,0,P|117:163|138:200,2,70,6|0|2,0:0|0:0|0:0,0:0:0:0:
166,51,87891,1,0,0:0:0:0:
199,87,87977,2,0,P|210:126|211:167,2,70,8|0|2,0:0|0:0|0:0,0:0:0:0:
304,41,88238,1,0,0:0:0:0:
315,89,88324,2,0,P|305:128|285:165,2,70,0|0|6,0:0|0:0|0:0,0:0:0:0:
428,105,88584,1,0,0:0:0:0:
414,153,88671,2,0,P|386:183|349:203,1,70,10|0,0:0|0:0,0:0:0:0:
450,263,88845,2,0,P|410:274|369:275,3,70,2|0|4|0,0:0|0:0|0:0|0:0,0:0:0:0:
361,198,89191,22,0,P|390:179|414:153,1,70,2|0,0:0|0:0,0:0:0:0:
292,154,89365,2,0,P|307:123|315:89,1,70,8|0,0:0|0:0,0:0:0:0:
212,154,89538,2,0,P|209:120|199:87,1,70,6|0,0:0|0:0,0:0:0:0:
31,98,89712,38,0,P|67:117|96:146,1,70
168,24,89885,2,0,P|187:54|199:87,1,70,6|0,0:0|0:0,0:0:0:0:
319,19,90058,2,0,P|321:54|315:89,1,70,10|0,0:0|0:0,0:0:0:0:
453,95,90232,2,0,P|437:126|415:153,1,70,2|0,0:0|0:0,0:0:0:0:
132,188,90405,5,8,0:1:0:0:
83,193,90492,1,0,0:0:0:0:
42,219,90578,1,0,0:0:0:0:
22,264,90665,1,0,0:0:0:0:
25,313,90752,1,8,0:0:0:0:
52,353,90839,1,0,0:0:0:0:
96,372,90925,1,2,0:0:0:0:
145,370,91012,1,0,0:0:0:0:
187,345,91099,1,0,0:0:0:0:
206,299,91186,1,0,0:0:0:0:
236,261,91272,1,4,0:0:0:0:
278,235,91359,1,0,0:0:0:0:
325,220,91446,1,8,0:0:0:0:
374,220,91533,1,0,0:0:0:0:
417,241,91619,2,0,P|455:256|492:261,1,70,2|0,0:0|0:0,0:0:0:0:
116,282,91792,5,4,0:0:0:0:
164,276,91879,1,0,0:0:0:0:
206,299,91966,1,0,0:0:0:0:
228,341,92052,1,0,0:0:0:0:
269,366,92139,1,8,0:0:0:0:
317,375,92226,1,0,0:0:0:0:
363,362,92312,1,6,0:0:0:0:
405,336,92399,1,0,0:0:0:0:
424,290,92486,1,0,0:0:0:0:
417,241,92573,1,0,0:0:0:0:
390,200,92659,1,6,0:0:0:0:
345,180,92746,1,0,0:0:0:0:
297,190,92833,1,8,0:0:0:0:
278,235,92920,1,0,0:0:0:0:
317,270,93006,2,0,P|285:283|248:290,1,70,2|0,0:0|0:0,0:0:0:0:
127,103,93180,6,0,P|154:81|188:65,1,70,4|0,0:1|0:0,0:0:0:0:
273,46,93353,2,0,P|307:40|344:44,1,70,2|0,0:0|0:0,0:0:0:0:
58,140,93527,2,0,P|78:111|107:88,1,70,8|0,0:0|0:0,0:0:0:0:
185,48,93700,2,0,P|216:34|254:27,1,70
317,270,93873,2,0,P|285:283|248:290,1,70,0|0,0:0|0:0,0:0:0:0:
156,286,94047,2,0,P|121:282|86:268,1,70,6|0,0:0|0:0,0:0:0:0:
228,339,94220,2,0,P|262:343|299:340,1,70,8|0,0:0|0:0,0:0:0:0:
384,315,94393,2,0,P|416:302|446:279,1,70,2|0,0:0|0:0,0:0:0:0:
494,189,94567,22,0,P|474:218|447:240,1,70,4|0,0:0|0:0,0:0:0:0:
406,127,94740,2,0,P|404:161|391:194,1,70,2|0,0:0|0:0,0:0:0:0:
297,110,94914,2,0,P|312:141|317:176,1,70,10|0,0:0|0:0,0:0:0:0:
199,155,95087,2,0,P|228:175|250:203,1,70,4|0,0:0|0:0,0:0:0:0:
52,281,95260,2,0,P|72:310|100:332,1,70,2|0,0:0|0:0,0:0:0:0:
140,219,95434,2,0,P|142:253|156:286,1,70,6|0,0:0|0:0,0:0:0:0:
249,202,95607,2,0,P|234:233|230:268,1,70,8|0,0:0|0:0,0:0:0:0:
347,247,95781,2,0,P|318:267|297:295,1,70,2|0,0:0|0:0,0:0:0:0:
391,338,95954,5,4,0:0:0:0:
348,362,96040,1,0,0:0:0:0:
301,374,96127,1,0,0:0:0:0:
252,373,96214,1,0,0:0:0:0:
206,359,96300,1,8,0:0:0:0:
165,332,96387,1,0,0:0:0:0:
133,295,96474,1,0,0:0:0:0:
112,251,96560,1,0,0:0:0:0:
104,203,96647,1,0,0:0:0:0:
109,154,96734,1,0,0:0:0:0:
128,109,96821,1,6,0:0:0:0:
158,71,96907,1,0,0:0:0:0:
197,42,96994,1,8,0:0:0:0:
243,25,97081,1,0,0:0:0:0:
292,21,97168,2,0,P|333:28|366:40,1,70,2|0,0:0|0:0,0:0:0:0:
84,167,97342,5,4,0:0:0:0:
97,116,97428,1,0,0:0:0:0:
126,71,97515,1,0,0:0:0:0:
167,35,97602,1,0,0:0:0:0:
216,12,97688,1,8,0:0:0:0:
267,3,97775,1,0,0:0:0:0:
320,8,97862,1,4,0:0:0:0:
370,28,97948,1,0,0:0:0:0:
412,61,98035,1,0,0:0:0:0:
443,104,98122,1,0,0:0:0:0:
463,154,98209,1,6,0:0:0:0:
467,207,98295,1,0,0:0:0:0:
457,259,98382,1,8,0:0:0:0:
433,307,98469,1,0,0:0:0:0:
397,345,98556,2,0,P|361:370|325:384,1,70,2|0,0:0|0:0,0:0:0:0:
429,87,98729,5,4,0:0:0:0:
463,154,98815,1,0,0:0:0:0:
467,231,98902,1,0,0:0:0:0:
438,301,98989,1,0,0:0:0:0:
383,353,99075,1,8,0:0:0:0:
310,378,99162,1,0,0:0:0:0:
234,369,99249,1,0,0:0:0:0:
169,330,99335,1,0,0:0:0:0:
126,267,99422,1,0,0:0:0:0:
112,193,99509,1,0,0:0:0:0:
126,117,99596,1,6,0:0:0:0:
176,58,99683,1,0,0:0:0:0:
245,25,99769,1,8,0:0:0:0:
322,25,99856,1,0,0:0:0:0:
394,51,99943,2,0,P|427:81|453:122,1,70
467,230,100116,5,4,0:3:0:0:
271,257,100290,1,0,0:0:0:0:
77,287,100463,1,8,0:0:0:0:
467,230,100636,22,0,L|391:241,1,70,4|0,0:3|0:0,0:0:0:0:
271,257,100810,2,0,L|195:268,1,70
77,287,100983,1,4,0:3:0:0:
466,230,101157,54,0,P|383:344|272:258,1,315.000012016297,2|0,0:1|3:0,0:0:0:0:
370,254,101503,5,8,0:1:0:0:
346,211,101590,1,0,0:0:0:0:
309,177,101677,1,0,0:0:0:0:
259,173,101764,1,0,0:0:0:0:
213,190,101850,1,8,0:0:0:0:
187,231,101936,1,0,0:0:0:0:
185,280,102023,1,2,0:0:0:0:
207,323,102110,1,0,0:0:0:0:
177,360,102196,1,0,0:0:0:0:
129,365,102283,1,0,0:0:0:0:
88,336,102371,1,4,0:0:0:0:
77,287,102458,1,0,0:0:0:0:
96,242,102545,1,8,0:0:0:0:
141,223,102631,1,0,0:0:0:0:
188,231,102717,2,0,P|216:255|225:291,1,70,2|0,0:0|0:0,0:0:0:0:
32,194,102891,5,6,0:0:0:0:
67,161,102977,1,0,0:0:0:0:
114,146,103065,1,0,0:0:0:0:
162,142,103151,1,4,0:0:0:0:
209,154,103238,1,8,0:0:0:0:
250,179,103324,1,0,0:0:0:0:
281,216,103411,1,6,0:0:0:0:
299,261,103498,1,0,0:0:0:0:
302,310,103585,1,0,0:0:0:0:
327,351,103671,1,0,0:0:0:0:
372,367,103757,1,4,0:0:0:0:
421,360,103845,1,0,0:0:0:0:
463,336,103930,1,10,0:0:0:0:
478,289,104017,1,0,0:0:0:0:
477,239,104105,2,0,P|473:201|452:169,1,70
389,278,104278,6,0,P|393:244|380:206,1,70,4|0,0:1|0:0,0:0:0:0:
457,174,104451,2,0,P|443:142|417:118,1,70
146,316,104625,6,0,P|177:302|203:272,1,70,8|0,0:0|0:0,0:0:0:0:
271,323,104798,2,0,P|291:295|299:261,1,70
457,174,104972,22,0,P|443:142|417:118,3,70,0|0|6|0,0:0|0:0|0:0|0:0,0:0:0:0:
459,46,105318,2,0,P|431:25|397:17,3,70,8|0|0|0,0:0|0:0|0:0|0:0,0:0:0:0:
123,118,105665,54,0,P|105:89|98:55,1,70,6|0,0:0|0:0,0:0:0:0:
182,160,105839,2,0,P|217:165|251:156,1,70,2|0,0:3|0:0,0:0:0:0:
97,155,106012,2,0,P|63:155|30:143,1,70,8|0,0:0|0:0,0:0:0:0:
167,125,106186,2,0,P|188:97|199:63,1,70,6|0,0:0|0:0,0:0:0:0:
327,211,106359,2,0,P|345:181|352:147,1,70,2|0,0:3|0:0,0:0:0:0:
268,254,106532,2,0,P|233:258|199:249,1,70,4|0,0:0|0:0,0:0:0:0:
353,248,106705,2,0,P|387:248|420:236,1,70,8|0,0:0|0:0,0:0:0:0:
283,218,106879,2,0,P|262:190|251:156,1,70,2|0,0:0|0:0,0:0:0:0:
471,64,107053,5,6,0:0:0:0:
471,113,107139,1,0,0:0:0:0:
451,159,107226,1,0,0:0:0:0:
407,182,107313,1,0,0:0:0:0:
358,183,107400,1,8,0:0:0:0:
318,154,107486,1,0,0:0:0:0:
302,107,107573,1,0,0:0:0:0:
291,59,107660,1,0,0:0:0:0:
263,18,107747,1,0,0:0:0:0:
216,5,107833,1,0,0:0:0:0:
167,14,107920,1,4,0:0:0:0:
132,48,108007,1,0,0:0:0:0:
126,96,108094,1,10,0:0:0:0:
146,139,108180,1,0,0:0:0:0:
189,161,108267,2,0,P|210:120|203:78,1,70
46,21,108441,5,4,0:0:0:0:
30,66,108526,1,0,0:0:0:0:
30,115,108613,1,0,0:0:0:0:
45,161,108699,1,0,0:0:0:0:
72,201,108786,1,10,0:0:0:0:
110,231,108873,1,0,0:0:0:0:
156,245,108959,1,4,0:0:0:0:
205,243,109047,1,0,0:0:0:0:
249,224,109133,1,0,0:0:0:0:
283,189,109219,1,0,0:0:0:0:
319,154,109306,1,6,0:0:0:0:
367,154,109394,1,0,0:0:0:0:
410,177,109479,1,10,0:0:0:0:
422,225,109567,1,0,0:0:0:0:
400,268,109654,2,0,P|365:274|320:273,1,70,0|0,0:0|0:0,0:0:0:0:
26,316,109827,6,0,P|58:335|91:344,1,70,4|0,0:0|0:0,0:0:0:0:
223,352,110001,2,0,P|260:349|294:332,1,70
400,268,110173,1,10,0:0:0:0:
422,225,110261,1,0,0:0:0:0:
410,177,110348,2,0,P|403:142|382:106,3,70
400,268,110694,6,0,P|365:274|320:273,1,70,4|0,0:0|0:0,0:0:0:0:
231,266,110868,2,0,P|198:255|160:231,1,70,10|0,0:0|0:0,0:0:0:0:
91,173,111041,2,0,P|68:147|50:116,1,70,2|0,0:0|0:0,0:0:0:0:
343,165,111214,22,0,P|376:176|410:176,3,70,4|0|2|0,0:0|0:0|0:0|0:0,0:0:0:0:
324,241,111561,1,8,0:0:0:0:
281,264,111648,1,0,0:0:0:0:
231,266,111735,2,0,P|198:255|160:231,3,70,4|0|2|0,0:0|0:0|0:0|0:0,0:0:0:0:
96,145,112081,2,0,P|81:107|77:69,1,70,4|0,0:0|0:0,0:0:0:0:
200,60,112255,5,2,0:1:0:0:
255,124,112341,1,0,0:0:0:0:
327,164,112427,1,2,0:3:0:0:
410,177,112515,1,0,0:0:0:0:
492,164,112602,5,8,0:1:0:0:
469,107,112688,1,0,0:0:0:0:
410,88,112775,1,2,0:0:0:0:
352,106,112861,1,0,0:0:0:0:
327,164,112949,1,8,0:0:0:0:
335,224,113035,1,0,0:0:0:0:
385,258,113121,1,6,0:0:0:0:
390,319,113209,1,0,0:0:0:0:
356,369,113295,1,2,0:3:0:0:
294,365,113382,1,0,0:0:0:0:
247,325,113469,1,6,0:0:0:0:
231,267,113555,1,0,0:0:0:0:
175,241,113641,1,10,0:0:0:0:
114,250,113728,1,0,0:0:0:0:
79,301,113816,2,0,P|129:318|172:313,1,87.5,14|0,0:0|0:0,0:0:0:0:
410,177,113989,5,4,0:0:0:0:
399,117,114075,1,0,0:0:0:0:
368,61,114162,1,10,0:0:0:0:
313,37,114248,1,4,0:0:0:0:
252,37,114335,1,10,0:0:0:0:
196,61,114422,1,0,0:0:0:0:
167,115,114508,1,4,0:0:0:0:
169,178,114596,1,0,0:0:0:0:
209,225,114683,1,10,0:0:0:0:
265,246,114769,1,0,0:0:0:0:
305,290,114855,1,6,0:0:0:0:
298,351,114943,1,8,0:0:0:0:
244,380,115030,1,2,0:3:0:0:
183,374,115116,1,0,0:0:0:0:
135,335,115203,2,0,P|101:302|89:246,1,87.5,14|0,0:0|0:0,0:0:0:0:
456,171,115376,22,0,P|453:220|429:255,1,87.5,4|0,0:1|0:0,0:0:0:0:
336,174,115550,2,0,P|291:196|249:193,1,87.5
94,308,115723,6,0,P|56:286|35:248,1,87.5,8|0,0:0|0:0,0:0:0:0:
145,196,115897,2,0,P|145:152|167:115,1,87.5
255,195,116070,6,0,P|292:174|335:174,3,87.5,0|0|6|0,0:0|0:0|0:0|0:0,0:0:0:0:
317,290,116417,2,0,P|355:311|376:349,3,87.5,8|0|10|0,0:0|0:0|0:0|0:0,0:0:0:0:
450,236,116764,22,0,P|406:236|369:214,1,87.5,6|0,0:0|0:0,0:0:0:0:
292,41,116937,2,0,P|281:82|292:124,1,87.5,2|0,0:3|0:0,0:0:0:0:
408,66,117110,2,0,P|397:107|366:138,1,87.5,8|0,0:0|0:0,0:0:0:0:
175,174,117284,2,0,P|212:195|255:195,1,87.5,6|0,0:0|0:0,0:0:0:0:
17,369,117457,2,0,P|60:369|97:347,1,87.5,2|0,0:3|0:0,0:0:0:0:
175,174,117630,2,0,P|185:215|174:257,1,87.5,4|0,0:0|0:0,0:0:0:0:
59,199,117804,2,0,P|69:240|100:271,1,87.5,8|0,0:0|0:0,0:0:0:0:
292,307,117977,2,0,P|254:328|211:328,1,87.5,2|0,0:0|0:0,0:0:0:0:
126,66,118151,5,6,0:0:0:0:
175,31,118237,1,0,0:0:0:0:
236,23,118324,1,2,0:0:0:0:
293,41,118410,1,0,0:0:0:0:
323,94,118497,1,8,0:0:0:0:
322,155,118584,1,0,0:0:0:0:
286,205,118671,1,6,0:0:0:0:
231,233,118758,1,0,0:0:0:0:
210,290,118844,1,2,0:3:0:0:
224,349,118930,1,0,0:0:0:0:
278,378,119017,1,6,0:0:0:0:
338,364,119105,1,0,0:0:0:0:
372,313,119191,1,10,0:0:0:0:
355,254,119277,1,0,0:0:0:0:
417,250,119365,2,0,P|457:227|477:189,1,87.5,14|0,0:0|0:0,0:0:0:0:
230,113,119538,5,4,0:0:0:0:
177,142,119624,1,0,0:0:0:0:
137,189,119711,1,10,0:0:0:0:
110,243,119797,1,0,0:0:0:0:
108,304,119884,1,8,0:0:0:0:
115,365,119972,1,0,0:0:0:0:
68,324,120058,1,6,0:0:0:0:
43,268,120145,1,0,0:0:0:0:
38,206,120232,1,8,0:0:0:0:
49,145,120319,1,0,0:0:0:0:
81,94,120404,1,6,0:0:0:0:
130,55,120492,1,8,0:0:0:0:
187,32,120579,1,2,0:3:0:0:
248,28,120664,1,0,0:0:0:0:
307,45,120752,2,0,P|350:41|391:26,1,87.5,14|0,0:0|0:0,0:0:0:0:
229,211,120925,5,6,0:0:0:0:
215,287,121011,1,0,0:0:0:0:
258,354,121099,1,0,0:0:0:0:
333,377,121186,1,0,0:0:0:0:
406,354,121271,1,8,0:0:0:0:
437,281,121358,1,0,0:0:0:0:
429,201,121446,1,2,0:0:0:0:
362,159,121532,1,0,0:0:0:0:
356,81,121619,1,0,0:0:0:0:
418,31,121706,1,0,0:0:0:0:
496,40,121793,1,6,0:0:0:0:
488,117,121879,1,0,0:0:0:0:
411,137,121966,1,10,0:0:0:0:
356,81,122053,1,0,0:0:0:0:
287,43,122139,2,0,P|245:31|201:35,1,87.5,8|0,0:0|0:0,0:0:0:0:
229,211,122313,5,4,0:3:0:0:
406,354,122486,1,0,0:0:0:0:
411,138,122660,1,8,0:0:0:0:
243,355,122833,37,4,0:0:0:0:
325,374,122920,1,0,0:0:0:0:
406,354,123006,1,0,0:0:0:0:
458,286,123093,1,0,0:0:0:0:
468,202,123180,1,4,0:0:0:0:
145,366,123353,37,2,0:1:0:0:
70,269,123440,1,0,0:0:0:0:
77,146,123527,1,0,0:0:0:0:
165,62,123613,1,0,0:0:0:0:
287,43,123700,1,4,0:1:0:0:
44,345,124047,6,0,L|22:193,2,140,8|0|0,0:0|0:0|0:0,0:0:0:0:
145,366,124567,1,2,0:0:0:0:
78,146,124741,2,0,L|55:-7,1,140,8|0,0:0|0:0,0:0:0:0:
184,228,125087,5,2,0:0:0:0:
308,182,125261,2,0,L|286:30,1,140,2|8,0:0|0:0,0:0:0:0:
444,193,125608,1,2,0:0:0:0:
184,228,125954,5,2,0:0:0:0:
308,182,126128,2,0,L|286:30,1,140,8|0,0:0|0:0,0:0:0:0:
298,230,126388,5,0,0:0:0:0:
253,250,126475,2,0,L|274:111,1,140,2|0,0:0|0:0,0:0:0:0:
332,326,126822,1,8,0:0:0:0:
332,326,127342,21,2,0:0:0:0:
308,182,127515,2,0,L|286:30,1,140,8|0,0:0|0:0,0:0:0:0:
298,230,127775,5,0,0:0:0:0:
253,250,127862,1,2,0:0:0:0:
274,145,128035,2,0,L|294:6,1,140,2|8,0:0|0:0,0:0:0:0:
235,355,128382,1,2,0:0:0:0:
235,355,128729,5,2,0:0:0:0:
274,145,128902,2,0,L|294:6,1,140,8|0,0:0|0:0,0:0:0:0:
308,183,129162,5,0,0:0:0:0:
299,230,129249,2,0,L|320:369,1,140,2|0,0:0|0:0,0:0:0:0:
480,157,129596,2,0,L|459:18,1,140,8|0,0:0|0:0,0:0:0:0:
295,7,129943,1,0,0:0:0:0:
151,86,130116,1,2,0:0:0:0:
480,157,130290,2,0,L|459:18,1,140,8|0,0:0|0:0,0:0:0:0:
112,362,130637,22,0,L|132:223,2,140,2|2|8,0:0|0:0|0:0,0:0:0:0:
151,86,131157,1,2,0:0:0:0:
151,86,131503,5,2,0:0:0:0:
112,362,131677,2,0,L|132:223,1,140,8|0,0:0|0:0,0:0:0:0:
194,320,131937,5,0,0:0:0:0:
231,357,132024,2,0,L|210:218,1,140,2|0,0:0|0:0,0:0:0:0:
164,5,132371,1,8,0:0:0:0:
39,364,132891,5,2,0:0:0:0:
145,143,133064,2,0,L|165:4,1,140,8|0,0:0|0:0,0:0:0:0:
221,225,133411,21,2,0:0:0:0:
40,364,133585,2,0,L|60:225,1,140,2|8,0:0|0:0,0:0:0:0:
164,5,133931,1,2,0:0:0:0:
164,5,134278,5,2,0:0:0:0:
40,364,134451,2,0,L|60:225,1,140,8|2,0:3|0:3,0:0:0:0:
44,180,134712,1,0,0:0:0:0:
28,136,134798,6,0,L|44:31,1,105.000004005432,2|0,0:0|0:0,0:0:0:0:
219,270,135145,1,2,0:0:0:0:
219,270,135318,1,0,0:0:0:0:
219,270,135492,2,0,L|203:165,1,105.000004005432,2|0,0:0|0:0,0:0:0:0:
204,167,135839,2,0,L|220:62,1,105.000004005432,2|0,0:0|0:0,0:0:0:0:
435,363,136186,6,0,L|419:258,2,105.000004005432,2|0|2,0:0|0:0|0:0,0:0:0:0:
419,260,136706,1,0,0:0:0:0:
419,260,136879,2,0,L|435:155,2,105.000004005432,2|0|2,0:0|0:0|0:0,0:0:0:0:
330,34,137399,21,0,0:0:0:0:
330,34,137486,1,0,0:0:0:0:
330,34,137573,2,0,L|346:139,2,105.000004005432,2|0|2,0:0|0:0|0:0,0:0:0:0:
275,354,138093,1,0,0:0:0:0:
275,354,138266,2,0,L|291:249,1,105.000004005432,2|0,0:0|0:0,0:0:0:0:
78,116,138613,2,0,L|93:219,1,105.000004005432,2|0,0:0|0:0,0:0:0:0:
314,137,138960,6,0,L|330:32,2,105.000004005432,2|0|2,0:0|0:0|0:0,0:0:0:0:
275,354,139480,1,0,0:0:0:0:
275,354,139653,2,0,L|291:249,1,105.000004005432,10|0,0:0|0:0,0:0:0:0:
194,311,139914,5,0,0:0:0:0:
194,311,140001,2,0,L|170:148,1,157.500006008148,10|0,0:0|3:0,0:0:0:0:
78,116,140347,6,0,L|93:219,1,105.000004005432,8|0,0:1|0:0,0:0:0:0:
76,338,140694,1,2,0:0:0:0:
79,116,140868,1,0,0:0:0:0:
194,312,141041,2,0,L|210:207,1,105.000004005432,2|0,0:0|0:0,0:0:0:0:
335,220,141388,2,0,L|351:115,1,105.000004005432,2|0,0:0|0:0,0:0:0:0:
474,139,141735,22,0,L|490:34,2,105.000004005432,8|0|2,0:1|0:0|0:0,0:0:0:0:
494,337,142255,1,0,0:0:0:0:
490,36,142428,1,2,0:0:0:0:
414,279,142602,1,0,0:0:0:0:
474,139,142775,1,2,0:0:0:0:
363,23,142949,21,0,0:0:0:0:
363,23,143035,1,0,0:0:0:0:
363,23,143122,2,0,L|379:128,1,105.000004005432,8|0,0:1|0:0,0:0:0:0:
301,357,143469,1,2,0:0:0:0:
58,315,143642,1,0,0:0:0:0:
58,315,143729,1,0,0:0:0:0:
58,315,143816,2,0,L|73:211,1,105.000004005432,8|0,0:1|0:0,0:0:0:0:
300,66,144162,1,2,0:0:0:0:
299,48,144248,1,0,0:0:0:0:
293,32,144335,1,0,0:0:0:0:
283,17,144422,1,0,0:0:0:0:
254,6,144509,6,0,P|290:140|363:23,1,350,2|0,0:0|0:0,0:0:0:0:
300,66,145550,1,8,0:3:0:0:
300,66,145897,22,0,P|274:89|259:121,1,70,4|0,0:1|0:0,0:0:0:0:
182,86,146071,2,0,P|172:119|174:154,1,70
91,152,146244,2,0,P|99:185|118:214,1,70,0|0,0:0|0:0,0:0:0:0:
50,263,146417,2,0,P|73:288|105:303,1,70
98,63,146590,6,0,P|131:72|166:70,1,70
175,154,146763,2,0,P|209:146|238:126,1,70,4|0,0:0|0:0,0:0:0:0:
278,200,146937,2,0,P|303:175|319:144,1,70,8|0,0:0|0:0,0:0:0:0:
394,181,147111,2,0,P|404:147|402:112,1,70,2|0,0:0|0:0,0:0:0:0:
343,338,147284,6,0,P|333:304|335:269,1,70,4|0,0:0|0:0,0:0:0:0:
251,263,147457,2,0,P|258:228|278:199,1,70
394,181,147631,2,0,P|404:147|402:112,1,70
485,106,147804,2,0,P|478:71|457:42,1,70,4|0,0:0|0:0,0:0:0:0:
343,338,147977,6,0,P|333:304|335:269,1,70
251,263,148151,2,0,P|258:228|278:199,1,70,6|0,0:0|0:0,0:0:0:0:
485,106,148324,2,0,P|478:71|457:42,3,70,8|0|2|0,0:0|0:0|0:0|0:0,0:0:0:0:
365,88,148671,22,0,P|331:97|296:95,1,70,4|0,0:0|0:0,0:0:0:0:
200,57,148845,2,0,P|169:40|146:14,1,70,0|0,0:0|0:0,0:0:0:0:
290,148,149018,2,0,P|259:165|225:172,1,70,0|0,0:0|0:0,0:0:0:0:
122,160,149192,2,0,P|87:151|58:132,1,70,0|0,0:0|0:0,0:0:0:0:
232,226,149365,2,0,P|207:250|175:266,1,70,0|0,0:0|0:0,0:0:0:0:
72,281,149539,2,0,P|36:281|3:270,1,70,4|0,0:0|0:0,0:0:0:0:
233,227,149712,6,0,P|267:219|297:203,3,70,8|0|2|0,0:0|0:0|0:0|0:0,0:0:0:0:
129,215,150058,2,0,P|94:206|65:187,1,70,4|0,0:0|0:0,0:0:0:0:
108,9,150232,6,0,P|107:43|119:76,1,70,0|0,0:0|0:0,0:0:0:0:
178,161,150406,2,0,P|202:185|233:201,1,70,0|0,0:0|0:0,0:0:0:0:
335,218,150579,2,0,P|370:219|403:207,1,70,4|0,0:0|0:0,0:0:0:0:
350,383,150752,6,0,P|332:353|326:319,1,70,0|0,0:0|0:0,0:0:0:0:
336,217,150925,2,0,P|345:183|364:154,1,70,6|0,0:0|0:0,0:0:0:0:
246,178,151099,2,0,P|244:213|254:247,1,70,8|0,0:0|0:0,0:0:0:0:
296,340,151272,2,0,P|319:366|349:383,1,70,2|0,0:0|0:0,0:0:0:0:
74,365,151446,22,0,P|105:348|128:322,1,70,8|0,0:1|0:0,0:0:0:0:
170,229,151619,2,0,P|180:195|178:160,1,70,0|0,0:0|0:0,0:0:0:0:
149,62,151793,2,0,P|133:31|107:8,1,70,0|0,0:0|0:0,0:0:0:0:
115,189,151966,6,0,P|139:214|171:229,1,70,0|0,0:0|0:0,0:0:0:0:
343,176,152139,6,0,P|314:157|280:151,1,70,0|0,0:0|0:0,0:0:0:0:
177,161,152313,2,0,P|144:169|115:188,1,70,4|0,0:0|0:0,0:0:0:0:
43,262,152486,2,0,P|25:291|19:325,1,70,8|0,0:0|0:0,0:0:0:0:
170,229,152660,6,0,P|180:195|178:160,1,70,2|0,0:0|0:0,0:0:0:0:
391,26,152833,22,0,P|422:43|443:70,1,70,8|0,0:1|0:0,0:0:0:0:
484,165,153006,2,0,P|492:198|489:233,1,70,0|0,0:0|0:0,0:0:0:0:
456,331,153180,2,0,P|439:361|412:382,1,70,0|0,0:0|0:0,0:0:0:0:
302,289,153353,6,0,P|337:289|370:302,1,70,4|0,0:0|0:0,0:0:0:0:
163,327,153527,6,0,P|182:297|188:263,1,70,0|0,0:0|0:0,0:0:0:0:
177,161,153700,2,0,P|169:127|150:98,1,70,4|0,0:0|0:0,0:0:0:0:
274,127,153874,2,0,P|277:161|267:195,1,70,8|0,0:0|0:0,0:0:0:0:
216,284,154047,2,0,P|194:310|163:326,1,70,2|0,0:0|0:0,0:0:0:0:
54,32,154220,6,0,P|84:46|109:72,1,70,8|0,0:1|0:0,0:0:0:0:
161,161,154393,2,0,P|172:193|170:227,1,70,0|0,0:0|0:0,0:0:0:0:
419,93,154567,2,0,P|388:107|363:133,1,70,0|0,0:0|0:0,0:0:0:0:
312,222,154740,2,0,P|300:254|302:288,1,70,2|0,0:0|0:0,0:0:0:0:
238,68,154914,22,0,P|261:94|274:126,3,70,8|0|4|0,0:1|0:0|0:0|0:0,0:0:0:0:
383,103,155261,2,0,P|390:137|384:172,1,70,8|0,0:0|0:0,0:0:0:0:
92,162,155434,2,0,P|126:155|161:161,1,70,2|0,0:0|0:0,0:0:0:0:
437,241,155608,5,6,0:3:0:0:
383,104,155781,1,0,0:0:0:0:
239,68,155954,1,0,0:0:0:0:
92,162,156128,6,0,P|126:155|161:161,1,70,4|0,0:3|0:0,0:0:0:0:
211,217,156301,2,0,L|220:270,4,35,0|0|0|0|4,0:0|0:0|0:0|0:0|0:3,0:0:0:0:
232,147,156561,5,0,0:0:0:0:
302,117,156648,2,0,P|352:222|439:241,1,210.000008010865,2|0,0:1|0:0,0:0:0:0:
312,36,156995,21,8,0:1:0:0:
267,16,157082,1,0,0:0:0:0:
218,14,157168,1,0,0:0:0:0:
169,24,157255,1,0,0:0:0:0:
130,54,157342,1,8,0:0:0:0:
105,96,157429,1,0,0:0:0:0:
97,143,157515,1,0,0:0:0:0:
110,190,157602,1,0,0:0:0:0:
145,224,157689,1,0,0:0:0:0:
190,243,157776,1,0,0:0:0:0:
238,244,157862,1,4,0:0:0:0:
235,293,157949,1,0,0:0:0:0:
208,334,158036,1,8,0:0:0:0:
160,347,158123,1,0,0:0:0:0:
112,335,158209,2,0,P|77:318|48:286,1,70,2|0,0:0|0:0,0:0:0:0:
261,158,158382,5,4,0:0:0:0:
300,190,158469,1,0,0:0:0:0:
322,234,158555,1,0,0:0:0:0:
319,284,158642,1,0,0:0:0:0:
309,331,158729,1,8,0:0:0:0:
350,357,158816,1,0,0:0:0:0:
398,358,158902,1,4,0:0:0:0:
444,340,158989,1,0,0:0:0:0:
475,302,159076,1,0,0:0:0:0:
449,260,159163,1,0,0:0:0:0:
432,214,159249,1,6,0:0:0:0:
427,165,159336,1,0,0:0:0:0:
440,117,159423,1,8,0:0:0:0:
466,75,159510,1,0,0:0:0:0:
508,51,159596,2,0,P|488:23|451:9,1,70,2|0,0:0|0:0,0:0:0:0:
292,147,159769,6,0,P|278:176|277:222,1,70,4|0,0:1|0:0,0:0:0:0:
299,310,159943,2,0,P|318:335|356:359,1,70
411,233,160116,2,0,P|424:202|426:157,1,70,8|0,0:0|0:0,0:0:0:0:
403,70,160290,2,0,P|384:43|345:19,1,70
217,125,160463,2,0,P|196:149|183:194,1,70
170,307,160637,2,0,P|174:338|195:378,1,70,4|0,0:0|0:0,0:0:0:0:
152,79,160810,2,0,P|125:97|101:137,1,70,8|0,0:0|0:0,0:0:0:0:
40,298,160984,2,0,P|36:330|45:374,1,70,2|0,0:0|0:0,0:0:0:0:
412,233,161157,22,0,P|439:213|463:174,1,70,4|0,0:0|0:0,0:0:0:0:
356,187,161330,2,0,P|369:156|371:111,1,70,2|0,0:0|0:0,0:0:0:0:
282,169,161504,2,0,P|279:136|257:96,1,70,10|0,0:0|0:0,0:0:0:0:
215,196,161677,2,0,P|196:169|157:145,1,70,4|0,0:0|0:0,0:0:0:0:
65,325,161850,2,0,P|39:305|15:266,1,70,2|0,0:0|0:0,0:0:0:0:
121,279,162024,2,0,P|109:248|107:203,1,70,6|0,0:0|0:0,0:0:0:0:
195,261,162197,2,0,P|199:228|220:188,1,70,8|0,0:0|0:0,0:0:0:0:
262,288,162370,2,0,P|282:261|321:237,1,70,2|0,0:0|0:0,0:0:0:0:
509,330,162544,5,4,0:0:0:0:
492,284,162630,1,0,0:0:0:0:
466,242,162717,1,0,0:0:0:0:
433,206,162804,1,0,0:0:0:0:
393,177,162891,1,8,0:0:0:0:
349,157,162977,1,0,0:0:0:0:
301,145,163064,1,0,0:0:0:0:
253,143,163150,1,0,0:0:0:0:
204,150,163237,1,0,0:0:0:0:
158,167,163324,1,0,0:0:0:0:
116,192,163411,1,4,0:0:0:0:
80,225,163497,1,0,0:0:0:0:
51,265,163585,1,8,0:0:0:0:
35,311,163671,1,0,0:0:0:0:
30,359,163758,2,0,P|60:331|72:295,1,70,2|0,0:0|0:0,0:0:0:0:
22,138,163931,5,4,0:0:0:0:
50,98,164017,1,0,0:0:0:0:
91,72,164104,1,0,0:0:0:0:
139,64,164191,1,0,0:0:0:0:
187,74,164277,1,8,0:0:0:0:
226,102,164364,1,0,0:0:0:0:
253,143,164451,1,4,0:0:0:0:
261,192,164538,1,0,0:0:0:0:
269,240,164624,1,0,0:0:0:0:
295,282,164711,1,0,0:0:0:0:
335,310,164798,1,6,0:0:0:0:
382,320,164884,1,0,0:0:0:0:
430,312,164971,1,8,0:0:0:0:
471,286,165058,1,0,0:0:0:0:
499,246,165145,2,0,P|504:211|491:166,1,70,2|0,0:0|0:0,0:0:0:0:
425,136,165319,38,0,P|395:163|374:200,2,70,6|0|2,0:0|0:0|0:0,0:0:0:0:
346,51,165579,1,0,0:0:0:0:
313,87,165665,2,0,P|302:126|301:167,2,70,8|0|2,0:0|0:0|0:0,0:0:0:0:
208,41,165926,1,0,0:0:0:0:
197,89,166012,2,0,P|207:128|227:165,2,70,0|0|6,0:0|0:0|0:0,0:0:0:0:
84,105,166272,1,0,0:0:0:0:
98,153,166359,2,0,P|126:183|163:203,1,70,10|0,0:0|0:0,0:0:0:0:
62,263,166533,2,0,P|102:274|143:275,3,70,2|0|4|0,0:0|0:0|0:0|0:0,0:0:0:0:
151,198,166879,22,0,P|122:179|98:153,1,70,2|0,0:0|0:0,0:0:0:0:
220,154,167053,2,0,P|205:123|197:89,1,70,8|0,0:0|0:0,0:0:0:0:
300,154,167226,2,0,P|303:120|313:87,1,70,6|0,0:0|0:0,0:0:0:0:
481,98,167400,38,0,P|445:117|416:146,1,70
344,24,167573,2,0,P|325:54|313:87,1,70,6|0,0:0|0:0,0:0:0:0:
193,19,167746,2,0,P|191:54|197:89,1,70,10|0,0:0|0:0,0:0:0:0:
59,95,167920,2,0,P|75:126|97:153,1,70,2|0,0:0|0:0,0:0:0:0:
380,188,168093,5,8,0:1:0:0:
429,193,168180,1,0,0:0:0:0:
470,219,168266,1,0,0:0:0:0:
490,264,168353,1,0,0:0:0:0:
487,313,168440,1,8,0:0:0:0:
460,353,168527,1,0,0:0:0:0:
416,372,168613,1,2,0:0:0:0:
367,370,168700,1,0,0:0:0:0:
325,345,168787,1,0,0:0:0:0:
306,299,168874,1,0,0:0:0:0:
276,261,168960,1,4,0:0:0:0:
234,235,169047,1,0,0:0:0:0:
185,229,169134,1,8,0:0:0:0:
140,249,169221,1,0,0:0:0:0:
115,291,169307,2,0,P|148:318|188:326,1,70,2|0,0:0|0:0,0:0:0:0:
396,282,169480,5,4,0:0:0:0:
425,242,169567,1,0,0:0:0:0:
436,194,169654,1,0,0:0:0:0:
431,145,169740,1,0,0:0:0:0:
412,99,169827,1,8,0:0:0:0:
380,61,169914,1,0,0:0:0:0:
337,37,170000,1,6,0:0:0:0:
288,31,170087,1,0,0:0:0:0:
239,37,170174,1,0,0:0:0:0:
197,63,170261,1,0,0:0:0:0:
168,102,170347,1,6,0:0:0:0:
217,101,170434,1,0,0:0:0:0:
264,112,170521,1,8,0:0:0:0:
303,141,170608,1,0,0:0:0:0:
318,186,170694,2,0,P|292:198|239:202,1,70,2|0,0:0|0:0,0:0:0:0:
218,100,170868,6,0,P|183:99|146:89,1,70,4|0,0:1|0:0,0:0:0:0:
69,50,171041,2,0,P|39:32|13:5,1,70,2|0,0:0|0:0,0:0:0:0:
295,117,171215,2,0,P|261:126|224:125,1,70,8|0,0:0|0:0,0:0:0:0:
138,105,171388,2,0,P|105:95|71:76,1,70
272,355,171561,2,0,P|304:342|341:335,1,70
428,339,171734,2,0,P|463:343|498:357,1,70,6|0,0:0|0:0,0:0:0:0:
356,286,171908,2,0,P|322:282|285:285,1,70,8|0,0:0|0:0,0:0:0:0:
200,310,172081,2,0,P|168:323|138:346,1,70,2|0,0:0|0:0,0:0:0:0:
18,189,172255,22,0,P|38:218|65:240,1,70,4|0,0:0|0:0,0:0:0:0:
106,127,172428,2,0,P|108:161|121:194,1,70,2|0,0:0|0:0,0:0:0:0:
215,110,172602,2,0,P|200:141|195:176,1,70,10|0,0:0|0:0,0:0:0:0:
313,155,172775,2,0,P|284:175|262:203,1,70,4|0,0:0|0:0,0:0:0:0:
460,281,172948,2,0,P|440:310|412:332,1,70,2|0,0:0|0:0,0:0:0:0:
372,219,173122,2,0,P|370:253|356:286,1,70,6|0,0:0|0:0,0:0:0:0:
263,202,173295,2,0,P|278:233|282:268,1,70,8|0,0:0|0:0,0:0:0:0:
165,247,173468,2,0,P|194:267|215:295,1,70,2|0,0:0|0:0,0:0:0:0:
121,338,173642,5,4,0:0:0:0:
164,362,173728,1,0,0:0:0:0:
211,374,173815,1,0,0:0:0:0:
260,373,173902,1,0,0:0:0:0:
306,359,173988,1,8,0:0:0:0:
347,332,174075,1,0,0:0:0:0:
379,295,174162,1,0,0:0:0:0:
400,251,174248,1,0,0:0:0:0:
408,203,174335,1,0,0:0:0:0:
403,154,174422,1,0,0:0:0:0:
384,109,174509,1,6,0:0:0:0:
354,71,174595,1,0,0:0:0:0:
315,42,174682,1,8,0:0:0:0:
269,25,174769,1,0,0:0:0:0:
220,21,174856,2,0,P|179:28|146:40,1,70,2|0,0:0|0:0,0:0:0:0:
428,167,175030,5,4,0:0:0:0:
415,116,175116,1,0,0:0:0:0:
386,71,175203,1,0,0:0:0:0:
345,35,175290,1,0,0:0:0:0:
296,12,175376,1,8,0:0:0:0:
245,3,175463,1,0,0:0:0:0:
192,8,175550,1,4,0:0:0:0:
142,28,175636,1,0,0:0:0:0:
100,61,175723,1,0,0:0:0:0:
69,104,175810,1,0,0:0:0:0:
49,154,175897,1,6,0:0:0:0:
45,207,175983,1,0,0:0:0:0:
55,259,176070,1,8,0:0:0:0:
79,307,176157,1,0,0:0:0:0:
115,345,176244,2,0,P|151:370|187:384,1,70,2|0,0:0|0:0,0:0:0:0:
83,87,176417,5,4,0:0:0:0:
49,154,176503,1,0,0:0:0:0:
45,231,176590,1,0,0:0:0:0:
74,301,176677,1,0,0:0:0:0:
129,353,176763,1,8,0:0:0:0:
202,378,176850,1,0,0:0:0:0:
278,369,176937,1,0,0:0:0:0:
343,330,177023,1,0,0:0:0:0:
386,267,177110,1,0,0:0:0:0:
400,193,177197,1,0,0:0:0:0:
386,117,177284,1,6,0:0:0:0:
336,58,177371,1,0,0:0:0:0:
267,25,177457,1,8,0:0:0:0:
190,25,177544,1,0,0:0:0:0:
118,51,177631,2,0,P|85:81|59:122,1,70
45,230,177804,5,4,0:3:0:0:
241,257,177978,1,0,0:0:0:0:
435,287,178151,1,0,0:0:0:0:
45,230,178324,22,0,L|121:241,1,70,4|0,0:3|0:0,0:0:0:0:
241,257,178498,2,0,L|317:268,1,70
435,287,178671,1,4,0:3:0:0:
46,230,178845,54,0,P|129:344|240:258,1,315.000012016297,2|0,0:1|3:0,0:0:0:0:
217,160,179191,6,0,P|327:0|316:194,1,525,4|0,0:1|3:0,0:0:0:0:
241,256,180579,2,0,P|423:199|251:116,1,490,0|0,0:0|3:0,0:0:0:0:
214,41,181966,6,0,P|421:36|165:93,1,1085,0|0,0:0|3:0,0:0:0:0:
222,189,184740,54,0,P|360:286|256:117,1,525,0|0,0:0|3:0,0:0:0:0:
322,194,186128,2,0,P|221:314|170:84,1,525,0|0,0:0|3:0,0:0:0:0:
45,103,187515,6,0,P|337:325|94:49,1,1085,0|0,0:0|3:0,0:0:0:0:
4,9,190290,54,0,B|44:353|44:353|147:353|227:289,1,525,4|0,0:1|3:0,0:0:0:0:
293,354,191677,2,0,B|333:10|333:10|436:10|500:62,1,525,0|0,0:0|3:0,0:0:0:0:
511,160,193064,6,0,B|508:251|465:308|414:340|314:374|314:374|398:296|440:208|434:157|434:157|435:133|446:109|466:96|466:96|401:95|401:95|377:98|360:118|360:118|172:84|14:171,1,1085,0|0,0:0|3:0,0:0:0:0:
21,87,195839,54,0,P|277:49|511:159,1,525,0|0,0:0|3:0,0:0:0:0:
492,244,197226,2,0,P|236:205|2:316,1,525,0|0,0:0|3:0,0:0:0:0:
106,334,198613,2,0,B|256:243|400:276|488:328|488:328|426:361|355:358,1,525,0|0,0:0|3:0,0:0:0:0:
256,192,200001,12,0,201214,3:0:0:0:
105,281,201388,21,2,0:3:0:0:
143,68,201561,1,0,0:0:0:0:
207,9,201735,1,8,0:0:0:0:
179,302,201908,6,0,L|188:360,1,52.5000020027161,8|0,0:3|0:0,0:0:0:0:
156,145,202081,2,0,L|165:203,1,52.5000020027161
232,165,202255,2,0,L|241:223,1,52.5000020027161
30,258,202428,22,0,L|15:155,1,105.000004005432,8|0,0:3|0:0,0:0:0:0:
105,281,202775,5,2,0:3:0:0:
143,68,202949,1,0,0:0:0:0:
207,9,203123,1,8,0:0:0:0:
179,302,203296,6,0,L|188:360,1,52.5000020027161,8|0,0:3|0:0,0:0:0:0:
156,145,203469,2,0,L|165:203,1,52.5000020027161
232,165,203643,2,0,L|241:223,1,52.5000020027161
255,321,203816,38,0,L|240:218,1,105.000004005432,8|0,0:3|0:0,0:0:0:0:
281,38,204162,1,0,0:0:0:0:
295,120,204336,1,8,0:0:0:0:
334,339,204509,5,2,0:3:0:0:
255,321,204683,6,0,L|246:269,1,52.5000020027161,8|0,0:3|0:0,0:0:0:0:
179,302,204856,6,0,L|170:250,1,52.5000020027161,2|0,0:3|0:0,0:0:0:0:
156,145,205029,2,0,L|147:93,1,52.5000020027161,0|0,0:0|0:0,0:0:0:0:
255,321,205203,21,2,0:3:0:0:
295,120,205376,2,0,L|303:171,1,52.5000020027161,0|0,0:0|0:0,0:0:0:0:
334,339,205550,5,2,0:3:0:0:
433,63,205723,2,0,L|441:114,1,52.5000020027161,8|0,0:0|0:0,0:0:0:0:
462,221,205897,2,0,L|470:272,1,52.5000020027161,0|0,0:0|0:0,0:0:0:0:
491,377,206070,5,8,0:3:0:0:
365,92,206243,2,0,L|373:143,1,52.5000020027161,8|0,0:0|0:0,0:0:0:0:
390,221,206417,1,0,0:0:0:0:
412,357,206590,6,0,L|403:305,1,52.5000020027161,8|0,0:3|0:0,0:0:0:0:
390,221,206764,1,8,0:0:0:0:
179,302,206937,21,2,0:3:0:0:
141,89,207110,1,0,0:0:0:0:
77,30,207284,1,8,0:0:0:0:
105,323,207457,6,0,L|96:381,1,52.5000020027161,8|0,0:3|0:0,0:0:0:0:
128,166,207630,2,0,L|119:224,1,52.5000020027161
52,186,207804,2,0,L|43:244,1,52.5000020027161
254,279,207977,22,0,L|269:176,1,105.000004005432,8|8,0:3|0:0,0:0:0:0:
179,302,208324,21,2,0:3:0:0:
141,89,208498,1,0,0:0:0:0:
77,30,208672,1,8,0:0:0:0:
331,260,208845,6,0,L|339:208,1,52.5000020027161,8|0,0:3|0:0,0:0:0:0:
349,135,209018,2,0,L|357:83,1,52.5000020027161
282,75,209192,2,0,L|290:23,1,52.5000020027161
408,245,209365,54,0,L|423:142,1,105.000004005432,8|8,0:3|0:0,0:0:0:0:
217,21,209711,53,2,0:3:0:0:
408,246,209885,21,8,0:3:0:0:
431,65,210058,1,8,0:0:0:0:
331,260,210232,6,0,L|339:208,1,52.5000020027161,2|0,0:3|0:0,0:0:0:0:
350,135,210405,2,0,L|358:83,1,52.5000020027161,0|0,0:0|0:0,0:0:0:0:
179,302,210578,6,0,L|187:250,1,52.5000020027161,2|0,0:3|0:0,0:0:0:0:
254,279,210752,21,8,0:3:0:0:
331,260,210925,6,0,L|339:208,1,52.5000020027161,8|0,0:3|0:0,0:0:0:0:
217,21,211099,37,2,0:3:0:0:
115,93,211272,2,0,L|106:144,1,52.5000020027161,0|0,0:0|0:0,0:0:0:0:
18,167,211446,2,0,L|9:218,1,52.5000020027161,8|0,0:0|0:0,0:0:0:0:
408,246,211619,21,2,0:3:0:0:
239,335,211792,2,0,L|230:283,1,52.5000020027161,0|0,0:0|0:0,0:0:0:0:
214,206,211966,1,0,0:0:0:0:
43,296,212139,2,0,L|34:244,1,52.5000020027161,0|0,0:0|0:0,0:0:0:0:
18,167,212313,1,0,0:0:0:0:
77,30,212486,5,8,0:1:0:0:
128,166,212660,1,0,0:0:0:0:
179,302,212833,1,8,0:0:0:0:
171,57,213006,1,0,0:0:0:0:
160,84,213092,1,0,0:0:0:0:
150,111,213179,1,0,0:0:0:0:
140,138,213266,1,0,0:0:0:0:
129,166,213352,1,2,0:0:0:0:
119,193,213439,1,0,0:0:0:0:
109,220,213526,5,8,0:0:0:0:
77,30,213700,1,0,0:0:0:0:
153,371,213873,21,2,0:0:0:0:
204,235,214046,1,0,0:0:0:0:
255,99,214220,1,8,0:0:0:0:
306,235,214394,1,2,0:0:0:0:
296,208,214481,1,0,0:0:0:0:
286,181,214568,1,0,0:0:0:0:
275,153,214654,1,0,0:0:0:0:
265,126,214741,1,2,0:0:0:0:
255,99,214828,1,0,0:0:0:0:
244,72,214914,5,8,0:0:0:0:
204,235,215087,1,0,0:0:0:0:
459,382,215261,5,2,0:0:0:0:
408,246,215434,1,0,0:0:0:0:
451,360,215608,5,8,0:0:0:0:
400,224,215781,1,0,0:0:0:0:
471,32,215954,1,0,0:0:0:0:
461,59,216041,1,0,0:0:0:0:
450,87,216127,1,2,0:0:0:0:
440,114,216214,1,0,0:0:0:0:
430,141,216301,1,8,0:0:0:0:
340,360,216475,1,0,0:0:0:0:
350,333,216562,1,0,0:0:0:0:
360,306,216649,21,2,0:0:0:0:
430,141,216821,1,0,0:0:0:0:
440,114,216908,1,0,0:0:0:0:
450,87,216995,1,8,0:0:0:0:
461,59,217081,1,0,0:0:0:0:
471,32,217168,1,2,0:0:0:0:
340,360,217342,5,0,0:0:0:0:
350,333,217429,1,0,0:0:0:0:
360,306,217516,1,2,0:0:0:0:
430,141,217688,1,8,0:0:0:0:
340,360,217862,1,0,0:0:0:0:
350,333,217949,1,0,0:0:0:0:
360,306,218036,5,2,0:0:0:0:
270,26,218209,1,0,0:0:0:0:
372,270,218382,1,10,0:0:0:0:
255,53,218555,5,0,0:0:0:0:
266,80,218641,1,0,0:0:0:0:
276,107,218728,1,2,0:0:0:0:
286,134,218815,1,0,0:0:0:0:
297,162,218901,1,0,0:0:0:0:
307,189,218988,1,0,0:0:0:0:
317,216,219075,21,10,0:0:0:0:
270,26,219249,1,0,0:0:0:0:
245,368,219423,5,2,0:0:0:0:
194,232,219596,1,0,0:0:0:0:
143,96,219769,1,10,0:0:0:0:
37,372,219943,1,0,0:0:0:0:
47,345,220030,1,0,0:0:0:0:
57,318,220117,1,2,0:0:0:0:
68,290,220203,1,0,0:0:0:0:
78,263,220290,1,0,0:0:0:0:
88,236,220377,1,0,0:0:0:0:
99,209,220463,5,10,0:0:0:0:
143,96,220636,1,0,0:0:0:0:
20,5,220810,5,2,0:0:0:0:
100,209,220984,1,2,0:0:0:0:
143,96,221157,1,10,0:0:0:0:
223,300,221331,1,2,0:0:0:0:
233,273,221417,1,0,0:0:0:0:
243,246,221504,1,2,0:0:0:0:
254,218,221590,1,0,0:0:0:0:
264,191,221677,1,2,0:0:0:0:
274,164,221764,1,0,0:0:0:0:
285,137,221850,6,0,P|247:129|193:134,1,87.5,10|2,0:0|0:0,0:0:0:0:
295,110,222024,2,0,P|257:102|203:107,1,87.5,10|2,0:0|0:0,0:0:0:0:
305,83,222197,6,0,P|267:75|213:80,1,87.5,4|0,0:3|0:0,0:0:0:0:
143,96,222371,2,0,P|99:115|63:142,1,87.5
24,201,222544,2,0,P|11:242|8:286,1,87.5
14,364,222717,6,0,L|93:323,1,87.5,4|0,0:3|0:0,0:0:0:0:
127,253,222891,2,0,L|136:207,4,43.75,2|0|0|0|4,0:3|0:0|0:0|0:0|0:3,0:0:0:0:
171,319,223151,37,0,0:0:0:0:
252,343,223238,2,0,P|379:364|508:369,1,245.000002336502,2|0,0:1|0:0,0:0:0:0:
457,154,223584,5,12,0:1:0:0:
457,154,223671,1,0,0:0:0:0:
457,154,223758,2,0,L|442:50,1,105.000004005432,8|0,0:0|0:0,0:0:0:0:
385,339,223931,1,4,0:0:0:0:
385,339,224018,1,0,0:0:0:0:
385,339,224105,2,0,L|400:235,1,105.000004005432,8|0,0:0|0:0,0:0:0:0:
193,26,224278,1,4,0:0:0:0:
193,26,224365,1,0,0:0:0:0:
193,26,224451,2,0,L|208:130,1,105.000004005432,10|0,0:0|0:0,0:0:0:0:
127,253,224625,1,4,0:0:0:0:
127,253,224712,1,0,0:0:0:0:
127,253,224799,2,0,L|112:357,1,105.000004005432,10|0,0:0|0:0,0:0:0:0:
53,129,224972,5,4,0:0:0:0:
53,129,225059,1,0,0:0:0:0:
53,129,225146,2,0,P|102:109|162:108,1,105.000004005432,8|0,0:0|0:0,0:0:0:0:
229,276,225318,1,4,0:0:0:0:
229,276,225405,1,0,0:0:0:0:
229,276,225492,2,0,P|180:256|120:255,1,105.000004005432,8|0,0:0|0:0,0:0:0:0:
457,154,225665,1,4,0:0:0:0:
457,154,225752,1,0,0:0:0:0:
457,154,225839,2,0,P|404:156|356:176,1,105.000004005432,10|0,0:0|0:0,0:0:0:0:
193,26,226012,1,6,0:0:0:0:
193,26,226099,1,0,0:0:0:0:
193,26,226186,2,0,P|245:28|293:48,1,105.000004005432,10|0,0:0|0:0,0:0:0:0:
457,154,226359,6,0,P|480:200|487:252,1,105.000004005432,4|0,0:1|0:0,0:0:0:0:
441,192,226532,2,0,P|452:243|445:294,1,105.000004005432,8|0,0:0|0:0,0:0:0:0:
125,102,226706,2,0,P|153:58|194:26,1,105.000004005432,4|0,0:0|0:0,0:0:0:0:
166,97,226879,2,0,P|204:61|252:41,1,105.000004005432,8|0,0:0|0:0,0:0:0:0:
231,362,227053,2,0,P|178:359|130:339,1,105.000004005432,4|0,0:0|0:0,0:0:0:0:
303,276,227226,2,0,P|264:311|216:331,1,105.000004005432,10|0,0:0|0:0,0:0:0:0:
292,163,227399,2,0,P|289:215|269:263,1,105.000004005432,4|0,0:0|0:0,0:0:0:0:
206,91,227573,2,0,P|241:129|261:177,1,105.000004005432,10|0,0:0|0:0,0:0:0:0:
231,362,227746,22,0,P|170:353|123:325,1,105.000004005432,4|0,0:0|0:0,0:0:0:0:
55,253,227920,2,0,P|18:203|5:151,1,105.000004005432,10|0,0:0|0:0,0:0:0:0:
244,337,228093,2,0,P|195:299|169:251,1,105.000004005432,6|0,0:0|0:0,0:0:0:0:
147,153,228267,2,0,P|139:92|154:39,1,105.000004005432,10|0,0:0|0:0,0:0:0:0:
269,320,228440,2,0,P|246:263|247:208,1,105.000004005432,4|0,0:0|0:0,0:0:0:0:
277,114,228613,2,0,P|301:57|340:19,1,105.000004005432,10|0,0:0|0:0,0:0:0:0:
302,321,228787,2,0,P|310:260|338:213,1,105.000004005432,6|0,0:0|0:0,0:0:0:0:
410,144,228961,2,0,P|459:107|511:94,1,105.000004005432,10|0,0:0|0:0,0:0:0:0:
442,361,229134,5,4,0:0:0:0:
442,361,229221,1,0,0:0:0:0:
442,361,229308,2,0,L|427:257,1,105.000004005432,8|0,0:0|0:0,0:0:0:0:
133,257,229481,1,4,0:0:0:0:
133,257,229568,1,0,0:0:0:0:
133,257,229655,2,0,L|148:153,1,105.000004005432,8|0,0:0|0:0,0:0:0:0:
411,144,229828,1,4,0:0:0:0:
411,144,229915,1,0,0:0:0:0:
411,144,230001,2,0,L|396:40,1,105.000004005432,10|0,0:0|0:0,0:0:0:0:
458,257,230175,1,4,0:0:0:0:
458,257,230262,1,0,0:0:0:0:
458,257,230347,2,0,L|443:361,1,105.000004005432,10|8,0:0|0:0,0:0:0:0:
234,279,230521,5,4,0:0:0:0:
234,279,230608,1,0,0:0:0:0:
234,279,230695,2,0,P|185:259|133:256,1,105.000004005432,8|0,0:0|0:0,0:0:0:0:
356,279,230867,1,4,0:0:0:0:
356,279,230954,1,0,0:0:0:0:
357,279,231041,2,0,P|405:259|457:256,1,105.000004005432,8|0,0:0|0:0,0:0:0:0:
493,38,231214,1,4,0:0:0:0:
493,38,231301,1,0,0:0:0:0:
493,38,231388,2,0,P|440:40|392:60,1,105.000004005432,10|0,0:0|0:0,0:0:0:0:
292,176,231561,2,0,P|239:173|191:153,1,105.000004005432,6|0,0:0|0:0,0:0:0:0:
33,55,231735,2,0,P|81:35|133:32,1,105.000004005432,10|8,0:0|0:0,0:0:0:0:
459,257,231908,38,0,P|452:308|428:355,2,105.000004005432,4|0|10,0:0|0:0|0:0,0:0:0:0:
386,154,232168,1,0,0:0:0:0:
357,207,232255,2,0,P|363:258|352:309,2,105.000004005432,4|0|10,0:0|0:0|0:0,0:0:0:0:
250,138,232515,1,0,0:0:0:0:
236,197,232602,2,0,P|255:245|258:297,2,105.000004005432,4|0|10,0:0|0:0|0:0,0:0:0:0:
116,162,232862,1,0,0:0:0:0:
118,223,232949,2,0,P|149:264|165:314,1,105.000004005432,4|0,0:0|0:0,0:0:0:0:
21,304,233122,2,0,P|62:335|90:379,3,105.000004005432,10|8|4|0,0:0|0:0|0:0|0:0,0:0:0:0:
165,314,233469,22,0,P|149:264|118:223,1,105.000004005432,10|0,0:0|0:0,0:0:0:0:
236,197,233643,2,0,P|255:245|258:297,1,105.000004005432,4|0,0:0|0:0,0:0:0:0:
352,309,233816,2,0,P|363:258|357:207,1,105.000004005432,10|0,0:0|0:0,0:0:0:0:
509,172,233989,38,0,P|489:220|454:259,1,105.000004005432,4|0,0:0|0:0,0:0:0:0:
379,161,234162,2,0,P|390:109|383:58,1,105.000004005432,10|0,0:0|0:0,0:0:0:0:
202,46,234336,2,0,P|234:88|250:138,1,105.000004005432,14|0,0:0|0:0,0:0:0:0:
115,162,234509,2,0,P|77:126|29:106,1,105.000004005432,10|0,0:0|0:0,0:0:0:0:
7,259,234683,5,14,0:1:0:0:
21,304,234770,1,0,0:0:0:0:
39,351,234857,2,0,L|106:270,1,105.000004005432,10|0,0:0|0:0,0:0:0:0:
352,309,235029,1,4,0:0:0:0:
398,319,235116,1,0,0:0:0:0:
448,328,235203,2,0,L|411:229,1,105.000004005432,8|0,0:0|0:0,0:0:0:0:
202,46,235376,1,4,0:0:0:0:
170,81,235463,1,0,0:0:0:0:
138,120,235550,2,0,L|34:102,1,105.000004005432,10|0,0:0|0:0,0:0:0:0:
275,209,235723,1,4,0:0:0:0:
288,255,235810,1,0,0:0:0:0:
306,302,235897,2,0,L|238:382,1,105.000004005432,10|0,0:0|0:0,0:0:0:0:
391,80,236071,5,4,0:0:0:0:
355,132,236158,1,0,0:0:0:0:
368,193,236243,2,0,P|413:168|442:115,1,105.000004005432,10|0,0:0|0:0,0:0:0:0:
289,255,236417,1,4,0:0:0:0:
262,313,236504,1,0,0:0:0:0:
203,332,236591,2,0,P|202:280|233:228,1,105.000004005432,8|0,0:0|0:0,0:0:0:0:
35,51,236764,5,4,0:0:0:0:
78,100,236851,1,0,0:0:0:0:
138,120,236938,2,0,P|192:127|252:100,1,105.000004005432,10|0,0:0|0:0,0:0:0:0:
424,262,237110,1,6,0:0:0:0:
370,299,237197,1,0,0:0:0:0:
306,302,237284,2,0,P|252:294|201:253,1,105.000004005432,10|8,0:0|0:0,0:0:0:0:
13,255,237457,6,0,P|65:257|127:245,1,105.000004005432,4|0,0:1|0:0,0:0:0:0:
270,190,237631,2,0,P|316:165|363:124,1,105.000004005432,10|0,0:0|0:0,0:0:0:0:
23,202,237804,2,0,P|67:229|126:250,1,105.000004005432,4|0,0:0|0:0,0:0:0:0:
279,275,237977,2,0,P|331:276|392:265,1,105.000004005432,8|0,0:0|0:0,0:0:0:0:
498,186,238151,2,0,P|453:158|394:137,1,105.000004005432,4|0,0:0|0:0,0:0:0:0:
242,113,238325,2,0,P|189:111|128:123,1,105.000004005432,10|0,0:0|0:0,0:0:0:0:
63,328,238498,2,0,P|115:336|168:335,1,105.000004005432,4|0,0:0|0:0,0:0:0:0:
330,307,238672,2,0,P|379:289|424:262,1,105.000004005432,10|0,0:0|0:0,0:0:0:0:
69,149,238845,6,0,P|90:196|128:233,1,105.000004005432,4|0,0:0|0:0,0:0:0:0:
118,311,239018,2,0,P|67:300|20:278,1,105.000004005432,10|0,0:0|0:0,0:0:0:0:
114,11,239191,2,0,P|150:50|172:98,1,105.000004005432,6|0,0:0|0:0,0:0:0:0:
204,258,239364,2,0,P|225:211|231:159,1,105.000004005432,10|0,0:0|0:0,0:0:0:0:
333,44,239538,2,0,P|325:96|302:143,1,105.000004005432,4|0,0:0|0:0,0:0:0:0:
278,275,239712,2,0,P|320:243|349:200,1,105.000004005432,10|0,0:0|0:0,0:0:0:0:
494,185,239885,2,0,P|459:235|395:272,1,105.000004005432,6|0,0:0|0:0,0:0:0:0:
329,338,240058,2,0,P|380:344|427:367,1,105.000004005432,10|8,0:0|0:0,0:0:0:0:
239,347,240231,5,4,0:0:0:0:
205,345,240317,1,0,0:0:0:0:
166,327,240404,1,10,0:0:0:0:
128,290,240491,1,0,0:0:0:0:
115,224,240579,1,4,0:0:0:0:
140,153,240664,1,0,0:0:0:0:
221,98,240752,2,0,P|276:107|332:142,1,105.000004005432,8|0,0:0|0:0,0:0:0:0:
406,223,240925,2,0,P|423:271|428:352,7,105.000004005432,4|0|10|0|12|0|10|0,0:0|0:0|0:0|0:0|0:0|0:0|0:0|0:0,0:0:0:0:
387,297,241619,5,4,0:0:0:0:
402,266,241705,1,0,0:0:0:0:
406,223,241792,1,10,0:0:0:0:
397,169,241879,1,0,0:0:0:0:
357,115,241965,1,4,0:0:0:0:
280,78,242052,1,0,0:0:0:0:
184,84,242139,2,0,P|141:116|111:157,1,105.000004005432,8|0,0:0|0:0,0:0:0:0:
80,266,242313,2,0,P|81:323|98:372,7,105.000004005432,4|0|10|0|14|0|10|8,0:0|0:0|0:0|0:0|0:0|0:0|0:0|0:0,0:0:0:0:
151,317,243006,5,4,0:0:0:0:
155,314,243092,1,0,0:0:0:0:
165,311,243179,1,10,0:0:0:0:
186,313,243266,1,0,0:0:0:0:
215,324,243352,1,4,0:0:0:0:
254,340,243439,1,0,0:0:0:0:
306,335,243526,1,8,0:0:0:0:
355,295,243612,1,0,0:0:0:0:
345,221,243700,2,0,P|313:208|257:212,1,70,4|0,0:0|0:0,0:0:0:0:
172,218,243873,2,0,P|125:190|112:153,1,87.5,10|0,0:0|0:0,0:0:0:0:
139,41,244047,2,0,P|195:21|263:26,1,105.000004005432,6|0,0:0|0:0,0:0:0:0:
387,63,244220,2,0,P|424:101|444:149,1,105.000004005432,10|0,0:0|0:0,0:0:0:0:
437,348,244394,5,4,0:3:0:0:
271,257,244567,1,0,0:0:0:0:
77,287,244740,1,8,0:3:0:0:
437,348,244914,22,0,L|327:366,1,105.000004005432,4|0,0:3|0:0,0:0:0:0:
271,257,245087,2,0,L|161:274,1,105.000004005432
77,287,245260,1,4,0:3:0:0:
437,347,245434,54,0,P|297:236|73:289,1,420,2|0,0:1|3:0,0:0:0:0:
43,200,245781,5,12,0:1:0:0:
85,168,245868,1,0,0:0:0:0:
134,151,245954,1,0,0:0:0:0:
185,140,246041,1,0,0:0:0:0:
237,141,246128,1,12,0:0:0:0:
190,117,246215,1,0,0:0:0:0:
138,111,246301,1,0,0:0:0:0:
85,116,246388,1,0,0:0:0:0:
36,135,246475,1,4,0:0:0:0:
70,95,246562,1,0,0:0:0:0:
112,65,246648,1,0,0:0:0:0:
161,46,246735,1,0,0:0:0:0:
212,35,246822,1,12,0:0:0:0:
264,35,246909,1,0,0:0:0:0:
315,44,246995,1,2,0:0:0:0:
364,62,247082,1,0,0:0:0:0:
406,91,247168,5,4,0:0:0:0:
437,132,247255,1,0,0:0:0:0:
454,181,247341,1,0,0:0:0:0:
455,233,247428,1,0,0:0:0:0:
441,283,247515,1,12,0:0:0:0:
420,234,247602,1,0,0:0:0:0:
420,181,247688,1,0,0:0:0:0:
437,132,247775,1,0,0:0:0:0:
458,84,247862,1,4,0:0:0:0:
487,127,247949,1,0,0:0:0:0:
504,175,248035,1,2,0:0:0:0:
504,227,248122,1,0,0:0:0:0:
496,279,248209,1,12,0:0:0:0:
472,326,248296,1,0,0:0:0:0:
429,355,248382,1,2,0:0:0:0:
377,367,248469,1,0,0:0:0:0:
337,333,248555,5,4,0:0:0:0:
291,306,248642,1,0,0:0:0:0:
240,292,248728,1,0,0:0:0:0:
187,288,248815,1,0,0:0:0:0:
135,299,248902,1,12,0:0:0:0:
90,327,248989,1,0,0:0:0:0:
59,369,249075,1,0,0:0:0:0:
106,347,249162,1,0,0:0:0:0:
158,342,249249,1,4,0:0:0:0:
208,357,249336,1,0,0:0:0:0:
255,377,249422,1,0,0:0:0:0:
307,375,249509,1,0,0:0:0:0:
337,333,249596,1,12,0:0:0:0:
339,280,249683,1,0,0:0:0:0:
316,233,249769,1,2,0:0:0:0:
271,204,249856,1,0,0:0:0:0:
219,200,249942,5,4,0:0:0:0:
182,238,250029,1,0,0:0:0:0:
188,288,250115,1,0,0:0:0:0:
234,312,250202,1,0,0:0:0:0:
284,295,250290,1,12,0:0:0:0:
291,243,250376,1,0,0:0:0:0:
317,197,250462,1,0,0:0:0:0:
296,148,250549,1,0,0:0:0:0:
303,95,250636,1,4,0:0:0:0:
340,58,250723,1,0,0:0:0:0:
391,55,250809,1,10,0:0:0:0:
434,84,250896,1,0,0:0:0:0:
453,132,250983,1,12,0:0:0:0:
438,182,251070,1,0,0:0:0:0:
396,213,251156,1,10,0:0:0:0:
401,265,251243,1,0,0:0:0:0:
389,316,251330,21,4,0:0:0:0:
431,284,251417,1,0,0:0:0:0:
450,235,251503,1,0,0:0:0:0:
438,182,251590,1,0,0:0:0:0:
401,143,251677,1,12,0:0:0:0:
365,182,251764,1,0,0:0:0:0:
317,197,251850,1,0,0:0:0:0:
265,186,251937,1,0,0:0:0:0:
225,151,252024,1,4,0:0:0:0:
179,124,252111,1,0,0:0:0:0:
126,121,252197,1,0,0:0:0:0:
77,141,252284,1,0,0:0:0:0:
47,184,252371,1,12,0:0:0:0:
47,236,252458,1,0,0:0:0:0:
70,282,252544,1,2,0:0:0:0:
116,306,252631,1,0,0:0:0:0:
167,303,252717,5,4,0:0:0:0:
137,259,252804,1,0,0:0:0:0:
138,206,252890,1,0,0:0:0:0:
172,165,252977,1,0,0:0:0:0:
225,151,253064,1,12,0:0:0:0:
276,160,253151,1,0,0:0:0:0:
317,197,253238,1,0,0:0:0:0:
313,145,253324,1,0,0:0:0:0:
330,95,253411,1,4,0:0:0:0:
360,51,253498,1,0,0:0:0:0:
404,24,253584,1,2,0:0:0:0:
454,9,253671,1,0,0:0:0:0:
506,14,253758,1,12,0:0:0:0:
462,43,253845,1,0,0:0:0:0:
438,89,253931,1,2,0:0:0:0:
437,141,254018,1,0,0:0:0:0:
460,188,254105,5,4,0:0:0:0:
460,135,254192,1,0,0:0:0:0:
438,89,254278,1,0,0:0:0:0:
399,52,254365,1,0,0:0:0:0:
351,29,254452,1,12,0:0:0:0:
299,17,254539,1,0,0:0:0:0:
246,17,254625,1,0,0:0:0:0:
194,27,254712,1,0,0:0:0:0:
152,59,254799,1,4,0:0:0:0:
124,103,254886,1,0,0:0:0:0:
112,153,254972,1,0,0:0:0:0:
119,205,255059,1,0,0:0:0:0:
143,251,255146,1,12,0:0:0:0:
185,282,255233,1,0,0:0:0:0:
235,294,255319,1,2,0:0:0:0:
286,282,255406,1,0,0:0:0:0:
317,240,255492,5,4,0:0:0:0:
292,193,255579,1,0,0:0:0:0:
241,203,255665,1,8,0:0:0:0:
203,165,255752,1,0,0:0:0:0:
221,115,255839,1,12,0:0:0:0:
272,104,255926,1,0,0:0:0:0:
322,115,256012,1,8,0:0:0:0:
364,146,256099,1,0,0:0:0:0:
395,188,256186,2,0,P|406:230|401:275,7,87.5,12|0|10|0|14|0|10|0,0:0|0:0|0:0|0:0|0:0|0:0|0:0|0:0,0:0:0:0:
381,322,256879,21,4,0:1:0:0:
337,351,256966,1,0,0:0:0:0:
287,368,257052,1,0,0:0:0:0:
234,375,257139,1,0,0:0:0:0:
181,371,257226,1,12,0:0:0:0:
130,357,257313,1,0,0:0:0:0:
86,328,257399,1,0,0:0:0:0:
116,284,257486,1,0,0:0:0:0:
160,256,257573,1,4,0:0:0:0:
210,242,257660,1,0,0:0:0:0:
262,242,257746,1,0,0:0:0:0:
314,248,257833,1,0,0:0:0:0:
361,270,257920,1,12,0:0:0:0:
379,221,258006,1,0,0:0:0:0:
367,170,258093,1,2,0:0:0:0:
324,141,258179,1,0,0:0:0:0:
306,92,258266,5,4,0:0:0:0:
326,43,258353,1,0,0:0:0:0:
372,20,258439,1,0,0:0:0:0:
424,22,258526,1,0,0:0:0:0:
465,54,258613,1,12,0:0:0:0:
484,102,258700,1,0,0:0:0:0:
468,151,258786,1,0,0:0:0:0:
422,124,258873,1,0,0:0:0:0:
369,121,258960,1,4,0:0:0:0:
323,142,259047,1,0,0:0:0:0:
299,188,259133,1,2,0:0:0:0:
304,240,259220,1,0,0:0:0:0:
340,277,259307,1,12,0:0:0:0:
391,287,259394,1,0,0:0:0:0:
440,272,259480,1,2,0:0:0:0:
481,239,259567,1,0,0:0:0:0:
502,191,259653,5,4,0:0:0:0:
468,151,259740,1,0,0:0:0:0:
421,176,259827,1,0,0:0:0:0:
430,229,259914,1,0,0:0:0:0:
481,239,260001,1,12,0:0:0:0:
486,290,260087,1,0,0:0:0:0:
465,337,260173,1,0,0:0:0:0:
416,358,260260,1,0,0:0:0:0:
363,361,260347,1,4,0:0:0:0:
312,347,260434,1,0,0:0:0:0:
271,314,260520,1,0,0:0:0:0:
218,312,260607,1,0,0:0:0:0:
184,352,260694,1,12,0:0:0:0:
229,325,260781,1,0,0:0:0:0:
242,274,260868,1,2,0:0:0:0:
230,223,260954,1,0,0:0:0:0:
195,182,261040,5,4,0:0:0:0:
147,160,261127,1,0,0:0:0:0:
95,156,261213,1,0,0:0:0:0:
45,174,261300,1,0,0:0:0:0:
13,216,261387,1,12,0:0:0:0:
6,268,261474,1,0,0:0:0:0:
24,316,261560,1,0,0:0:0:0:
63,351,261647,1,0,0:0:0:0:
114,359,261734,1,4,0:0:0:0:
163,342,261821,1,0,0:0:0:0:
192,299,261907,1,10,0:0:0:0:
202,247,261994,1,0,0:0:0:0:
184,197,262081,1,12,0:0:0:0:
148,160,262168,1,0,0:0:0:0:
123,113,262254,1,10,0:0:0:0:
89,72,262341,1,0,0:0:0:0:
92,20,262428,21,4,0:0:0:0:
126,59,262515,1,0,0:0:0:0:
123,112,262602,1,0,0:0:0:0:
95,156,262688,1,0,0:0:0:0:
45,174,262775,1,12,0:0:0:0:
13,216,262862,1,0,0:0:0:0:
6,268,262949,1,0,0:0:0:0:
24,316,263035,1,0,0:0:0:0:
63,351,263122,1,4,0:0:0:0:
114,359,263209,1,0,0:0:0:0:
163,342,263295,1,0,0:0:0:0:
200,304,263382,1,0,0:0:0:0:
245,277,263469,1,12,0:0:0:0:
297,268,263556,1,0,0:0:0:0:
348,276,263642,1,2,0:0:0:0:
394,300,263729,1,0,0:0:0:0:
432,347,263815,5,4,0:0:0:0:
394,300,263902,1,0,0:0:0:0:
365,246,263988,1,0,0:0:0:0:
355,185,264075,1,0,0:0:0:0:
367,124,264162,1,12,0:0:0:0:
396,69,264249,1,0,0:0:0:0:
444,32,264335,1,0,0:0:0:0:
504,21,264422,1,0,0:0:0:0:
442,18,264509,1,4,0:0:0:0:
380,27,264596,1,0,0:0:0:0:
325,53,264682,1,2,0:0:0:0:
284,98,264769,1,0,0:0:0:0:
262,155,264856,1,12,0:0:0:0:
264,216,264943,1,0,0:0:0:0:
297,268,265029,1,2,0:0:0:0:
347,302,265116,1,0,0:0:0:0:
336,361,265203,5,4,0:0:0:0:
408,329,265290,1,0,0:0:0:0:
455,267,265376,1,0,0:0:0:0:
469,189,265463,1,0,0:0:0:0:
454,111,265550,1,12,0:0:0:0:
399,52,265637,1,0,0:0:0:0:
322,36,265723,1,0,0:0:0:0:
250,69,265810,1,0,0:0:0:0:
217,141,265897,1,4,0:0:0:0:
158,193,265983,1,0,0:0:0:0:
80,207,266070,1,0,0:0:0:0:
15,161,266157,1,0,0:0:0:0:
14,81,266244,1,12,0:0:0:0:
64,20,266331,1,0,0:0:0:0:
139,1,266417,1,2,0:0:0:0:
217,3,266503,1,0,0:0:0:0:
322,36,266590,5,4,0:3:0:0:
409,328,266764,1,0,0:0:0:0:
387,150,266937,1,0,0:0:0:0:
75,367,267110,1,4,0:3:0:0:
158,352,267197,1,0,0:0:0:0:
228,301,267284,1,0,0:0:0:0:
248,220,267371,1,0,0:0:0:0:
217,141,267457,1,4,0:3:0:0:
374,311,267631,6,0,P|252:221|249:69,1,315.000012016297,2|0,0:1|3:0,0:0:0:0:
347,123,267977,5,8,0:1:0:0:
387,150,268064,1,0,0:0:0:0:
413,191,268151,1,0,0:0:0:0:
422,239,268238,1,0,0:0:0:0:
416,287,268324,1,8,0:0:0:0:
395,330,268410,1,0,0:0:0:0:
353,357,268497,1,2,0:0:0:0:
374,312,268584,1,0,0:0:0:0:
356,266,268670,1,0,0:0:0:0:
312,242,268757,1,0,0:0:0:0:
262,251,268845,1,4,0:0:0:0:
234,291,268932,1,0,0:0:0:0:
244,339,269019,1,8,0:0:0:0:
201,361,269105,1,0,0:0:0:0:
152,361,269191,2,0,P|114:357|60:340,1,70,2|0,0:0|0:0,0:0:0:0:
46,189,269365,5,6,0:0:0:0:
56,236,269451,1,0,0:0:0:0:
92,269,269539,1,0,0:0:0:0:
139,278,269625,1,4,0:0:0:0:
155,231,269712,1,8,0:0:0:0:
187,194,269798,1,0,0:0:0:0:
229,169,269885,1,6,0:0:0:0:
275,154,269972,1,0,0:0:0:0:
324,151,270059,1,0,0:0:0:0:
371,163,270145,1,0,0:0:0:0:
413,187,270231,1,4,0:0:0:0:
447,222,270319,1,0,0:0:0:0:
463,267,270404,1,10,0:0:0:0:
469,315,270491,1,0,0:0:0:0:
456,363,270579,2,0,P|424:345|401:313,1,70
371,163,270752,6,0,P|375:129|398:95,1,70,4|0,0:1|0:0,0:0:0:0:
317,54,270925,2,0,P|338:26|370:10,1,70
287,221,271099,6,0,P|274:189|277:149,1,70,8|0,0:0|0:0,0:0:0:0:
185,153,271272,2,0,P|190:118|209:88,1,70
237,309,271446,22,0,P|210:287|192:251,3,70,0|0|6|0,0:0|0:0|0:0|0:0,0:0:0:0:
114,301,271792,2,0,P|101:268|102:233,3,70,8|0|0|0,0:0|0:0|0:0|0:0,0:0:0:0:
394,108,272139,54,0,P|412:79|419:45,1,70,6|0,0:0|0:0,0:0:0:0:
335,150,272313,2,0,P|300:155|266:146,1,70,2|0,0:3|0:0,0:0:0:0:
420,145,272486,2,0,P|454:145|487:133,1,70,8|0,0:0|0:0,0:0:0:0:
350,115,272660,2,0,P|329:87|318:53,1,70,6|0,0:0|0:0,0:0:0:0:
190,201,272833,2,0,P|172:171|165:137,1,70,2|0,0:3|0:0,0:0:0:0:
249,244,273006,2,0,P|284:248|318:239,1,70,4|0,0:0|0:0,0:0:0:0:
164,238,273179,2,0,P|130:238|97:226,1,70,8|0,0:0|0:0,0:0:0:0:
234,208,273353,2,0,P|255:180|266:146,1,70,2|0,0:0|0:0,0:0:0:0:
46,122,273527,5,6,0:0:0:0:
27,167,273613,1,0,0:0:0:0:
23,216,273700,1,0,0:0:0:0:
34,263,273787,1,0,0:0:0:0:
65,300,273874,1,8,0:0:0:0:
104,328,273960,1,0,0:0:0:0:
154,333,274047,1,0,0:0:0:0:
202,327,274134,1,0,0:0:0:0:
246,305,274221,1,0,0:0:0:0:
281,271,274307,1,0,0:0:0:0:
327,255,274394,1,4,0:0:0:0:
376,253,274481,1,0,0:0:0:0:
420,273,274568,1,10,0:0:0:0:
449,311,274654,1,0,0:0:0:0:
457,359,274741,2,0,P|484:336|499:305,1,70
472,43,274915,5,4,0:0:0:0:
488,88,275000,1,0,0:0:0:0:
488,137,275087,1,0,0:0:0:0:
473,183,275173,1,4,0:0:0:0:
429,159,275260,1,10,0:0:0:0:
381,146,275347,1,0,0:0:0:0:
332,146,275433,1,4,0:0:0:0:
284,160,275521,1,0,0:0:0:0:
242,185,275607,1,0,0:0:0:0:
202,213,275693,1,0,0:0:0:0:
154,225,275780,1,6,0:0:0:0:
117,190,275868,1,0,0:0:0:0:
120,142,275953,1,10,0:0:0:0:
160,113,276041,1,0,0:0:0:0:
208,109,276128,2,0,P|235:86|267:72,1,70
98,290,276301,6,0,P|69:266|49:238,1,70,4|0,0:0|0:0,0:0:0:0:
28,116,276475,2,0,P|27:78|41:43,1,70
154,225,276647,1,8,0:0:0:0:
200,241,276735,1,0,0:0:0:0:
248,248,276822,2,0,P|284:248|323:238,3,70,2|0|0|0,0:0|0:0|0:0|0:0,0:0:0:0:
98,290,277168,6,0,P|130:304|173:315,1,70,4|0,0:0|0:0,2:0:0:0:
262,332,277342,2,0,P|296:329|339:316,1,70,10|0,0:0|0:0,2:0:0:0:
421,278,277515,2,0,P|449:258|475:233,1,70,2|0,0:0|0:0,2:0:0:0:
445,136,277688,22,0,P|426:166|402:191,3,70,4|0|2|0,0:0|0:0|0:0|0:0,0:0:0:0:
325,131,278035,1,8,0:0:0:0:
282,154,278122,1,0,0:0:0:0:
233,159,278209,2,0,P|198:157|164:148,3,70,4|0|2|0,0:0|0:0|0:0|0:0,0:0:0:0:
222,42,278555,2,0,P|186:30|140:26,1,70,4|0,0:0|0:0,0:0:0:0:
57,40,278729,5,2,0:1:0:0:
100,118,278815,1,0,0:0:0:0:
116,203,278901,1,2,0:3:0:0:
98,290,278989,1,0,0:0:0:0:
42,362,279076,5,8,0:1:0:0:
20,305,279162,1,0,0:0:0:0:
18,243,279249,1,2,0:0:0:0:
34,184,279335,1,0,0:0:0:0:
71,134,279423,1,8,0:0:0:0:
127,112,279509,1,0,0:0:0:0:
187,113,279595,1,2,0:0:0:0:
242,141,279683,1,0,0:0:0:0:
283,185,279769,1,2,0:3:0:0:
309,240,279856,1,0,0:0:0:0:
360,272,279943,1,6,0:0:0:0:
420,271,280029,1,0,0:0:0:0:
464,230,280115,1,10,0:0:0:0:
482,171,280202,1,0,0:0:0:0:
464,111,280290,2,0,P|431:80|389:66,1,87.5,14|0,0:0|0:0,0:0:0:0:
116,203,280463,5,4,0:0:0:0:
109,263,280549,1,0,0:0:0:0:
137,317,280636,1,10,0:0:0:0:
188,348,280722,1,4,0:0:0:0:
216,293,280809,1,10,0:0:0:0:
213,231,280896,1,0,0:0:0:0:
175,182,280982,1,4,0:0:0:0:
164,120,281070,1,0,0:0:0:0:
188,63,281157,1,10,0:0:0:0:
237,27,281243,1,0,0:0:0:0:
297,21,281329,1,6,0:0:0:0:
357,33,281417,1,8,0:0:0:0:
400,76,281504,1,2,0:3:0:0:
412,135,281590,1,0,0:0:0:0:
389,192,281677,2,0,P|359:219|297:246,1,87.5,14|0,0:0|0:0,0:0:0:0:
84,109,281850,22,0,P|87:60|111:25,1,87.5,4|0,0:1|0:0,0:0:0:0:
237,27,282024,2,0,P|282:5|324:8,1,87.5
466,290,282197,6,0,P|465:333|443:371,1,87.5,8|0,0:0|0:0,0:0:0:0:
343,301,282371,2,0,P|304:323|261:322,1,87.5
166,130,282544,6,0,P|129:109|86:109,3,87.5,0|0|6|0,0:0|0:0|0:0|0:0,0:0:0:0:
99,217,282891,2,0,P|61:238|40:276,3,87.5,8|0|10|0,0:0|0:0|0:0|0:0,0:0:0:0:
124,301,283238,22,0,P|168:301|205:279,1,87.5,6|0,0:0|0:0,0:0:0:0:
282,106,283411,2,0,P|293:147|282:189,1,87.5,2|0,0:3|0:0,0:0:0:0:
166,131,283584,2,0,P|177:172|208:203,1,87.5,8|0,0:0|0:0,0:0:0:0:
399,239,283758,2,0,P|362:260|319:260,1,87.5,6|0,0:0|0:0,0:0:0:0:
220,108,283931,2,0,P|210:151|221:192,1,87.5,2|0,0:3|0:0,0:0:0:0:
378,303,284104,2,0,P|334:303|297:281,1,87.5,4|0,0:0|0:0,0:0:0:0:
102,241,284278,2,0,P|140:262|184:262,1,87.5,8|0,0:0|0:0,0:0:0:0:
335,133,284451,2,0,P|325:175|294:206,1,87.5,2|0,0:0|0:0,0:0:0:0:
459,296,284625,5,6,0:0:0:0:
478,238,284711,1,0,0:0:0:0:
478,176,284798,1,2,0:0:0:0:
463,117,284884,1,0,0:0:0:0:
431,64,284971,1,8,0:0:0:0:
377,33,285058,1,0,0:0:0:0:
317,19,285145,1,6,0:0:0:0:
255,19,285232,1,0,0:0:0:0:
203,51,285318,1,2,0:3:0:0:
221,109,285404,1,0,0:0:0:0:
212,169,285491,1,6,0:0:0:0:
174,218,285579,1,0,0:0:0:0:
115,235,285665,1,10,0:0:0:0:
57,215,285751,1,0,0:0:0:0:
22,163,285839,2,0,P|17:116|37:61,1,87.5,14|0,0:0|0:0,0:0:0:0:
21,325,286012,5,4,0:0:0:0:
73,355,286098,1,0,0:0:0:0:
133,367,286185,1,10,0:0:0:0:
193,358,286271,1,0,0:0:0:0:
251,338,286358,1,8,0:0:0:0:
301,301,286446,1,0,0:0:0:0:
336,250,286533,1,6,0:0:0:0:
355,192,286619,1,0,0:0:0:0:
361,130,286706,1,8,0:0:0:0:
330,183,286793,1,0,0:0:0:0:
271,195,286878,1,6,0:0:0:0:
212,169,286966,1,8,0:0:0:0:
191,111,287053,1,2,0:3:0:0:
203,51,287139,1,0,0:0:0:0:
252,14,287226,2,0,P|295:11|346:33,1,87.5,14|0,0:0|0:0,0:0:0:0:
468,235,287399,5,6,0:0:0:0:
421,297,287485,1,0,0:0:0:0:
352,338,287573,1,0,0:0:0:0:
273,349,287660,1,0,0:0:0:0:
195,343,287745,1,8,0:0:0:0:
122,310,287832,1,0,0:0:0:0:
68,250,287920,1,2,0:0:0:0:
45,175,288006,1,0,0:0:0:0:
54,97,288092,1,0,0:0:0:0:
92,26,288180,1,0,0:0:0:0:
39,85,288267,1,6,0:0:0:0:
9,157,288353,1,0,0:0:0:0:
0,235,288440,1,10,0:0:0:0:
22,310,288527,1,0,0:0:0:0:
74,367,288613,2,0,P|117:376|175:368,1,87.5,10|0,0:0|0:0,0:0:0:0:
309,220,288787,5,4,0:3:0:0:
406,21,288960,1,0,0:0:0:0:
469,235,289134,1,8,0:0:0:0:
283,336,289307,37,4,0:0:0:0:
198,346,289394,1,0,0:0:0:0:
121,311,289481,1,0,0:0:0:0:
84,236,289567,1,0,0:0:0:0:
84,152,289654,1,4,0:0:0:0:
411,152,289827,37,2,0:1:0:0:
309,220,289914,1,0,0:0:0:0:
187,216,290001,1,0,0:0:0:0:
84,152,290087,1,0,0:0:0:0:
56,32,290174,22,0,L|84:324,1,280,12|0,0:1|0:0,0:0:0:0:
454,48,290521,2,0,L|426:340,1,280,8|0,0:0|0:0,0:0:0:0:
60,64,290868,38,0,L|33:342,1,280,0|4,0:0|0:0,0:0:0:0:
449,11,291214,2,0,L|475:289,1,280,8|2,0:0|0:0,0:0:0:0:
64,99,291561,22,0,L|92:391,1,280,4|0,0:0|0:0,0:0:0:0:
456,82,291908,2,0,L|428:374,1,280,8|4,0:0|0:0,0:0:0:0:
56,32,292255,38,0,L|28:324,1,280,0|2,0:0|0:1,0:0:0:0:
454,48,292602,2,0,L|482:340,1,280,10|0,0:0|0:0,0:0:0:0:
51,70,292949,22,0,L|77:348,1,280,4|0,0:1|0:0,0:0:0:0:
449,10,293295,2,0,L|422:288,1,280,8|0,0:0|0:0,0:0:0:0:
56,33,293642,38,0,L|29:311,1,280,0|4,0:0|0:0,0:0:0:0:
445,42,293989,2,0,L|471:320,1,280,8|2,0:0|0:0,0:0:0:0:
49,104,294336,22,0,L|75:382,1,280,4|0,0:0|0:0,0:0:0:0:
441,77,294683,2,0,L|414:355,1,280,8|0,0:0|0:0,0:0:0:0:
56,33,295029,38,0,L|84:325,1,280,0|4,0:0|0:0,0:0:0:0:
441,77,295376,1,2,0:1:0:0:
455,223,295463,1,0,0:0:0:0:
363,340,295550,1,2,0:0:0:0:
220,366,295636,1,0,0:0:0:0:
83,311,295723,22,0,P|26:183|66:37,1,280,4|0,0:1|0:0,0:0:0:0:
430,19,296070,2,0,P|487:147|447:293,1,280,8|0,0:0|0:0,0:0:0:0:
83,311,296417,38,0,P|208:370|358:353,1,280,0|4,0:0|0:0,0:0:0:0:
441,77,296764,2,0,P|315:17|165:34,1,280,8|2,0:0|0:0,0:0:0:0:
220,366,297110,22,0,P|86:329|14:212,1,280,4|0,0:0|0:0,0:0:0:0:
430,19,297457,2,0,P|464:153|399:274,1,280,8|4,0:0|0:0,0:0:0:0:
71,111,297804,38,0,P|30:243|65:376,1,280,0|6,0:0|0:0,0:0:0:0:
474,97,298151,2,0,P|356:23|219:22,1,280,8|2,0:0|0:0,0:0:0:0:
57,310,298498,22,0,L|31:32,1,280,4|0,0:0|0:0,0:0:0:0:
452,323,298845,2,0,L|479:45,1,280,8|0,0:0|0:0,0:0:0:0:
8,342,299191,38,0,L|35:64,1,280,0|4,0:0|0:0,0:0:0:0:
500,286,299539,2,0,L|474:8,1,280,8|2,0:0|0:0,0:0:0:0:
65,377,299885,22,0,L|39:99,1,280,4|0,0:0|0:0,0:0:0:0:
454,357,300232,2,0,L|481:79,1,280,8|4,0:0|0:0,0:0:0:0:
4,310,300579,38,0,L|31:32,1,280,0|2,0:0|0:1,0:0:0:0:
455,357,300925,1,8,0:0:0:0:
453,205,301011,1,0,0:0:0:0:
357,69,301098,1,2,0:0:0:0:
198,16,301185,1,0,0:0:0:0:
32,32,301272,21,4,0:1:0:0:
256,192,301359,12,0,306128,3:0:0:0:
