osu file format v14

[General]
AudioFilename: Genryuu Kaiko.mp3
AudioLeadIn: 0
PreviewTime: 78960
Countdown: 1
SampleSet: Normal
StackLeniency: 0.7
Mode: 0
LetterboxInBreaks: 1
WidescreenStoryboard: 0

[Editor]
DistanceSpacing: 1
BeatDivisor: 4
GridSize: 8
TimelineZoom: 1

[Metadata]
Title:Genryuu Kaiko
TitleUnicode:Genryuu Kaiko
Artist:Halozy
ArtistUnicode:Halozy
Creator:- Alians -
Version:Marathon
Source:Touhou
Tags:
BeatmapID:665773
BeatmapSetID:296533

[Difficulty]
HPDrainRate:5
CircleSize:4
OverallDifficulty:7.3
ApproachRate:9.3
SliderMultiplier:1.4
SliderTickRate:1

[Events]
//Background and Video events
0,0,"CLSW.jpg",0,0
//Break Periods
2,51413,66267
2,79160,178637
2,201414,289619
//Storyboard Layer 0 (Background)
//Storyboard Layer 1 (Fail)
//Storyboard Layer 2 (Pass)
//Storyboard Layer 3 (Foreground)
//Storyboard Sound Samples

[TimingPoints]
1619,346.820809248555,4,1,0,100,1,0
12717,-66.6666666666667,4,1,0,100,0,0
14624,-100,4,1,0,100,0,0
14971,-66.6666666666667,4,1,0,100,0,0
20173,-83.3333333333333,4,1,0,100,0,0
20520,-66.6666666666667,4,1,0,100,0,0
67168,-133.333333333333,4,1,0,100,0,0
68208,-66.6666666666667,4,1,0,100,0,0
79306,-100,4,1,0,100,0,1
101156,-100,4,1,0,100,0,0
156994,-100,4,1,0,100,0,1
179104,-100,4,1,0,100,0,0
184740,-200,4,1,0,100,0,0
187514,-133.333333333333,4,1,0,100,0,0
223584,-100,4,1,0,100,0,1
245434,-100,4,1,0,100,0,0
290173,-100,4,1,0,100,0,1
301272,-200,4,1,0,100,0,0
304393,-200,4,1,0,100,0,0

[HitObjects]
192,312,1619,5,8,0:0:0:0:
144,240,2139,2,12,P|48:168|104:96,1,210
224,80,3006,1,12,0:0:0:0:
384,248,3526,2,0,P|464:200|408:96,1,210
104,256,4740,5,12,0:0:0:0:
264,192,4913,1,12,0:0:0:0:
104,120,5087,1,12,0:0:0:0:
416,168,5434,1,12,0:0:0:0:
192,240,5780,2,12,L|368:88,1,210
408,264,6821,1,12,0:0:0:0:
304,248,7168,6,12,P|216:224|208:104,1,210
408,96,8208,1,12,0:0:0:0:
184,88,8555,2,12,P|144:160|176:288,1,210
256,184,9595,1,12,0:0:0:0:
384,216,9942,1,12,0:0:0:0:
416,136,10116,1,12,0:0:0:0:
368,48,10462,2,12,L|208:48,1,140
152,48,10983,1,12,0:0:0:0:
72,88,11156,1,0,0:0:0:0:
72,88,11329,2,12,L|72:320,1,210
344,240,12717,6,12,P|432:168|416:48,1,210.000008010865
433,78,13237,1,12,0:0:0:0:
256,72,13584,2,12,L|176:144,1,105.000004005432
64,208,14104,1,12,0:0:0:0:
128,264,14277,1,12,0:0:0:0:
192,304,14451,1,12,0:0:0:0:
288,264,14624,2,12,L|416:144,1,140
392,96,15145,1,12,0:0:0:0:
264,88,15491,1,12,0:0:0:0:
144,144,15838,5,12,0:0:0:0:
120,216,16012,1,12,0:0:0:0:
144,288,16185,1,12,0:0:0:0:
272,304,16532,2,12,L|416:144,1,210.000008010865
416,48,17225,1,12,0:0:0:0:
416,48,17399,1,12,0:0:0:0:
304,48,17746,1,12,0:0:0:0:
304,48,17919,1,12,0:0:0:0:
208,48,18266,6,12,P|112:112|136:224,1,210.000008010865
120,280,18786,1,12,0:0:0:0:
208,288,19133,2,12,L|328:288,1,105.000004005432
392,232,19653,1,12,0:0:0:0:
344,128,20000,1,12,0:0:0:0:
240,128,20173,2,12,L|64:128,1,167.999994873047
72,128,20694,1,12,0:0:0:0:
112,224,21040,6,12,L|216:312,1,105.000004005432
328,256,21561,1,12,0:0:0:0:
408,160,21908,1,12,0:0:0:0:
408,88,22081,1,12,0:0:0:0:
336,88,22254,1,12,0:0:0:0:
248,88,22428,1,12,0:0:0:0:
248,88,22601,1,12,0:0:0:0:
248,88,22775,1,12,0:0:0:0:
248,88,22948,1,12,0:0:0:0:
248,88,23035,1,12,0:0:0:0:
248,88,23121,1,12,0:0:0:0:
200,88,23208,1,12,0:0:0:0:
168,96,23295,1,12,0:0:0:0:
144,120,23382,1,12,0:0:0:0:
136,160,23468,1,12,0:0:0:0:
368,232,23815,6,12,P|424:168|416:32,1,210.000008010865
344,56,24335,1,12,0:0:0:0:
272,144,24682,1,12,0:0:0:0:
304,176,24855,1,12,0:0:0:0:
176,280,25202,2,12,P|88:232|104:40,1,315.000012016297
408,64,26069,1,12,0:0:0:0:
344,184,26243,1,12,0:0:0:0:
80,72,26590,1,12,0:0:0:0:
160,208,26936,5,12,0:0:0:0:
336,80,27110,1,12,0:0:0:0:
136,72,27283,1,12,0:0:0:0:
368,232,27457,1,12,0:0:0:0:
104,144,27630,1,12,0:0:0:0:
384,136,27977,2,12,P|456:224|376:336,1,210.000008010865
328,312,28497,2,12,L|72:312,1,210.000008010865
72,232,29017,1,12,0:0:0:0:
312,64,29364,6,12,P|400:160|272:248,2,315.000012016297
64,328,30751,1,12,0:0:0:0:
144,328,30925,1,12,0:0:0:0:
224,328,31098,1,12,0:0:0:0:
304,328,31272,1,12,0:0:0:0:
400,248,31619,1,12,0:0:0:0:
400,168,31792,1,12,0:0:0:0:
400,64,32139,5,12,0:0:0:0:
320,64,32312,1,12,0:0:0:0:
232,64,32486,2,12,L|80:64,1,105.000004005432
272,208,33006,2,12,P|272:200|336:224,3,105.000004005432
424,176,33699,1,12,0:0:0:0:
192,96,33873,1,12,0:0:0:0:
144,312,34046,1,12,0:0:0:0:
384,72,34393,1,12,0:0:0:0:
336,88,34566,1,12,0:0:0:0:
296,96,34740,1,12,0:0:0:0:
248,176,34913,5,12,0:0:0:0:
408,200,35434,1,12,0:0:0:0:
208,272,35780,1,12,0:0:0:0:
80,200,35954,1,12,0:0:0:0:
304,112,36301,1,12,0:0:0:0:
216,112,36474,2,12,L|96:112,2,105.000004005432
392,128,37168,2,12,P|464:200|480:200,1,105.000004005432
176,88,37688,5,12,0:0:0:0:
80,208,38035,1,12,0:0:0:0:
200,288,38208,1,12,0:0:0:0:
80,208,38382,1,12,0:0:0:0:
80,208,38555,1,12,0:0:0:0:
256,184,38728,1,12,0:0:0:0:
368,112,39075,2,12,P|440:200|272:296,1,315.000012016297
112,184,40116,1,12,0:0:0:0:
312,288,40462,5,12,0:0:0:0:
200,288,40636,1,12,0:0:0:0:
168,256,40809,1,12,0:0:0:0:
168,208,40983,1,12,0:0:0:0:
256,120,41329,2,12,L|376:120,1,105.000004005432
176,120,41850,1,12,0:0:0:0:
104,152,42023,2,12,L|48:240,1,105.000004005432
104,320,42370,1,12,0:0:0:0:
416,264,42717,1,12,0:0:0:0:
296,80,42890,1,12,0:0:0:0:
112,320,43237,2,12,L|56:200,1,105.000004005432
104,160,43584,1,12,0:0:0:0:
168,104,43757,1,12,0:0:0:0:
400,96,44104,5,12,0:0:0:0:
400,152,44277,1,12,0:0:0:0:
392,200,44451,1,12,0:0:0:0:
344,296,44624,1,12,0:0:0:0:
288,312,44798,1,12,0:0:0:0:
240,288,44971,1,12,0:0:0:0:
208,248,45145,1,14,0:0:0:0:
184,208,45231,1,14,0:0:0:0:
168,168,45318,1,14,0:0:0:0:
160,120,45405,1,14,0:0:0:0:
160,72,45491,1,14,0:0:0:0:
192,40,45578,1,14,0:0:0:0:
248,40,45665,1,14,0:0:0:0:
296,40,45751,1,14,0:0:0:0:
336,40,45838,1,14,0:0:0:0:
384,40,45925,1,14,0:0:0:0:
432,40,46012,1,14,0:0:0:0:
432,120,46358,6,12,L|432:296,1,105.000004005432
400,288,46705,2,12,P|296:352|200:304,1,210.000008010865
88,176,47399,2,12,P|168:64|240:88,1,210.000008010865
304,104,47919,2,12,L|208:304,1,210.000008010865
104,296,48439,1,12,0:0:0:0:
232,176,48786,2,0,L|448:80,1,210.000008010865
432,176,49306,2,0,P|456:232|280:256,1,315.000012016297
120,192,50173,1,0,0:0:0:0:
360,104,50520,1,0,0:0:0:0:
256,104,50694,1,0,0:0:0:0:
112,304,51040,2,0,L|184:304,2,52.5000020027161
40,240,66821,5,0,0:0:0:0:
480,160,67168,1,2,0:0:0:0:
176,128,67514,1,0,0:0:0:0:
456,64,67688,1,8,0:0:0:0:
152,48,67861,1,0,0:0:0:0:
344,96,68208,5,0,0:0:0:0:
288,128,68295,1,0,0:0:0:0:
240,176,68382,1,2,0:0:0:0:
200,224,68468,1,0,0:0:0:0:
152,264,68555,1,2,0:0:0:0:
152,328,68642,1,0,0:0:0:0:
216,336,68728,1,8,0:0:0:0:
280,336,68815,1,0,0:0:0:0:
336,272,68902,6,8,L|240:272,1,52.5000020027161
408,224,69075,2,0,L|472:224,1,52.5000020027161
408,136,69249,1,2,0:0:0:0:
400,80,69335,1,0,0:0:0:0:
360,40,69422,1,8,0:0:0:0:
304,80,69509,1,0,0:0:0:0:
256,120,69595,1,0,0:0:0:0:
176,120,69682,2,8,L|152:64,1,52.5000020027161
216,192,69855,6,0,L|256:240,1,52.5000020027161
304,280,70029,1,0,0:0:0:0:
376,264,70116,1,0,0:0:0:0:
424,216,70202,1,2,0:0:0:0:
448,152,70289,1,0,0:0:0:0:
408,96,70376,1,0,0:0:0:0:
360,48,70462,1,8,0:0:0:0:
296,48,70549,5,0,0:0:0:0:
232,48,70636,1,0,0:0:0:0:
168,48,70723,1,2,0:0:0:0:
104,48,70809,1,8,0:0:0:0:
432,320,70983,1,0,0:0:0:0:
104,248,71243,1,8,0:0:0:0:
112,184,71329,1,0,0:0:0:0:
128,128,71416,1,2,0:0:0:0:
152,72,71503,1,0,0:0:0:0:
200,32,71590,1,2,0:0:0:0:
280,128,71676,2,0,L|304:200,1,52.5000020027161
352,64,71850,2,8,L|416:24,1,52.5000020027161
432,104,72023,5,0,0:0:0:0:
432,168,72110,1,8,0:0:0:0:
424,208,72197,1,0,0:0:0:0:
424,248,72283,1,8,0:0:0:0:
424,288,72370,1,0,0:0:0:0:
400,328,72457,1,0,0:0:0:0:
344,312,72543,1,8,0:0:0:0:
264,312,72630,2,0,L|280:376,1,52.5000020027161
216,248,72803,2,8,L|184:192,1,52.5000020027161
144,144,72977,1,8,0:0:0:0:
280,128,73064,1,0,0:0:0:0:
432,104,73237,1,2,0:0:0:0:
88,288,73410,5,0,0:0:0:0:
96,232,73497,1,0,0:0:0:0:
96,176,73584,1,8,0:0:0:0:
104,120,73671,1,0,0:0:0:0:
104,64,73757,1,0,0:0:0:0:
144,32,73844,1,2,0:0:0:0:
200,40,73931,1,0,0:0:0:0:
264,40,74017,1,8,0:0:0:0:
320,48,74104,1,0,0:0:0:0:
368,80,74191,1,2,0:0:0:0:
400,136,74277,1,0,0:0:0:0:
416,192,74364,1,8,0:0:0:0:
408,264,74451,1,0,0:0:0:0:
368,320,74538,1,2,0:0:0:0:
304,304,74624,1,0,0:0:0:0:
248,328,74711,1,2,0:0:0:0:
192,296,74798,1,8,0:0:0:0:
144,344,74884,1,0,0:0:0:0:
96,296,74971,1,0,0:0:0:0:
96,216,75058,1,8,0:0:0:0:
312,176,75145,5,8,0:0:0:0:
216,120,75231,2,0,L|280:88,1,52.5000020027161
336,72,75405,2,8,L|408:136,1,52.5000020027161
384,192,75578,2,0,L|312:232,1,52.5000020027161
232,208,75751,2,8,L|176:168,1,52.5000020027161
120,96,75925,2,0,L|192:48,1,52.5000020027161
256,64,76185,6,8,L|408:64,1,105.000004005432
432,96,76532,1,0,0:0:0:0:
432,160,76619,1,8,0:0:0:0:
424,216,76705,1,8,0:0:0:0:
400,264,76792,1,0,0:0:0:0:
352,304,76879,1,0,0:0:0:0:
296,328,76965,1,8,0:0:0:0:
232,320,77052,1,0,0:0:0:0:
168,304,77139,1,8,0:0:0:0:
128,256,77225,5,0,0:0:0:0:
112,208,77312,1,8,0:0:0:0:
128,160,77399,1,0,0:0:0:0:
288,88,77572,1,8,0:0:0:0:
136,80,77746,1,2,0:0:0:0:
368,184,77919,2,0,L|472:184,10,52.5000020027161
88,80,78960,1,2,0:0:0:0:
432,312,179191,6,0,L|432:192|432:24,1,280
256,184,180231,1,0,0:0:0:0:
72,328,180578,2,0,L|72:40,1,280
256,184,181619,1,0,0:0:0:0:
104,192,182312,1,0,0:0:0:0:
136,152,182486,1,0,0:0:0:0:
176,120,182659,1,0,0:0:0:0:
384,184,183006,1,0,0:0:0:0:
80,320,183353,2,0,L|80:40,1,280
256,184,184393,1,0,0:0:0:0:
384,296,184740,6,0,P|408:120|168:160,1,490
72,232,187514,2,0,L|72:120,2,105.000004005432
72,232,188382,1,0,0:0:0:0:
176,160,188902,1,0,0:0:0:0:
368,256,190289,6,0,L|368:88,2,157.500006008148
120,256,191676,2,0,L|120:80,2,157.500006008148
256,176,193410,1,0,0:0:0:0:
256,176,193584,1,0,0:0:0:0:
256,176,193757,1,0,0:0:0:0:
400,192,194104,1,0,0:0:0:0:
408,320,194451,2,0,L|72:320,1,315.000012016297
72,80,195838,6,0,L|240:80,2,157.500006008148
424,288,197225,2,0,L|264:288,2,157.500006008148
256,192,198613,1,0,0:0:0:0:
256,192,198960,1,0,0:0:0:0:
256,192,199306,1,0,0:0:0:0:
256,192,200000,1,12,0:0:0:0:
256,192,200087,12,0,201214,0:0:0:0:
64,296,290173,6,0,L|64:120,1,140
456,224,290867,2,0,L|456:56,1,140
72,48,291561,2,0,L|72:240,1,140
456,172,292254,2,0,L|456:328,1,140
56,296,292948,6,0,L|192:160,1,140
456,304,293642,2,0,L|336:144,1,140
144,48,294335,2,0,L|32:160,1,140
400,48,295029,2,0,L|496:200,1,140
440,232,295462,1,0,0:0:0:0:
408,280,295549,1,0,0:0:0:0:
384,328,295636,1,0,0:0:0:0:
304,328,295723,1,0,0:0:0:0:
88,208,296069,5,0,0:0:0:0:
160,104,296243,1,0,0:0:0:0:
408,216,296416,1,0,0:0:0:0:
344,104,296590,1,0,0:0:0:0:
208,304,296763,1,0,0:0:0:0:
272,104,296936,1,0,0:0:0:0:
88,208,297110,1,0,0:0:0:0:
408,216,297283,1,0,0:0:0:0:
192,56,297457,6,0,P|104:96|120:152,1,140
208,176,297977,1,0,0:0:0:0:
216,280,298150,2,0,P|296:264|280:176,1,140
448,64,298844,1,0,0:0:0:0:
472,192,299017,1,0,0:0:0:0:
104,72,299191,1,0,0:0:0:0:
48,168,299364,1,0,0:0:0:0:
88,256,299538,6,0,L|136:336,1,70
368,328,299884,2,0,L|440:264,1,70
384,152,300231,2,0,P|336:96|344:88,1,70
288,240,300578,2,0,L|256:328,1,70
440,280,300925,5,0,0:0:0:0:
464,192,301012,1,0,0:0:0:0:
448,104,301098,1,0,0:0:0:0:
392,40,301185,1,0,0:0:0:0:
256,192,301272,12,0,304393,0:0:0:0:
