osu file format v9

[General]
AudioFilename: Halozy - Genryu Kaiko.mp3
AudioLeadIn: 0
PreviewTime: 79728
Countdown: 0
SampleSet: Soft
StackLeniency: 0.7
Mode: 0
LetterboxInBreaks: 1

[Editor]
Bookmarks: 68976,124467,135566
DistanceSpacing: 1
BeatDivisor: 4
GridSize: 8

[Metadata]
Title:Genryu Kaiko
Artist:Halozy
Creator:l3lueskyiiz
Version:Lunatic
Source:Touhou
Tags:higan retour riverside view

[Difficulty]
HPDrainRate:6
CircleSize:4
OverallDifficulty:8
ApproachRate:8
SliderMultiplier:1.7
SliderTickRate:1

[Events]
//Background and Video events
0,0,"komachi.jpg"
//Break Periods
2,24783,34931
2,102471,112272
2,180159,201405
2,268945,278746
//Storyboard Layer 0 (Background)
//Storyboard Layer 1 (Fail)
//Storyboard Layer 2 (Pass)
//Storyboard Layer 3 (Foreground)
//Storyboard Sound Samples
//Background Colour Transformations
3,100,163,162,255

[TimingPoints]
2387,346.820809248555,4,2,0,50,1,0
2387,-133.333333333333,4,2,1,50,0,0
13658,-100,4,2,0,50,0,0
23109,-100,4,2,1,50,0,0
24496,-100,4,2,1,60,0,0
24583,-100,4,2,1,60,0,1
24670,-100,4,2,1,60,0,0
80074,-100,4,2,1,60,0,1
90826,-100,4,2,1,60,0,0
91173,-100,4,2,1,60,0,1
100884,-100,4,2,1,60,0,0
102184,-100,4,2,1,60,0,0
102271,-100,4,2,1,60,0,1
102358,-100,4,2,1,60,0,0
124641,-100,4,2,1,60,0,0
135739,-100,4,2,0,60,0,0
140681,-100,4,2,1,60,0,0
157762,-100,4,2,1,60,0,1
168514,-100,4,2,1,60,0,0
168860,-100,4,2,1,60,0,1
178571,-100,4,2,1,60,0,0
179785,-100,4,2,0,50,0,0
213254,-100,4,2,1,50,0,0
224352,-100,4,2,1,50,0,1
235017,-100,4,1,0,50,0,0
235450,-100,4,2,1,50,0,1
245161,-100,4,2,1,50,0,0
246548,-100,4,2,1,50,0,1
246635,-100,4,2,1,50,0,0
268745,-100,4,2,1,50,0,1
268832,-100,4,2,1,50,0,0
290941,-100,4,2,1,50,0,1
291028,-100,4,2,1,50,0,0
299178,-100,4,2,1,55,0,0
300566,-100,4,2,1,60,0,0

[Colours]
Combo1 : 169,134,227
Combo2 : 255,90,72
Combo3 : 254,205,92
Combo4 : 83,181,253

[HitObjects]
72,200,2387,2,0,B|80:272|160:304,1,127.499996200204,0|2
200,240,2907,2,0,B|272:272|288:352,1,127.499996200204
344,288,3427,1,2
472,200,3774,2,0,B|449:138|473:75,1,127.499996200204,0|2
400,80,4294,2,0,B|200:80,1,191.249994300306,0|2
368,344,5508,5,2
312,296,5681,1,0
240,280,5855,2,0,B|160:280|112:216,1,127.499996200204,0|2
80,88,6548,2,0,B|8:160|48:280,2,191.249994300306
208,176,7936,2,0,B|288:168|320:96,1,127.499996200204,0|2
248,72,8456,2,0,B|120:72,1,127.499996200204
120,152,8976,1,2
192,288,9323,2,0,B|312:280|384:360,1,191.249994300306,0|0
192,288,10363,1,2
304,192,10710,6,0,B|304:112,1,63.749998100102
360,72,11057,1,2
432,104,11230,2,0,B|472:168|432:248,1,127.499996200204
441,226,11751,1,2
352,264,11924,1,0
400,344,12097,1,0
256,192,12271,12,12,13485
336,120,13832,6,0,B|336:232,1,85,8|0
392,272,14178,1,0
392,272,14265,1,0
392,272,14352,1,0
336,336,14525,1,8
336,336,14699,1,0
168,312,14872,6,0,B|168:208|64:144,1,170,0|8
40,104,15392,1,0
40,104,15566,2,0,B|40:32,2,42.5
168,128,15913,2,0,B|216:64,2,42.5,8|0|0
72,216,16259,2,0,B|160:280|264:264,1,170,0|8
272,192,16780,5,0
360,192,16953,1,0
360,192,17126,1,0
336,272,17300,2,0,B|376:304|368:368,1,85,8|0
472,208,17647,6,0,B|408:128|440:16,1,170,0|8
264,88,18167,2,0,B|240:184|112:192,1,170
112,64,18687,1,8
40,216,18860,1,0
168,328,19034,6,0,B|288:328,1,85
256,240,19381,2,0,B|352:240,1,85,8|0
360,248,19641,1,0
376,264,19728,1,0
440,144,19901,5,0
312,64,20074,1,8
312,64,20248,1,0
232,80,20421,2,0,B|128:96|72:184,1,170,0|8
48,80,20941,5,0
184,184,21115,1,0
128,24,21288,1,0
184,184,21462,1,8
64,232,21635,6,0,B|64:336,2,85
64,232,22155,1,8
144,264,22329,2,0,B|256:264|320:352,1,170
384,344,22849,5,8
464,192,23022,1,0
352,64,23196,1,8
280,112,23369,5,0
256,112,23456,1,0
232,112,23543,1,8
176,176,23716,1,0
96,208,23889,1,8
80,224,23976,1,0
72,248,24063,1,0
80,272,24150,1,0
96,288,24236,1,8
352,248,24583,5,12
408,144,35681,6,0,B|408:240,1,85,12|0
328,264,36028,1,8
256,312,36202,2,0,B|184:248|64:232,1,170
56,168,36722,1,8
56,168,36895,1,0
96,88,37069,6,0,B|152:88|184:152,1,85
296,136,37415,2,0,B|296:192|232:224,1,85,8|0
136,248,37762,1,0
168,126,37936,1,0
258,208,38109,2,0,B|400:352,1,170,8|0
448,288,38629,5,0
464,120,38803,1,8
312,48,38976,1,0
408,192,39150,6,0,B|352:136|248:120,1,170,0|8
184,168,39670,1,0
96,168,39843,2,0,B|80:120|128:80,1,85
184,40,40190,1,8
264,72,40363,2,0,B|384:72,1,85
248,152,40710,2,0,B|352:192,1,85,0|8
200,216,41057,2,0,B|272:296,1,85,0|12
256,279,41404,5,0
344,280,41577,1,8
296,352,41751,2,0,B|192:368|112:280,1,170,0|0
56,280,42271,1,8
56,280,42444,1,0
112,216,42618,2,0,B|112:48,1,170,0|8
32,64,43138,5,0
192,120,43311,1,0
32,184,43485,1,0
192,120,43658,6,0,B|224:80|304:88,1,85,8|0
400,192,44005,2,0,B|368:232|288:224,1,85
256,168,44352,5,8
336,136,44525,1,0
144,304,44872,2,0,B|48:304,2,85,0|8|0
232,304,45392,1,8
232,304,45566,2,0,B|288:248,2,42.5,0|0|8
184,232,45913,1,0
104,216,46086,1,8
88,200,46173,1,0
80,176,46259,1,0
152,128,46433,5,2
160,112,46519,1,0
176,96,46606,1,2
192,88,46693,1,2
216,80,46780,2,0,B|304:80|384:136,1,170,12|8
320,192,47300,1,0
320,280,47473,2,0,B|336:328|416:336,1,85
392,248,47820,1,8
448,184,47993,1,0
384,72,48167,6,0,B|288:72|224:160,1,170,0|8
152,144,48687,2,0,B|152:240|240:304,1,170
224,291,49207,1,8
152,344,49381,1,0
72,320,49554,2,0,B|96:272|72:232,1,85
32,168,49901,1,8
32,168,50074,2,0,B|64:64,1,85
136,64,50421,2,0,B|136:176,1,85,0|8
216,184,50768,5,0
256,112,50941,2,0,B|352:160|456:112,1,170,0|8
432,40,51462,1,0
496,96,51635,1,0
420,125,51808,1,0
320,48,51982,5,8
352,216,52155,1,8
480,328,52329,2,0,B|384:304|288:352,1,170,12|8
264,272,52849,6,0,B|208:296|224:368,2,85
264,272,53369,1,8
320,208,53543,1,0
400,240,53716,2,0,B|384:136|448:56,1,170,0|8
432,77,54236,1,0
360,40,54410,1,0
288,88,54583,2,0,B|192:88,1,85,0|8
168,168,54930,2,0,B|264:168,1,85
120,272,55277,5,0
280,328,55450,1,8
224,264,55623,6,0,B|312:224|400:248,1,170
416,160,56144,1,8
472,224,56317,1,0
312,168,56491,6,0,B|216:168|144:96,1,170,0|8
112,40,57011,2,0,B|160:112|112:224,1,170,0|8
56,136,57531,5,8
96,304,57704,1,8
240,208,57878,1,12
448,64,58225,6,0,B|448:152,1,85,8|0
448,232,58571,1,0
360,224,58745,1,0
344,144,58918,1,8
344,144,59092,1,0
344,144,59178,1,0
344,144,59265,2,0,B|256:160|208:240,1,170,0|8
224,320,59785,6,0,B|263:291|331:303,1,85
136,280,60132,2,0,B|120:233|151:172,1,85,0|8
140,196,60479,5,0
80,136,60652,1,0
80,136,60826,1,0
88,48,60999,1,8
168,80,61173,2,0,B|224:160|352:160,1,170,0|0
288,72,61693,1,8
288,72,61866,1,0
400,128,62040,2,0,B|400:304,1,170,0|8
320,328,62560,6,0,B|280:296|216:312,1,85
136,176,62907,2,0,B|176:208|240:192,1,85,0|8
192,112,63254,5,8
176,280,63427,2,0,B|80:264|24:336,1,170,12|8
24,335,63947,5,0
32,248,64121,1,0
96,200,64294,1,0
136,128,64467,2,0,B|96:96|32:128,1,85,8|0
216,72,64814,6,0,B|272:152|384:168,1,170,0|8
416,104,65334,2,0,B|456:184|408:304,1,170
344,240,65855,1,8
312,320,66028,1,0
312,320,66115,1,0
312,320,66202,2,0,B|208:320,1,85
227,320,66548,1,8
144,288,66722,1,0
176,208,66895,1,0
256,240,67069,1,0
88,224,67242,5,8
248,160,67415,1,0
416,184,67589,2,0,B|416:80|312:24,1,170,12|0
96,200,68282,2,0,B|80:256|144:304,2,85,0|8|8
104,168,68716,1,0
120,144,68803,1,0
144,128,68889,1,0
176,120,68976,1,12
240,64,69150,5,0
280,136,69323,1,8
256,216,69496,2,0,B|256:272|320:296,1,85
344,216,69843,1,0
432,216,70017,2,0,B|432:120,1,85,8|0
360,88,70363,2,0,B|288:40|176:40,2,170,0|8|0
296,144,71230,5,0
296,144,71317,1,0
296,144,71404,1,8
136,192,71577,1,0
264,304,71751,6,0,B|168:336,1,85
64,280,72097,2,0,B|176:264,1,85,8|0
184,192,72444,2,0,B|72:184,1,85
72,104,72791,1,8
144,56,72965,2,0,B|152:144|256:192,1,170
256,104,73485,2,0,B|360:104,1,85,8|0
341,104,73832,5,0
376,272,74005,1,0
432,112,74178,1,8
464,280,74352,1,8
384,184,74525,6,0,B|272:192|272:304,1,170,12|8
272,288,75045,1,0
144,312,75219,1,0
64,208,75392,1,0
232,184,75566,1,8
88,88,75739,1,0
232,184,75913,6,0,B|336:144|344:48,1,170,12|8
341,64,76433,1,0
424,64,76606,1,0
432,152,76780,1,0
392,224,76953,5,8
424,64,77126,1,0
256,48,77300,2,0,B|152:32|88:136,1,170,12|8
256,192,77820,1,0
256,336,77993,2,0,B|360:352|424:248,1,170,12|8
256,192,78514,6,0,B|256:168,4,21.25,0|0|0|0|0
176,296,78860,2,0,B|128:288|96:224,1,85,8|8
128,160,79207,1,8
120,128,79294,1,8
96,104,79381,1,0
64,96,79467,1,0
32,96,79554,1,8
192,48,79728,5,8
272,152,79901,1,8
288,176,79988,1,0
312,200,80074,2,0,B|400:232|496:208,1,170,12|8
432,144,80595,1,0
280,64,80768,6,0,B|192:32|96:56,1,170,0|8
160,120,81289,1,0
80,160,81462,2,0,B|56:208|96:272,1,85
168,240,81808,1,8
168,240,81982,2,0,B|192:288|152:352,1,85
80,336,82329,5,0
248,336,82502,2,0,B|312:272|432:288,1,170,8|0
464,344,83022,1,0
440,176,83196,1,8
272,144,83369,1,0
344,248,83543,5,0
360,120,83716,1,0
472,64,83889,1,8
360,120,84063,2,0,B|304:40|184:64,1,170
128,80,84583,5,8
184,144,84756,1,0
96,160,84930,1,0
48,88,85103,5,0
56,256,85277,1,8
48,88,85450,1,8
152,224,85623,6,0,B|248:264|272:360,1,170,12|8
328,288,86144,1,0
272,224,86317,2,0,B|272:112,2,85,0|0|8
400,112,86837,5,0
456,176,87010,2,0,B|456:288,2,85,0|0|8
360,200,87531,1,0
360,200,87704,2,0,B|248:200|192:112,1,170,0|8
256,192,88225,12,8,90132
200,272,90479,5,8
256,336,90652,1,8
312,272,90826,1,8
344,272,90913,1,0
368,264,90999,1,8
392,248,91086,1,0
408,224,91173,2,0,B|408:56,1,170,12|8
408,54,91693,1,0
328,80,91866,6,0,B|328:136|264:160,1,85
280,232,92213,2,0,B|224:232|200:168,1,85,8|0
128,184,92560,2,0,B|128:128|192:104,1,85
240,72,92907,1,8
240,72,93080,1,0
240,160,93254,2,0,B|240:256|112:296,1,170,0|8
72,232,93774,6,0,B|32:328,1,85
40,136,94121,2,0,B|80:40,1,85,0|8
128,120,94467,1,0
152,200,94641,1,0
216,144,94814,1,0
128,120,94988,1,8
248,240,95161,6,0,B|320:296|448:272,1,170
440,200,95681,1,8
440,200,95855,1,0
416,120,96028,2,0,B|360:130|344:192,1,85
352,256,96375,5,8
200,328,96548,1,0
88,200,96722,2,0,B|120:112|48:24,1,170,12|8
144,48,97242,6,0,B|160:96|224:112,1,85
256,168,97589,1,0
256,168,97676,1,0
256,168,97762,1,8
296,96,97936,1,0
376,128,98109,2,0,B|480:176,1,85
328,200,98456,2,0,B|400:288,1,85,8|0
256,248,98803,2,0,B|256:344,1,85
96,264,99150,5,8
160,104,99323,1,8
256,248,99496,1,12
256,192,99583,12,8,100884
256,144,101057,6,0,B|256:192,2,42.5,0|0|8
256,144,101404,1,0
200,80,101577,1,0
224,56,101664,1,0
256,48,101751,1,0
288,56,101837,1,0
312,80,101924,1,8
256,328,102271,5,12
310,112,113022,5,8
336,112,113109,1,8
368,112,113196,1,8
400,112,113282,1,0
432,112,113369,2,0,B|456:208|344:288,1,170,12|8
288,272,113889,1,0
232,336,114063,2,8,B|152:288|56:280,1,170,0|8
120,208,114583,5,0
200,184,114756,1,0
200,184,114930,2,0,B|232:80,1,85,0|8
152,64,115277,1,0
152,64,115450,2,0,B|72:88|32:192,1,170,0|8
56,304,115970,1,0
152,224,116144,1,0
36,180,116317,5,0
144,312,116491,1,8
296,240,116664,1,0
296,240,116837,2,0,B|336:144|448:128,1,170,0|8
416,216,117358,6,0,B|416:320,1,85
344,352,117704,1,0
272,304,117878,1,8
200,352,118051,2,0,B|176:304|208:248,1,85
269,223,118398,2,0,B|293:271|261:327,1,85,0|8
120,224,118745,5,0
64,64,118918,2,0,B|168:64|232:144,1,170,12|8
296,96,119439,2,0,B|208:144|232:272,1,170
112,296,119959,1,8
112,296,120132,1,0
224,352,120306,2,0,B|288:288|408:304,1,170,0|8
440,360,120826,2,0,B|360:320|352:192,1,170
352,136,121346,1,8
432,152,121519,1,0
440,240,121693,5,0
272,248,121866,1,0
216,88,122040,1,8
168,160,122213,6,0,B|72:192|72:304,1,170
136,344,122733,2,0,B|232:344,1,85,8|0
200,264,123080,1,8
280,296,123254,1,0
312,296,123340,1,0
344,288,123427,1,8
368,272,123514,1,0
384,248,123600,1,0
304,208,123774,5,0
304,208,123947,1,8
304,120,124121,1,2
304,120,124207,1,2
304,120,124294,1,2
304,120,124381,1,2
304,120,124467,2,0,B|248:120|208:64,1,85,12|0
144,80,124814,5,8
176,160,124988,1,0
128,232,125161,2,0,B|120:320|32:368,2,170,0|8|0
48,208,126028,2,0,B|48:96,1,85,0|8
104,56,126375,1,0
184,72,126548,2,0,B|184:184,1,85
184,157,126895,1,8
184,157,127069,1,0
256,200,127242,6,0,B|424:200,1,170,0|8
432,112,127762,2,0,B|424:56|360:40,1,85
328,112,128109,1,0
240,112,128282,1,8
328,112,128456,1,0
288,184,128629,2,0,B|288:288|176:336,1,170,0|8
120,320,129150,5,0
120,320,129323,2,0,B|120:200,1,85
40,88,129670,2,0,B|40:208,2,85,8|0|12
256,224,130363,5,8
312,160,130537,1,0
384,200,130710,2,0,B|472:144|472:32,1,170,0|8
384,80,131230,1,0
384,80,131404,2,0,B|336:80|296:128,1,85
224,136,131751,1,8
288,192,131924,1,0
308,115,132097,1,0
184,232,132271,5,0
344,296,132444,1,8
184,232,132618,1,0
48,336,132791,2,0,B|96:240|40:152,1,170,0|8
128,128,133311,6,0,B|232:128,1,85
168,56,133658,1,0
128,128,133832,1,8
212,128,134005,1,0
208,216,134178,6,0,B|304:248|336:352,1,170,0|8
472,232,134699,2,0,B|376:200|344:96,1,170
224,88,135219,5,8
208,216,135392,1,8
352,120,135566,1,12
184,312,135913,6,0,B|128:296|120:232,1,85,8|0
48,224,136259,1,0
104,160,136433,1,0
104,160,136606,2,0,B|104:56,1,85,8|0
184,104,136953,2,0,B|184:208,1,85
264,160,137300,2,0,B|264:56,1,85,8|0
264,248,137647,6,0,B|368:264|408:344,1,170,0|8
424,248,138167,1,0
424,248,138254,1,0
424,248,138340,2,0,B|424:192|472:168,1,85
459,175,138687,1,8
432,96,138860,1,0
352,80,139034,1,0
432,96,139207,1,0
376,160,139381,2,0,B|272:192|184:136,1,170,8|0
168,80,139901,5,0
104,136,140074,1,8
152,208,140248,2,0,B|136:256|64:264,1,85
89,259,140595,1,0
136,328,140768,1,8
168,328,140855,1,0
200,320,140941,1,8
224,304,141028,1,0
240,280,141115,1,12
264,200,141288,5,0
336,240,141462,2,0,B|384:264|384:344,1,85,8|0
456,344,141808,2,0,B|456:240,1,85
408,192,142155,1,8
408,192,142329,1,0
336,40,142502,6,0,B|272:112|152:104,1,170,12|8
104,80,143022,1,0
112,168,143196,2,0,B|128:216|72:272,1,85
32,184,143543,5,8
144,312,143716,1,0
224,160,143889,6,0,B|232:256|304:320,1,170,12|8
344,240,144410,1,0
384,312,144583,2,0,B|446:257|454:161,1,170,12|8
448,128,145017,1,8
432,104,145103,1,8
408,80,145190,1,0
376,72,145277,1,12
256,192,145623,5,2
256,208,145970,1,2
256,224,146317,1,2
256,240,146664,6,0,B|256:328,2,85,12|0|8
184,280,147184,2,0,B|88:232|72:120,1,170
120,80,147704,2,0,B|168:48|224:72,1,85,8|0
176,144,148051,1,0
344,184,148225,6,0,B|296:216|240:192,1,85,0|8
288,120,148572,1,0
456,136,148745,2,0,B|416:208|456:320,1,170,0|8
376,344,149265,1,0
304,296,149439,2,0,B|208:296,1,85
128,208,149785,2,0,B|224:208,1,85,8|0
288,120,150132,2,0,B|184:120,1,85
120,120,150479,1,8
48,80,150652,2,0,B|80:168|16:280,1,170
33,245,151173,5,8
144,312,151346,1,0
256,248,151519,1,0
144,312,151693,5,0
136,144,151866,1,8
304,112,152040,1,8
320,280,152213,2,0,B|384:208|488:216,1,170,12|8
448,296,152733,1,0
472,216,152907,6,0,B|448:168|488:112,1,85
336,40,153254,2,0,B|360:88|320:144,1,85,8|0
376,200,153600,6,0,B|272:184|200:264,1,170,12|8
218,245,154121,1,0
144,280,154294,1,0
144,280,154467,1,0
80,224,154641,1,8
80,136,154814,1,0
152,184,154988,6,0,B|192:88|120:16,1,170,12|8
360,200,155681,2,0,B|320:296|392:368,1,170,12|8
256,240,156202,6,0,B|256:272,4,21.25,8|0|0|0|0
208,168,156548,1,0
296,168,156722,1,8
256,96,156895,1,8
256,96,156982,1,0
256,96,157069,1,0
256,96,157155,1,0
256,96,157242,1,0
256,240,157415,5,8
256,336,157762,2,0,B|176:296|64:320,1,170,12|8
48,240,158282,5,0
120,192,158456,1,0
152,112,158629,1,0
64,120,158803,2,0,B|24:152|32:208,1,85,8|0
120,192,159150,2,0,B|232:192|280:272,1,170,0|8
270,257,159670,1,0
336,312,159843,2,0,B|448:312,1,85
421,312,160190,1,8
392,232,160363,1,0
424,152,160537,5,0
280,64,160710,1,0
264,232,160884,1,8
424,152,161057,1,0
312,144,161230,5,0
368,80,161404,1,0
312,144,161577,1,8
224,128,161751,2,0,B|136:128|56:56,1,170
32,144,162271,2,0,B|64:192|32:256,1,85,8|0
128,208,162618,1,0
200,256,162791,2,0,B|168:304|200:368,1,85,0|8
44,225,163138,5,8
80,344,163311,2,0,B|160:304|264:328,1,170,12|8
245,324,163832,1,0
296,256,164005,1,0
296,256,164178,1,0
376,288,164352,2,0,B|480:288,2,85,8|0|0
296,256,164872,1,0
224,216,165045,2,0,B|120:216,2,85,8|0|0
296,168,165566,5,0
424,144,165739,1,8
480,32,165913,1,0
256,192,166086,12,8,167820
256,328,168167,6,0,B|256:224,1,85,8|8
312,176,168514,1,8
288,160,168600,1,0
256,152,168687,1,0
224,160,168774,1,0
200,176,168860,1,12
128,128,169034,5,0
128,128,169207,2,0,B|48:200,2,85,8|0|0
176,56,169728,1,0
256,88,169901,1,8
336,56,170074,1,0
384,128,170248,2,0,B|464:200,2,85,0|0|8
328,192,170768,1,0
328,192,170941,2,0,B|304:280|192:304,1,170,0|8
207,300,171462,5,0
48,240,171635,1,0
192,328,171808,1,0
128,168,171982,1,8
160,336,172155,1,0
240,184,172329,2,0,B|352:184,2,85,0|0|8
120,64,172849,6,0,B|48:120|48:232,1,170
48,296,173369,1,8
120,248,173543,2,0,B|168:272|160:336,1,85
256,176,173889,2,0,B|208:152|216:88,1,85,0|8
208,232,174236,5,8
216,248,174323,1,0
224,264,174410,2,0,B|328:264,1,85,12|0
309,264,174756,1,8
392,264,174930,1,0
464,304,175103,1,0
392,352,175277,1,0
392,264,175450,6,0,B|392:160,1,85,8|0
304,88,175797,2,0,B|304:192,1,85
216,264,176144,2,0,B|216:152,1,85,8|0
128,88,176491,2,0,B|128:184,1,85
80,240,176837,5,0
160,336,177011,1,0
328,344,177184,1,12
352,264,177358,2,0,B|296:256|256:296,1,85,0|8
192,248,177704,5,0
152,80,177878,1,0
80,232,178051,1,0
48,64,178225,1,8
120,160,178398,5,0
208,160,178571,1,8
208,160,178745,2,0,B|280:160,2,42.5,0|0|8
240,80,179092,1,8
264,72,179178,1,0
296,72,179265,1,0
328,80,179352,1,0
352,104,179439,1,0
368,128,179525,1,0
376,160,179612,1,8
256,280,179959,5,4
256,192,202155,6,0,B|264:248|312:296,1,85,4|0
368,304,202502,1,8
424,240,202676,1,0
432,224,202762,1,0
432,200,202849,1,0
360,152,203022,1,0
360,64,203196,1,0
360,152,203369,1,0
240,104,203543,6,0,B|152:64,1,85
56,136,203889,2,0,B|160:160,1,85,8|0
138,155,204150,1,0
138,155,204236,1,0
88,224,204410,1,0
168,264,204583,2,0,B|256:280|328:352,1,170
316,341,205103,1,0
328,256,205277,5,8
424,112,205450,1,0
480,272,205623,2,0,B|400:240|344:144,1,170
354,161,206144,1,0
312,88,206317,2,0,B|104:88,1,170
80,152,206837,1,0
80,320,207184,6,0,B|80:224,2,85
152,272,207704,1,0
232,336,207878,1,0
272,232,208051,1,8
272,232,208225,2,0,B|320:232,2,42.5
256,152,208571,6,0,B|208:168|192:216,1,85
328,312,208918,2,0,B|376:296|392:248,1,85
400,176,209265,1,0
336,120,209439,1,8
400,176,209612,1,0
400,176,209699,1,0
400,176,209785,1,0
280,56,209959,6,0,B|176:32,1,85
216,120,210306,2,0,B|112:136,1,85
184,208,210652,2,0,B|88:264,1,85,0|8
176,304,210999,2,0,B|272:288|368:352,1,170
368,208,211519,5,0
464,296,211693,1,0
339,335,211866,1,0
256,192,211953,12,12,213254
192,192,213600,5,8
256,136,213774,1,0
320,192,213947,2,0,B|368:192,2,42.5
192,192,214294,2,0,B|128:192,2,42.5,8|0|0
208,320,214641,6,0,B|104:304|64:200,1,170,0|8
304,64,215161,2,0,B|408:80|448:184,1,170
436,158,215681,1,8
440,248,215855,1,0
436,158,216028,1,0
272,192,216375,6,0,B|184:192,2,85,8|0|0
272,192,216895,1,0
360,192,217069,1,8
360,192,217155,1,0
360,192,217242,1,0
312,72,217415,6,0,B|232:128|120:112,1,170,0|8
312,312,217936,2,0,B|232:256|120:272,1,170
112,192,218456,1,8
151,115,218629,1,0
151,269,218803,1,12
256,192,218976,5,0
256,192,219150,1,8
320,88,219323,2,0,B|352:136|304:200,1,85,0|8
360,248,219670,2,0,B|312:280|248:232,1,85,0|8
200,288,220017,2,0,B|168:240|216:176,1,85,0|8
152,136,220363,2,0,B|200:104|264:152,1,85,0|8
320,88,220710,5,0
360,248,220884,1,8
200,288,221057,1,0
152,136,221230,1,8
152,136,221404,1,0
344,168,221577,6,0,B|448:168,1,85,8|8
168,216,221924,2,0,B|64:216,1,85,8|8
232,104,222271,2,0,B|232:0,1,85,8|8
280,280,222618,2,0,B|280:384,1,85,8|8
256,192,222965,6,0,B|256:168,4,21.25,8|0|0|0|0
256,192,223311,1,8
344,152,223485,1,8
376,144,223571,1,0
400,128,223658,1,0
424,104,223745,1,0
432,72,223832,1,0
256,64,224005,1,8
168,152,224178,5,0
144,160,224265,1,0
120,176,224352,2,0,B|48:240|32:320,1,170,12|8
120,320,224872,1,0
280,272,225045,6,0,B|352:208|368:128,1,170,0|8
280,128,225566,1,0
216,72,225739,6,0,B|168:96|152:152,1,85
158,132,226086,1,8
120,208,226259,1,0
192,256,226433,2,0,B|224:352,1,85
304,320,226780,2,0,B|304:224,1,85,8|0
304,235,227126,5,0
416,256,227300,1,0
376,152,227473,1,8
304,235,227647,1,0
232,128,227820,5,0
384,56,227993,1,0
504,176,228167,1,8
376,152,228340,6,0,B|360:256,1,85
296,176,228687,2,0,B|240:256,1,85,0|8
208,168,229034,2,0,B|128:208,1,85
136,120,229381,2,0,B|40:120,1,85,0|8
51,120,229728,1,0
64,248,229901,6,0,B|120:320|224:352,1,170,4|8
256,280,230421,1,0
310,344,230595,2,0,B|392:320|448:248,1,170,0|8
447,248,231115,1,0
368,224,231288,6,0,B|368:128,1,85
256,72,231635,1,8
144,136,231808,1,0
256,72,231982,2,0,B|208:136|320:176|232:256,1,170,0|8
232,312,232502,6,0,B|176:304|168:224,1,85
252,232,232849,1,0
272,152,233022,2,0,B|328:160|336:240,1,85,8|0
329,207,233369,5,0
174,257,233543,1,0
344,288,233716,1,8
160,184,233889,1,0
160,184,234063,1,0
256,48,234236,6,0,B|224:96|272:160,1,85,0|8
256,336,234583,2,0,B|288:288|240:224,1,85
259,255,234930,1,0
320,192,235103,5,0
344,192,235190,1,0
368,192,235277,1,0
392,192,235363,1,0
416,192,235450,2,0,B|464:216|480:264,1,85,12|0
392,272,235797,1,8
392,272,235970,1,0
336,336,236144,2,0,B|240:360,1,85
232,272,236491,5,8
232,272,236664,1,0
168,216,236837,2,0,B|56:176,2,85,0|0|8
48,264,237358,1,0
32,128,237531,2,0,B|104:80|224:104,1,170,0|8
240,168,238051,5,0
240,168,238138,1,0
240,168,238225,2,0,B|296:160|328:112,1,85
328,48,238571,1,8
328,48,238745,1,0
432,120,238918,1,0
432,120,239092,1,0
376,232,239265,5,8
376,232,239439,2,0,B|368:288|432:328,1,85
256,344,239785,2,0,B|256:232,1,85,0|8
136,232,240132,2,0,B|144:288|80:328,1,85
106,307,240479,1,0
64,192,240652,2,0,B|24:144,2,42.5,8|0|0
104,72,240999,6,0,B|192:112|304:96,1,170,4|8
336,48,241519,1,0
408,312,241693,6,0,B|320:272|208:288,1,170,0|8
176,336,242213,1,0
128,176,242387,6,0,B|176:176|224:216,1,85
384,208,242733,2,0,B|336:208|288:168,1,85,8|0
206,203,243080,5,0
304,180,243254,1,0
224,280,243427,1,8
288,104,243600,1,8
224,280,243774,1,4
256,192,243860,12,12,245161
256,192,245334,6,0,B|256:240,2,42.5,0|0|8
256,192,245681,1,0
208,120,245855,1,0
176,120,245941,1,0
144,112,246028,1,0
120,96,246115,1,0
104,72,246202,1,8
320,264,246548,6,0,B|416:272|464:344,1,170,4|8
464,256,247069,2,0,B|440:176|464:88,1,170
384,56,247589,1,8
336,128,247762,1,0
256,112,247936,2,0,B|64:112,1,170,0|8
120,192,248456,2,0,B|176:200|208:264,1,85
190,235,248803,1,0
224,312,248976,2,0,B|312:296|384:200,1,170,8|0
365,223,249496,5,0
472,152,249670,1,8
400,48,249843,1,0
296,128,250017,2,0,B|192:128,1,85
248,200,250363,2,0,B|152:248,1,85,8|0
80,96,250710,6,0,B|32:184|88:280,1,170,0|8
248,256,251230,2,0,B|296:168|240:72,1,170,0|0
160,184,251751,1,8
160,184,251924,1,0
160,272,252097,2,0,B|160:360,2,85,0|0|8
320,336,252618,6,0,B|336:240|424:176,1,170
464,256,253138,1,8
408,96,253485,2,0,B|304:112|224:56,1,170,0|8
160,72,254005,2,0,B|40:72,1,85
104,152,254352,2,0,B|200:152,1,85,0|8
248,216,254699,1,0
232,296,254872,2,0,B|56:336,2,170,0|8|0
304,344,255739,2,0,B|336:296|312:240,1,85,0|8
320,176,256086,2,0,B|496:136,1,170
485,138,256606,5,8
440,256,256780,1,0
485,138,256953,1,0
408,40,257126,1,0
328,72,257300,5,8
304,88,257387,1,0
272,96,257473,1,8
240,96,257560,1,0
208,96,257647,2,0,B|120:112|48:216,1,170,4|8
152,216,258167,2,0,B|202:291|290:307,1,170
280,224,258687,2,0,B|352:168,1,85,8|0
347,171,259034,5,0
360,88,259207,1,0
347,171,259381,1,8
432,160,259554,1,0
432,160,259728,2,0,B|432:336,2,170,0|8|0
432,72,260595,1,0
312,112,260768,6,0,B|304:168|232:192,1,85,8|0
184,144,261115,2,0,B|88:192|64:288,1,170,0|8
152,288,261635,1,0
216,344,261808,2,0,B|328:344,1,85
301,344,262155,1,8
344,272,262329,2,0,B|440:224|464:128,1,170
400,88,262849,5,8
264,184,263022,1,0
152,56,263196,2,0,B|144:152|32:216,1,170,0|8
136,240,263716,2,0,B|160:328|280:352,1,170
257,346,264236,1,8
257,346,264410,1,0
352,264,264583,2,0,B|352:64,1,170,0|8
432,64,265103,6,0,B|464:104|464:152,1,85
272,64,265450,2,0,B|240:104|240:152,1,85,0|8
240,224,265797,1,0
184,288,265970,6,0,B|120:304|80:192|152:160,2,170,0|8|0
328,288,266837,2,0,B|392:304|432:192|360:160,1,170
256,192,267358,6,0,B|256:168,4,21.25,8|0|0|0|0
216,104,267704,2,0,B|264:72|312:120,1,85,8|0
312,256,268051,1,0
288,280,268138,1,0
256,288,268224,1,0
224,280,268311,1,0
200,256,268398,1,8
256,192,268745,5,12
160,112,279496,5,8
160,112,279583,1,8
160,112,279670,1,8
160,112,279756,1,0
160,112,279843,2,0,B|160:288,1,170,12|8
232,328,280363,2,0,B|336:312|376:224,1,170
296,192,280884,1,8
360,136,281057,1,0
344,56,281230,6,0,B|288:64|272:136,1,85
376,216,281577,2,0,B|432:208|448:136,1,85,8|0
432,80,281924,5,0
296,192,282097,1,0
128,168,282271,2,0,B|48:224|32:304,2,170,8|0|8
128,168,283138,1,0
200,208,283311,2,0,B|280:152|296:72,2,170,0|8|0
160,288,284178,6,0,B|256:368,1,85,0|8
312,344,284525,2,0,B|288:256,1,85
360,216,284872,1,0
424,272,285045,2,0,B|472:200|480:88,1,170,8|0
392,96,285566,6,0,B|352:128|272:112,1,85,0|8
328,32,285913,1,0
248,48,286086,2,0,B|136:56|64:136,1,170,0|8
92,108,286606,1,0
152,168,286780,2,0,B|152:272|224:336,1,170,0|8
288,288,287300,5,0
400,160,287473,2,0,B|288:104,1,85
288,288,287820,2,0,B|376:336,1,85,8|0
256,192,288167,5,0
336,224,288340,1,0
256,192,288514,1,8
192,240,288687,2,0,B|120:232|104:144|176:96,1,170
192,240,289207,5,8
158,110,289381,1,0
224,56,289554,5,8
224,56,289641,1,0
224,56,289728,1,0
288,112,289901,2,0,B|344:120|368:192,1,85,8|0
440,160,290248,1,0
440,184,290334,1,0
440,208,290421,1,0
360,240,290595,5,0
352,272,290681,1,2
328,296,290768,1,2
296,304,290855,1,2
264,304,290941,2,0,B|168:304,1,85,4|0
104,208,291288,2,0,B|224:208,1,85,2|0
272,112,291635,2,0,B|160:112,1,85,2|0
187,112,291982,5,8
312,224,292155,1,0
376,64,292329,2,0,B|432:64|464:120,1,85,2|0
472,224,292676,2,0,B|416:224|384:168,1,85,2|0
312,288,293022,2,0,B|368:288|400:344,1,85,2|0
385,323,293369,5,8
216,336,293543,1,0
120,192,293716,2,0,B|48:272,1,85,2|0
168,120,294063,2,0,B|88:48,1,85,2|0
216,192,294410,2,0,B|288:112,1,85,2|0
168,264,294756,5,8
168,120,294930,1,0
256,264,295103,2,0,B|264:320|336:336,1,85,2|0
432,304,295450,2,0,B|352:232,1,85,2|0
496,216,295797,2,0,B|488:160|416:144,1,85,2|0
360,160,296144,5,0
328,160,296230,1,2
296,152,296317,1,2
272,136,296404,1,2
256,112,296491,2,0,B|176:32,1,85,6|0
200,176,296837,2,0,B|96:160,1,85,2|0
192,264,297184,2,0,B|88:304,1,85,2|0
48,232,297531,5,8
160,352,297704,1,0
304,264,297878,2,0,B|352:232|336:160,1,85,2|0
472,80,298225,2,0,B|424:112|440:184,1,85,2|0
456,320,298571,2,0,B|459:262|392:231,1,85,2|0
328,104,298918,5,8
419,247,299092,1,0
328,104,299265,2,0,B|264:192,1,85,2|0
184,280,299612,2,0,B|248:192,1,85,2|0
184,104,299959,2,0,B|248:192,1,85,2|0
328,280,300306,2,0,B|264:192,1,85,8|0
152,192,300652,6,0,B|64:192,1,85,2|0
360,192,300999,2,0,B|448:192,1,85,2|0
256,296,301346,1,2
256,88,301519,1,0
240,208,301693,5,0
232,184,301780,1,2
256,168,301866,1,2
272,184,301953,1,2
264,208,302040,1,2
