osu file format v14

[General]
AudioFilename: Don't let you down.mp3
AudioLeadIn: 0
PreviewTime: 156943
Countdown: 0
SampleSet: None
StackLeniency: 0.7
Mode: 2
LetterboxInBreaks: 0
EpilepsyWarning: 1
WidescreenStoryboard: 1

[Editor]
Bookmarks: 29721,72388,100832,115054,157721,202165,216388,230610,259054,273276,287499
DistanceSpacing: 1.4
BeatDivisor: 4
GridSize: 4
TimelineZoom: 2.9

[Metadata]
Title:Don't let you down
TitleUnicode:Don't let you down
Artist:Halozy
ArtistUnicode:Halozy
Creator:- Magic Girl -
Version:Apologies
Source:東方Project
Tags:Touhou Toho Project Arrange Album Eastern Divine Spirit Mausoleum Shinreibyou 東方神霊廟 ~ Ten Desires デザイアドライブ sumijun 長尾ちえみ Viva Evolution dont Seiga Kaku Desire Drive Dubstep Eurobeat R&B Rock Pop Ballade Vocal Chiemi Nagaya Nagao Yoshika Miyako JBHyperion C87 ComicMarket87 Comiket87 すみじゅん HLZY-0021
BeatmapID:771621
BeatmapSetID:349949

[Difficulty]
HPDrainRate:6
CircleSize:4
OverallDifficulty:9.2
ApproachRate:9.2
SliderMultiplier:2.1
SliderTickRate:2

[Events]
//Background and Video events
0,0,"Don't let me down.jpg",0,0
//Break Periods
//Storyboard Layer 0 (Background)
//Storyboard Layer 1 (Fail)
//Storyboard Layer 2 (Pass)
//Storyboard Layer 3 (Foreground)
//Storyboard Sound Samples

[TimingPoints]
1277,444.444444444444,4,2,1,50,1,0
15499,-100,4,3,1,65,0,0
22610,-100,4,3,1,55,0,0
23499,-83.3333333333333,4,3,1,55,0,0
24165,-100,4,3,1,55,0,0
29276,-100,4,3,1,75,0,0
29721,-100,4,2,1,55,0,0
30610,-66.6666666666667,4,2,1,55,0,0
30943,-100,4,2,1,55,0,0
43943,-100,4,3,1,55,0,0
47499,-100,4,3,1,60,0,0
51054,-100,4,3,1,65,0,0
52832,-100,4,3,1,70,0,0
54610,-100,4,3,1,75,0,0
56388,-100,4,3,1,80,0,0
57721,-50,4,3,1,80,0,0
58165,-100,4,2,1,45,0,0
59054,-80,4,2,1,45,0,0
59499,-100,4,2,1,45,0,0
61721,-66.6666666666667,4,2,1,45,0,0
65276,-100,4,3,1,70,0,0
67054,-100,4,3,1,75,0,0
68832,-100,4,3,1,80,0,0
70610,-66.6666666666667,4,2,1,40,0,0
71499,-100,4,3,1,40,0,0
71943,-66.6666666666667,4,3,1,80,0,0
72165,-100,4,3,1,80,0,0
72388,-83.3333333333333,4,3,1,90,0,1
75943,-71.4285714285714,4,3,1,90,0,1
77276,-83.3333333333333,4,3,1,90,0,1
78388,-76.9230769230769,4,3,1,90,0,1
78832,-83.3333333333333,4,3,1,90,0,1
84832,-71.4285714285714,4,2,1,80,0,0
85276,-76.9230769230769,4,2,1,80,0,0
86610,-83.3333333333333,4,3,1,90,0,1
100388,-71.4285714285714,4,3,1,90,0,1
100832,-100,4,3,1,80,0,0
113276,-100,4,2,1,40,0,0
114610,-66.6666666666667,4,3,1,75,0,0
115054,-83.3333333333333,4,2,1,50,0,0
121721,-83.3333333333333,4,3,1,60,0,0
122165,-90.9090909090909,4,2,1,60,0,0
127499,-71.4285714285714,4,2,1,60,0,0
128832,-100,4,2,1,80,0,0
129276,-83.3333333333333,4,2,1,60,0,0
136388,-83.3333333333333,4,2,1,65,0,0
138165,-83.3333333333333,4,2,1,70,0,0
139943,-83.3333333333333,4,2,1,75,0,0
141721,-100,4,2,1,80,0,0
142610,-66.6666666666667,4,2,1,50,0,0
143499,-100,4,2,1,60,0,0
150610,-90.9090909090909,4,3,1,70,0,0
152388,-90.9090909090909,4,3,1,75,0,0
154165,-100,4,3,1,80,0,0
155943,-66.6666666666667,4,2,1,40,0,0
156832,-66.6666666666667,4,3,1,40,0,0
157276,-50,4,3,1,80,0,0
157721,-83.3333333333333,4,3,1,80,0,1
161276,-66.6666666666667,4,3,1,90,0,1
162610,-83.3333333333333,4,3,1,90,0,1
164388,-66.6666666666667,4,3,1,90,0,1
164610,-83.3333333333333,4,3,1,90,0,1
164832,-66.6666666666667,4,3,1,90,0,1
165721,-83.3333333333333,4,3,1,90,0,1
168388,-66.6666666666667,4,3,1,90,0,1
169721,-83.3333333333333,4,3,1,90,0,1
170165,-66.6666666666667,4,2,1,80,0,0
171499,-50,4,2,1,80,0,0
171943,-83.3333333333333,4,3,1,90,0,1
177721,-66.6666666666667,4,3,1,90,0,1
179054,-83.3333333333333,4,3,1,90,0,1
185721,-50,4,3,1,90,0,1
186165,-50,4,2,1,40,0,0
187054,-100,4,2,1,40,0,0
187943,-66.6666666666667,4,2,1,40,0,0
189721,-66.6666666666667,4,2,1,30,0,0
190610,-66.6666666666667,4,2,1,50,0,0
193276,-66.6666666666667,4,2,1,30,0,0
194165,-66.6666666666667,4,2,1,40,0,0
196832,-100,4,3,1,60,0,0
198610,-100,4,3,1,70,0,0
199499,-66.6666666666667,4,3,1,70,0,0
200388,-125,4,2,1,30,0,0
201276,-100,4,3,1,40,0,0
201721,-50,4,3,1,70,0,0
202165,-100,4,2,1,40,0,0
202610,-100,4,2,1,30,0,0
205721,-100,4,2,1,45,0,0
212832,-100,4,2,1,38,0,0
214610,-100,4,2,1,30,0,0
215499,-100,4,2,1,20,0,0
216388,-100,4,2,1,55,0,0
219943,-83.3333333333333,4,2,1,55,0,0
220832,-83.3333333333333,4,2,77,55,0,0
221054,-100,4,2,1,55,0,0
221054,-100,4,2,1,55,0,0
222610,-100,4,2,77,55,0,0
222721,-100,4,2,1,55,0,0
223499,-100,4,3,1,60,0,0
225276,-100,4,3,1,65,0,0
227054,-100,4,3,1,70,0,0
227943,-100,4,3,1,80,0,0
228832,-66.6666666666667,4,2,1,60,0,0
230165,-66.6666666666667,4,3,1,80,0,0
230610,-76.9230769230769,4,3,1,90,0,1
234165,-71.4285714285714,4,3,1,90,0,1
235499,-76.9230769230769,4,3,1,90,0,1
241276,-71.4285714285714,4,3,1,90,0,1
242610,-76.9230769230769,4,3,1,90,0,1
243054,-71.4285714285714,4,2,1,80,0,0
244832,-76.9230769230769,4,3,1,90,0,1
258610,-55.5555555555556,4,3,1,90,0,1
259054,-100,4,3,1,80,0,0
269721,-100,4,3,1,70,0,0
270610,-100,4,3,1,75,0,0
271054,-100,4,3,1,80,0,0
271499,-100,4,3,1,85,0,0
273276,-100,4,2,1,40,0,0
274832,-83.3333333333333,4,2,1,40,0,0
275276,-100,4,2,1,40,0,0
287499,-100,4,2,1,60,0,0
287610,-100,4,2,1,40,0,0
289054,-80,4,2,1,40,0,0
289388,-100,4,2,1,40,0,0
298165,-83.3333333333333,4,2,1,40,0,0
299054,-90.9090909090909,4,2,1,30,0,0
299721,-100,4,2,1,20,0,0
301721,-100,4,2,1,85,0,0
302165,-100,4,2,1,75,0,0
302610,-100,4,2,1,65,0,0
303054,-100,4,2,1,55,0,0
303499,-100,4,2,1,45,0,0
303943,-100,4,2,1,35,0,0
304388,-100,4,2,1,25,0,0
304832,-100,4,2,1,15,0,0
305276,-100,4,2,1,5,0,0

[Colours]
Combo1 : 0,125,220
Combo2 : 0,0,160
Combo3 : 128,0,255
Combo4 : 255,60,160

[HitObjects]
136,248,1277,6,0,L|24:184,1,105,6|0,0:0|0:0,0:0:0:0:
260,248,1721,2,0,L|364:192,1,105
184,144,2165,1,2,0:0:0:0:
100,48,2388,1,0,0:0:0:0:
280,68,2610,2,0,L|352:152,1,105
132,64,3054,6,0,L|-4:64,1,105,2|0,0:0|0:0,0:0:0:0:
336,64,3499,2,0,L|472:64,1,105
160,144,3943,2,0,L|40:144,2,105,2|0|0,0:0|0:0|0:0,0:0:0:0:
296,144,4610,1,0,0:0:0:0:
121,144,4832,6,0,L|16:144,1,105,2|0,0:0|0:0,0:0:0:0:
236,224,5276,2,0,L|340:224,1,105
16,256,5721,2,0,P|39:301|89:312,1,105,2|0,0:0|0:0,0:0:0:0:
288,288,6165,2,0,P|245:318|194:320,1,105
426,288,6610,6,0,L|458:168,1,105,2|0,0:0|0:0,0:0:0:0:
288,288,7054,2,0,L|232:160,1,105
20,184,7499,2,0,L|124:184,1,105,2|0,0:0|0:0,0:0:0:0:
308,144,7943,2,0,L|403:188,1,105
72,304,8388,6,0,L|16:200,1,105,2|0,0:0|0:0,0:0:0:0:
248,300,8832,2,0,L|312:204,1,105
113,216,9276,2,0,L|48:315,1,105,2|0,0:0|0:0,0:0:0:0:
280,124,9721,1,0,0:0:0:0:
175,124,9943,1,0,0:0:0:0:
380,124,10165,6,0,L|492:124,2,105,2|0|0,0:0|0:0|0:0,0:0:0:0:
296,124,10832,1,0,0:0:0:0:
16,112,11054,2,0,L|119:131,1,105,2|0,0:0|0:0,0:0:0:0:
432,214,11499,2,0,L|336:256,1,105
112,296,11943,6,0,L|-8:272,2,105,2|0|0,0:0|0:0|0:0,0:0:0:0:
220,304,12610,1,0,0:0:0:0:
500,192,12832,2,0,L|372:192,1,105,2|0,0:0|0:0,0:0:0:0:
232,128,13276,2,0,L|360:128,1,105
125,208,13721,6,0,L|20:208,2,105,2|0|0,0:0|0:0|0:0,0:0:0:0:
300,296,14388,1,0,0:0:0:0:
96,304,14610,2,0,L|0:256,1,105,2|0,0:0|0:0,0:0:0:0:
188,308,15054,2,0,L|284:260,1,105,2|0,0:0|0:0,0:0:0:0:
496,296,15499,6,0,L|408:200,1,105,8|0,0:0|0:0,0:0:0:0:
144,224,15943,2,0,L|8:224,1,105,8|0,0:0|0:0,0:0:0:0:
368,112,16388,2,0,L|480:112,1,105,10|2,0:0|0:0,0:0:0:0:
252,136,16832,2,8,L|147:136,1,105,10|2,0:0|0:0,0:0:0:0:
312,136,17276,6,0,L|448:136,2,105,10|0|10,0:0|0:0|0:0,0:0:0:0:
176,136,17943,1,0,0:0:0:0:
489,248,18165,2,0,L|384:248,1,105,8|2,0:0|0:0,0:0:0:0:
228,188,18610,2,0,L|333:188,1,105,8|2,0:0|0:0,0:0:0:0:
136,192,19054,6,0,L|23:140,2,105,8|0|8,0:0|0:0|0:0,0:0:0:0:
296,184,19721,1,2,0:0:0:0:
16,48,19943,2,0,L|95:116,1,105,8|0,0:0|0:0,0:0:0:0:
384,104,20388,2,0,L|504:40,1,105,8|0,0:0|0:0,0:0:0:0:
160,280,20832,6,0,L|136:172,1,105,8|2,0:0|0:0,0:0:0:0:
304,284,21276,2,0,L|360:180,1,105,8|2,0:0|0:0,0:0:0:0:
113,177,21721,2,0,L|236:176,1,105,8|2,0:0|0:0,0:0:0:0:
384,176,22165,2,0,L|488:104,1,105,8|2,0:0|0:0,0:0:0:0:
80,48,22610,6,0,L|224:48,1,105,8|0,0:0|0:0,0:0:0:0:
404,48,23054,2,0,L|299:48,1,105,8|2,0:0|0:0,0:0:0:0:
136,40,23499,2,0,L|84:168,1,125.999996154785,8|0,0:0|0:0,0:0:0:0:
176,176,23832,1,2,0:0:0:0:
364,184,23943,2,0,P|376:228|316:276,1,125.999996154785,8|2,0:0|0:0,0:0:0:0:
144,268,24388,6,0,L|216:176,1,105,8|0,0:0|0:0,0:0:0:0:
420,232,24832,2,0,L|332:296,1,105,10|0,0:0|0:0,0:0:0:0:
40,200,25276,1,8,0:0:0:0:
188,156,25499,2,0,L|256:112,1,52.5,2|2,0:0|0:0,0:0:0:0:
140,104,25721,1,8,0:0:0:0:
468,100,25943,1,8,0:0:0:0:
168,304,26165,5,8,0:0:0:0:
120,296,26220,1,0,0:0:0:0:
88,244,26276,1,2,0:0:0:0:
104,144,26387,1,2,0:0:0:0:
188,88,26499,1,2,0:0:0:0:
420,124,26610,5,8,0:0:0:0:
480,132,26665,1,0,0:0:0:0:
496,188,26721,1,2,0:0:0:0:
472,280,26832,1,2,0:0:0:0:
376,312,26944,1,2,0:0:0:0:
84,308,27054,5,8,0:0:0:0:
28,292,27109,1,0,0:0:0:0:
16,236,27165,1,2,0:0:0:0:
64,160,27276,1,2,0:0:0:0:
152,132,27388,1,2,0:0:0:0:
256,128,27499,5,8,0:0:0:0:
324,200,27610,1,2,0:0:0:0:
256,272,27721,1,2,0:0:0:0:
188,200,27832,1,2,0:0:0:0:
376,304,27943,5,2,0:0:0:0:
420,289,27998,1,0,0:0:0:0:
457,260,28054,1,2,0:0:0:0:
482,220,28109,1,0,0:0:0:0:
491,174,28165,1,2,0:0:0:0:
483,128,28220,1,0,0:0:0:0:
459,87,28276,1,2,0:0:0:0:
423,57,28331,1,0,0:0:0:0:
212,308,28388,5,2,0:0:0:0:
167,293,28443,1,0,0:0:0:0:
128,264,28499,1,2,0:0:0:0:
105,224,28554,1,0,0:0:0:0:
96,178,28610,1,2,0:0:0:0:
104,132,28665,1,0,0:0:0:0:
128,91,28721,1,2,0:0:0:0:
164,61,28776,1,0,0:0:0:0:
348,304,28832,5,2,0:0:0:0:
392,289,28887,1,0,0:0:0:0:
429,260,28943,1,2,0:0:0:0:
454,220,28998,1,0,0:0:0:0:
463,174,29054,1,2,0:0:0:0:
455,128,29109,1,0,0:0:0:0:
431,87,29165,1,2,0:0:0:0:
395,57,29220,1,0,0:0:0:0:
176,32,29276,6,0,P|104:80|184:112,1,210,4|2,0:0|0:0,0:0:0:0:
356,32,29943,6,0,L|260:80,1,105,0|2,0:0|0:0,0:0:0:0:
420,72,30388,1,0,0:0:0:0:
64,96,30610,2,0,P|12:184|112:192,1,236.250009012223,2|0,0:0|0:0,0:0:0:0:
188,192,31054,1,2,0:0:0:0:
364,192,31276,1,0,0:0:0:0:
48,192,31499,6,0,L|151:252,1,105,2|0,0:0|0:0,0:0:0:0:
208,248,31832,1,0,0:0:0:0:
112,312,31943,2,0,L|8:372,1,105,2|0,0:0|0:0,0:0:0:0:
304,368,32388,2,0,P|373:344|367:271,1,157.5,2|0,0:0|0:0,0:0:0:0:
288,272,32832,1,2,0:0:0:0:
464,272,33054,1,0,0:0:0:0:
160,272,33277,6,0,L|56:212,1,105,2|0,0:0|0:0,0:0:0:0:
144,216,33610,1,0,0:0:0:0:
256,216,33721,2,0,L|359:156,1,105,2|0,0:0|0:0,0:0:0:0:
56,168,34165,1,2,0:0:0:0:
240,168,34388,1,0,0:0:0:0:
196,168,34499,1,0,0:0:0:0:
376,168,34610,2,0,L|472:112,1,105,2|0,0:0|0:0,0:0:0:0:
152,120,35054,6,0,P|76:100|36:32,1,157.5,2|0,0:0|0:0,0:0:0:0:
172,24,35499,2,0,L|268:84,1,105,2|0,0:0|0:0,0:0:0:0:
72,96,35943,2,0,P|116:164|192:192,1,157.5,2|0,0:0|0:0,0:0:0:0:
360,192,36388,1,8,0:0:0:0:
80,192,36610,1,8,0:0:0:0:
400,192,36832,6,0,P|472:216|504:288,1,157.5,2|0,0:0|0:0,0:0:0:0:
328,288,37276,2,0,P|272:280|215:246,1,105,8|0,0:0|0:0,0:0:0:0:
440,256,37721,1,2,0:0:0:0:
304,256,37943,1,0,0:0:0:0:
229,257,38054,1,0,0:0:0:0:
404,256,38165,1,8,0:0:0:0:
104,256,38388,6,0,L|13:204,1,105,0|2,0:0|0:0,0:0:0:0:
160,200,38832,1,0,0:0:0:0:
216,200,38943,1,0,0:0:0:0:
392,200,39054,2,0,L|444:108,1,105,8|0,0:0|0:0,0:0:0:0:
232,120,39499,1,2,0:0:0:0:
336,120,39721,2,0,L|272:120,1,52.5,0|2,0:0|0:0,0:0:0:0:
96,120,39943,2,0,B|56:96|56:96|112:72,1,105,8|0,0:0|0:0,0:0:0:0:
320,72,40388,6,0,L|392:72,1,52.5,2|0,0:0|0:0,0:0:0:0:
184,72,40721,1,2,0:0:0:0:
352,72,40832,2,0,L|456:112,1,105,8|0,0:0|0:0,0:0:0:0:
240,128,41276,2,0,L|168:128,2,52.5,2|0|2,0:0|0:0|0:0,0:0:0:0:
304,128,41609,1,2,0:0:0:0:
128,128,41720,2,0,B|96:160|96:160|152:184,1,105,8|0,0:0|0:0,0:0:0:0:
360,176,42165,5,2,0:0:0:0:
152,176,42388,2,0,L|96:176,1,52.5,0|2,0:0|0:0,0:0:0:0:
272,176,42610,2,0,L|368:232,1,105,8|0,0:0|0:0,0:0:0:0:
152,232,43054,2,0,P|60:280|112:328,1,210,2|0,0:0|0:0,0:0:0:0:
320,328,43721,1,0,0:0:0:0:
344,296,43776,1,2,0:0:0:0:
314,256,43832,1,0,0:0:0:0:
272,224,43888,1,2,0:0:0:0:
228,224,43943,6,0,L|124:224,1,105,2|0,0:0|0:0,0:0:0:0:
480,224,44388,1,8,0:0:0:0:
292,224,44610,1,0,0:0:0:0:
104,224,44832,2,0,P|112:176|164:152,1,105,2|0,0:0|0:0,0:0:0:0:
224,152,45165,1,2,0:0:0:0:
392,152,45276,2,0,L|496:152,1,105,8|0,0:0|0:0,0:0:0:0:
184,152,45721,6,0,L|81:92,1,105,2|0,0:0|0:0,0:0:0:0:
148,100,46054,1,0,0:0:0:0:
316,44,46165,1,8,0:0:0:0:
156,44,46388,1,0,0:0:0:0:
348,100,46610,2,0,P|400:144|348:192,1,157.5,2|2,0:0|0:0,0:0:0:0:
164,184,47054,1,10,0:0:0:0:
448,188,47276,1,8,0:0:0:0:
164,184,47499,6,0,L|60:244,1,105,2|0,0:0|0:0,0:0:0:0:
120,240,47832,1,0,0:0:0:0:
296,240,47943,2,0,L|399:300,1,105,8|0,0:0|0:0,0:0:0:0:
188,288,48387,1,2,0:0:0:0:
368,288,48610,1,0,0:0:0:0:
424,288,48721,1,0,0:0:0:0:
248,288,48832,2,0,L|152:344,1,105,8|0,0:0|0:0,0:0:0:0:
472,344,49276,6,0,P|496:304|416:256,1,157.5,2|0,0:0|0:0,0:0:0:0:
236,256,49721,2,0,P|172:224|212:160,1,157.5,8|0,0:0|0:0,0:0:0:0:
388,160,50165,2,0,P|356:92|276:72,1,157.5,2|0,0:0|0:0,0:0:0:0:
180,72,50610,1,8,0:0:0:0:
476,72,50832,1,8,0:0:0:0:
160,80,51054,6,0,P|88:96|48:168,1,157.5,2|0,0:0|0:0,0:0:0:0:
232,168,51499,1,8,0:0:0:0:
84,168,51721,1,2,0:0:0:0:
256,168,51943,1,2,0:0:0:0:
424,168,52165,2,0,L|476:168,2,52.5,0|2|8,0:0|0:0|0:0,0:0:0:0:
88,168,52610,6,0,P|32:192|32:256,1,105,2|2,0:0|0:0,0:0:0:0:
208,240,53054,1,0,0:0:0:0:
292,240,53165,1,0,0:0:0:0:
380,240,53276,2,0,L|276:299,1,105,8|0,0:0|0:0,0:0:0:0:
96,296,53721,1,2,0:0:0:0:
272,296,53943,1,2,0:0:0:0:
336,296,54054,1,2,0:0:0:0:
160,296,54165,2,0,L|248:240,1,105,8|0,0:0|0:0,0:0:0:0:
444,248,54610,6,0,P|500:216|468:144,1,157.5,2|2,0:0|0:0,0:0:0:0:
408,144,55055,1,8,0:0:0:0:
96,144,55277,1,0,0:0:0:0:
252,144,55499,1,2,0:0:0:0:
60,144,55721,1,0,0:0:0:0:
376,144,55943,2,0,L|472:88,1,105,8|0,0:0|0:0,0:0:0:0:
128,92,56388,5,2,0:0:0:0:
296,92,56610,1,2,0:0:0:0:
364,92,56721,1,2,0:0:0:0:
296,92,56832,1,8,0:0:0:0:
466,91,57054,1,0,0:0:0:0:
176,88,57276,2,0,L|72:148,1,105,2|0,0:0|0:0,0:0:0:0:
424,144,57721,2,0,P|499:193|424:232,1,210,8|0,0:0|0:0,0:0:0:0:
112,232,58165,5,2,0:0:0:0:
396,232,58610,1,0,0:0:0:0:
132,232,59054,2,0,P|80:144|192:64,1,262.5,2|0,0:0|0:0,0:0:0:0:
488,88,59943,6,0,L|248:88,1,210,2|0,0:0|0:0,0:0:0:0:
4,160,60832,2,0,L|244:160,1,210,2|0,0:0|0:0,0:0:0:0:
488,88,61721,6,0,B|544:264|384:384|168:384|104:176|104:176|360:296|448:112|216:32,1,1102.50004205704,2|0,0:0|0:0,0:0:0:0:
72,32,63499,6,0,B|0:128|8:192|134:310|215:339|273:335|320:336|401:313|408:212|408:212|180:264|164:96|164:96|332:120,1,1102.50004205704,2|2,0:0|0:0,0:0:0:0:
360,136,65110,1,2,0:0:0:0:
344,184,65165,1,2,0:0:0:0:
304,200,65221,1,2,0:0:0:0:
216,200,65276,5,8,0:0:0:0:
408,200,65721,1,8,0:0:0:0:
144,200,66165,1,8,0:0:0:0:
384,200,66499,1,2,0:0:0:0:
200,200,66610,2,0,L|96:200,1,105,8|0,0:0|0:0,0:0:0:0:
408,200,67054,6,0,L|512:256,1,105,8|0,0:0|0:0,0:0:0:0:
304,200,67499,2,0,L|213:252,1,105,8|0,0:0|0:0,0:0:0:0:
432,248,67943,1,8,0:0:0:0:
224,248,68165,1,2,0:0:0:0:
168,248,68276,1,2,0:0:0:0:
352,248,68388,2,0,L|480:248,1,105,8|0,0:0|0:0,0:0:0:0:
248,356,68832,5,2,0:0:0:0:
185,355,68888,1,0,0:0:0:0:
149,311,68943,1,2,0:0:0:0:
171,266,68999,1,0,0:0:0:0:
216,248,69054,1,2,0:0:0:0:
320,248,69165,1,2,0:0:0:0:
136,248,69276,5,2,0:0:0:0:
80,240,69332,1,0,0:0:0:0:
40,192,69387,1,2,0:0:0:0:
64,144,69443,1,0,0:0:0:0:
120,128,69498,1,2,0:0:0:0:
224,128,69609,1,2,0:0:0:0:
408,128,69721,5,2,0:0:0:0:
444,146,69776,1,0,0:0:0:0:
468,179,69832,1,2,0:0:0:0:
457,216,69887,1,0,0:0:0:0:
423,239,69943,1,2,0:0:0:0:
384,252,69998,1,0,0:0:0:0:
343,259,70054,1,2,0:0:0:0:
302,263,70109,1,0,0:0:0:0:
168,200,70165,5,2,0:0:0:0:
132,219,70220,1,2,0:0:0:0:
108,251,70276,1,2,0:0:0:0:
119,289,70331,1,2,0:0:0:0:
153,312,70387,1,2,0:0:0:0:
192,325,70442,1,2,0:0:0:0:
233,332,70498,1,2,0:0:0:0:
274,336,70553,1,2,0:0:0:0:
388,256,70610,6,0,P|252:30|108:252,1,630.000024032594,4|0,0:0|0:0,0:0:0:0:
320,256,71721,2,0,L|384:256,1,52.5,0|2,0:0|0:0,0:0:0:0:
146,257,71943,2,0,P|76:204|88:144,1,157.500006008148,8|0,0:0|0:0,0:0:0:0:
460,132,72388,6,0,P|492:72|436:28,1,125.999996154785,4|0,0:0|0:0,0:0:0:0:
252,88,72832,1,8,0:0:0:0:
92,84,73054,1,2,0:0:0:0:
452,16,73277,2,0,P|498:53|485:111,1,125.999996154785,2|2,0:0|0:0,0:0:0:0:
332,112,73721,1,8,0:0:0:0:
512,192,73943,1,0,0:0:0:0:
100,72,74165,6,0,L|212:144,1,125.999996154785,2|0,0:0|0:0,0:0:0:0:
364,184,74610,1,8,0:0:0:0:
124,232,74832,2,0,L|24:308,1,125.999996154785,0|2,0:0|0:0,0:0:0:0:
248,220,75276,1,2,0:0:0:0:
312,200,75388,1,0,0:0:0:0:
212,232,75499,1,8,0:0:0:0:
496,128,75721,1,0,0:0:0:0:
84,220,75943,6,0,P|19:158|156:60,1,293.999991027832,8|0,0:0|0:0,0:0:0:0:
456,216,76610,2,0,P|496:112|356:48,1,293.999991027832,8|0,0:0|0:0,0:0:0:0:
32,96,77276,2,0,P|40:152|112:176,1,125.999996154785,8|0,0:0|0:0,0:0:0:0:
312,96,77721,5,2,0:0:0:0:
104,96,77943,1,2,0:0:0:0:
50,121,78054,1,2,0:0:0:0:
57,180,78165,1,8,0:0:0:0:
384,200,78388,2,0,P|450:155|316:72,1,272.999987503052
256,48,78943,1,2,0:0:0:0:
24,48,79054,2,0,L|157:47,1,125.999996154785,8|0,0:0|0:0,0:0:0:0:
388,40,79499,6,0,P|452:104|412:168,1,125.999996154785,2|0,0:0|0:0,0:0:0:0:
388,168,79832,1,0,0:0:0:0:
204,168,79943,2,0,P|156:248|204:280,1,125.999996154785,8|0,0:0|0:0,0:0:0:0:
388,272,80388,2,0,P|464:252|500:192,1,125.999996154785,2|2,0:0|0:0,0:0:0:0:
200,280,80832,2,0,P|128:260|96:192,1,125.999996154785,8|0,0:0|0:0,0:0:0:0:
304,208,81276,6,0,P|360:160|352:72,1,125.999996154785,2|0,0:0|0:0,0:0:0:0:
64,136,81721,1,8,0:0:0:0:
228,136,81943,2,0,L|88:136,1,125.999996154785,2|2,0:0|0:0,0:0:0:0:
480,64,82388,1,2,0:0:0:0:
440,104,82499,1,2,0:0:0:0:
352,152,82610,2,0,L|452:248,1,125.999996154785,8|0,0:0|0:0,0:0:0:0:
111,151,83054,6,0,P|24:224|94:314,1,251.999992309571,8|0,0:0|0:0,0:0:0:0:
409,314,83721,2,0,P|480:216|376:152,1,251.999992309571,8|0,0:0|0:0,0:0:0:0:
96,152,84388,2,0,L|4:28,1,125.999996154785,8|0,0:0|0:0,0:0:0:0:
220,216,84832,6,0,P|290:118|226:46,1,220.499993270874,2|0,0:0|0:0,0:0:0:0:
432,160,85276,2,0,P|503:62|407:-2,1,204.749990627289,8|0,0:0|0:0,0:0:0:0:
344,60,85721,2,0,P|272:136|296:244,1,204.749990627289,2|0,0:0|0:0,0:0:0:0:
464,328,86165,2,0,P|496:252|380:200,1,204.749990627289,8|0,0:0|0:0,0:0:0:0:
232,192,86610,6,0,P|160:176|176:48,1,188.999994232178,12|0,0:0|0:0,0:0:0:0:
392,72,87054,1,8,0:0:0:0:
200,72,87276,1,0,0:0:0:0:
368,168,87499,2,0,P|440:192|408:248,1,125.999996154785,2|2,0:0|0:0,0:0:0:0:
400,272,87832,1,2,0:0:0:0:
152,224,87943,2,0,P|88:160|112:144,1,125.999996154785,8|2,0:0|0:0,0:0:0:0:
384,152,88388,6,0,P|464:120|488:80,1,125.999996154785,2|0,0:0|0:0,0:0:0:0:
356,80,88721,1,2,0:0:0:0:
256,80,88832,1,8,0:0:0:0:
88,80,89054,1,2,0:0:0:0:
304,128,89276,2,0,P|360:176|320:224,1,125.999996154785,2|0,0:0|0:0,0:0:0:0:
280,240,89610,2,0,L|216:272,1,62.9999980773926,2|8,0:0|0:0,0:0:0:0:
440,256,89943,1,2,0:0:0:0:
128,152,90165,6,0,L|-24:152,1,125.999996154785,2|0,0:0|0:0,0:0:0:0:
304,64,90610,2,0,L|448:64,1,125.999996154785,8|0,0:0|0:0,0:0:0:0:
144,48,91054,1,2,0:0:0:0:
86,65,91165,1,2,0:0:0:0:
68,123,91276,1,2,0:0:0:0:
288,128,91499,1,8,0:0:0:0:
168,128,91721,1,2,0:0:0:0:
384,296,91943,6,0,P|440:256|416:192,1,125.999996154785,2|0,0:0|0:0,0:0:0:0:
384,176,92276,1,0,0:0:0:0:
200,168,92388,2,0,P|144:128|168:64,1,125.999996154785,8|0,0:0|0:0,0:0:0:0:
380,48,92832,2,0,L|272:160,1,125.999996154785,2|2,0:0|0:0,0:0:0:0:
388,152,93165,1,2,0:0:0:0:
442,184,93276,1,10,0:0:0:0:
64,48,93499,1,2,0:0:0:0:
24,64,93554,1,2,0:0:0:0:
3,103,93610,1,2,0:0:0:0:
12,145,93665,1,2,0:0:0:0:
45,173,93721,5,2,0:0:0:0:
344,88,93943,2,0,P|400:56|408:32,1,62.9999980773926,0|2,0:0|0:0,0:0:0:0:
420,12,94165,1,8,0:0:0:0:
228,12,94388,1,0,0:0:0:0:
368,232,94610,2,0,P|440:216|480:144,1,125.999996154785,2|0,0:0|0:0,0:0:0:0:
488,128,94943,1,2,0:0:0:0:
288,160,95054,2,0,P|270:103|317:67,1,125.999996154785,8|2,0:0|0:0,0:0:0:0:
480,72,95498,5,0,0:0:0:0:
352,176,95721,1,2,0:0:0:0:
410,167,95832,1,2,0:0:0:0:
328,180,95943,2,0,L|200:200,1,125.999996154785,8|2,0:0|0:0,0:0:0:0:
448,168,96388,6,0,P|432:240|384:240,1,125.999996154785,2|0,0:0|0:0,0:0:0:0:
328,240,96721,1,2,0:0:0:0:
264,240,96832,1,8,0:0:0:0:
64,240,97054,1,0,0:0:0:0:
371,273,97276,5,8,0:0:0:0:
417,254,97331,1,0,0:0:0:0:
448,214,97387,1,2,0:0:0:0:
416,132,97498,1,2,0:0:0:0:
343,72,97609,1,2,0:0:0:0:
136,240,97721,5,8,0:0:0:0:
99,202,97776,1,0,0:0:0:0:
87,153,97832,1,2,0:0:0:0:
148,91,97943,1,2,0:0:0:0:
252,84,98054,1,2,0:0:0:0:
84,384,98165,5,8,0:0:0:0:
42,356,98220,1,0,0:0:0:0:
18,311,98276,1,2,0:0:0:0:
63,237,98387,1,2,0:0:0:0:
160,236,98498,1,2,0:0:0:0:
472,216,98610,5,8,0:0:0:0:
468,277,98721,1,2,0:0:0:0:
424,320,98832,1,2,0:0:0:0:
362,322,98943,1,2,0:0:0:0:
112,336,99054,5,2,0:0:0:0:
63,300,99109,1,0,0:0:0:0:
33,249,99165,1,2,0:0:0:0:
27,190,99220,1,0,0:0:0:0:
46,134,99276,1,2,0:0:0:0:
86,89,99331,1,0,0:0:0:0:
141,66,99387,1,2,0:0:0:0:
200,67,99442,1,0,0:0:0:0:
392,72,99499,5,2,0:0:0:0:
444,102,99554,1,0,0:0:0:0:
479,150,99610,1,2,0:0:0:0:
491,208,99665,1,0,0:0:0:0:
478,266,99721,1,2,0:0:0:0:
443,314,99776,1,0,0:0:0:0:
391,343,99832,1,2,0:0:0:0:
332,348,99887,1,0,0:0:0:0:
144,328,99943,5,2,0:0:0:0:
92,298,99998,1,0,0:0:0:0:
57,250,100054,1,2,0:0:0:0:
45,192,100109,1,0,0:0:0:0:
58,134,100165,1,2,0:0:0:0:
93,86,100220,1,0,0:0:0:0:
145,57,100276,1,2,0:0:0:0:
204,52,100331,1,0,0:0:0:0:
400,176,100388,6,0,P|464:224|328:288,1,293.999991027832,4|8,0:0|0:0,0:0:0:0:
191,304,101054,6,0,L|132:304,1,52.5
60,304,101276,2,0,P|36:256|60:216,1,105,8|0,0:0|0:0,0:0:0:0:
352,304,101721,1,2,0:0:0:0:
195,304,101943,1,2,0:0:0:0:
132,304,102054,1,2,0:0:0:0:
220,304,102165,2,0,B|264:280|264:280|264:220,1,105,8|0,0:0|0:0,0:0:0:0:
42,192,102610,5,2,0:0:0:0:
210,192,102832,1,2,0:0:0:0:
274,192,102943,1,2,0:0:0:0:
444,192,103054,2,0,L|496:192,2,52.5,8|0|0,0:0|0:0|0:0,0:0:0:0:
126,192,103499,2,0,P|82:176|86:120,1,105,2|0,0:0|0:0,0:0:0:0:
414,192,103943,2,0,P|458:176|454:120,1,105,8|0,0:0|0:0,0:0:0:0:
168,68,104388,5,2,0:0:0:0:
32,68,104610,1,2,0:0:0:0:
100,68,104721,1,2,0:0:0:0:
168,68,104832,2,0,P|220:88|216:140,1,105,8|0,0:0|0:0,0:0:0:0:
20,132,105276,2,0,L|96:216,1,105,2|2,0:0|0:0,0:0:0:0:
148,208,105610,1,2,0:0:0:0:
384,136,105721,2,0,L|308:216,1,105,8|0,0:0|0:0,0:0:0:0:
101,208,106165,6,0,L|8:264,1,105,2|0,0:0|0:0,0:0:0:0:
185,208,106610,1,8,0:0:0:0:
393,212,106832,2,0,L|497:212,2,105,0|2|2,0:0|0:0|0:0,0:0:0:0:
329,212,107388,1,2,0:0:0:0:
93,208,107499,2,0,P|41:232|37:292,1,105,8|0,0:0|0:0,0:0:0:0:
452,312,107943,5,2,0:0:0:0:
304,316,108165,2,0,L|240:316,1,52.5
346,316,108387,2,0,L|437:264,1,105,8|0,0:0|0:0,0:0:0:0:
228,316,108832,2,0,L|137:264,1,105,2|2,0:0|0:0,0:0:0:0:
84,264,109165,1,2,0:0:0:0:
172,264,109276,2,0,P|236:240|244:200,1,105,8|0,0:0|0:0,0:0:0:0:
456,192,109721,5,2,0:0:0:0:
288,192,109943,1,2,0:0:0:0:
224,192,110054,1,2,0:0:0:0:
52,192,110165,2,0,L|8:164,2,52.5,8|0|0,0:0|0:0|0:0,0:0:0:0:
360,192,110610,2,0,P|404:176|400:120,1,105,2|0,0:0|0:0,0:0:0:0:
84,192,111054,2,0,P|48:160|68:108,1,105,8|0,0:0|0:0,0:0:0:0:
296,64,111499,5,2,0:0:0:0:
420,64,111721,1,2,0:0:0:0:
368,64,111832,1,2,0:0:0:0:
200,64,111943,2,0,P|168:104|200:144,1,105,8|0,0:0|0:0,0:0:0:0:
408,148,112387,2,0,L|324:228,1,105,2|2,0:0|0:0,0:0:0:0:
280,224,112721,1,2,0:0:0:0:
88,128,112832,2,0,L|160:208,1,105,8|0,0:0|0:0,0:0:0:0:
368,204,113276,5,2,0:0:0:0:
44,204,113721,1,0,0:0:0:0:
420,204,114165,1,2,0:0:0:0:
486,195,114276,1,0,0:0:0:0:
511,133,114387,1,2,0:0:0:0:
470,80,114498,1,2,0:0:0:0:
124,80,114610,2,0,P|67:112|124:144,1,157.500006008148,8|0,0:0|0:0,0:0:0:0:
424,248,115054,6,0,P|454:180|416:124,1,125.999996154785,2|0,0:0|0:0,0:0:0:0:
192,192,115499,2,0,P|147:128|188:72,1,125.999996154785
348,132,115943,2,0,P|438:136|495:65,1,188.999994232178,2|0,0:0|0:0,0:0:0:0:
444,28,116388,1,2,0:0:0:0:
104,176,116610,6,0,P|24:136|136:120,1,251.999992309571,2|0,0:0|0:0,0:0:0:0:
312,104,117276,1,2,0:0:0:0:
176,104,117499,1,0,0:0:0:0:
384,260,117721,2,0,P|464:228|448:132,1,188.999994232178,2|0,0:0|0:0,0:0:0:0:
264,144,118165,2,8,L|120:144,1,125.999996154785
336,120,118610,6,0,L|462:120,1,125.999996154785
248,120,119054,1,10,0:0:0:0:
104,120,119276,1,0,0:0:0:0:
336,204,119499,2,0,P|424:176|448:84,1,188.999994232178,2|0,0:0|0:0,0:0:0:0:
360,72,119943,1,10,0:0:0:0:
212,60,120165,1,2,0:0:0:0:
48,60,120388,6,0,P|36:132|140:212,1,188.999994232178,2|0,0:0|0:0,0:0:0:0:
256,248,120832,2,0,P|320:200|256:124,1,188.999994232178,10|0,0:0|0:0,0:0:0:0:
148,168,121276,2,0,P|64:80|104:28,1,188.999994232178,2|0,0:0|0:0,0:0:0:0:
316,212,121721,2,0,P|364:140|288:68,1,188.999994232178,10|0,0:0|0:0,0:0:0:0:
72,160,122165,5,4,0:0:0:0:
308,160,122499,2,0,L|372:160,1,57.7500017623902,2|8,0:0|0:0,0:0:0:0:
160,104,122832,2,0,L|276:56,1,115.50000352478
104,184,123276,1,2,0:0:0:0:
36,184,123387,1,2,0:0:0:0:
252,184,123499,2,0,L|388:184,1,115.50000352478,8|0,0:0|0:0,0:0:0:0:
184,48,123943,6,0,P|112:96|112:200,1,173.250005287171,2|2,0:0|0:0,0:0:0:0:
228,176,124388,1,8,0:0:0:0:
88,184,124610,2,0,P|76:232|132:276,1,115.50000352478,0|2,0:0|0:0,0:0:0:0:
288,236,125054,5,2,0:0:0:0:
360,236,125165,1,2,0:0:0:0:
220,180,125276,1,8,0:0:0:0:
404,180,125499,1,0,0:0:0:0:
280,172,125721,6,0,P|264:108|360:84,1,173.250005287171,2|2,0:0|0:0,0:0:0:0:
408,104,126165,1,8,0:0:0:0:
224,104,126388,1,0,0:0:0:0:
424,92,126610,2,0,P|444:172|352:200,1,173.250005287171,2|2,0:0|0:0,0:0:0:0:
136,212,127054,1,8,0:0:0:0:
20,212,127276,1,2,0:0:0:0:
368,324,127499,6,0,P|508:180|260:68,1,514.499984298707,6|0,0:0|0:0,0:0:0:0:
128,344,128388,2,0,L|112:316,1,24.4999992523194,2|0,0:0|0:0,0:0:0:0:
8,220,128537,2,0,L|16:192,1,24.4999992523194,2|0,0:0|0:0,0:0:0:0:
144,96,128685,2,0,L|164:72,1,24.4999992523194,2|0,0:0|0:0,0:0:0:0:
324,196,128832,6,0,L|340:180,9,17.5
128,304,129276,6,0,P|64:256|88:216,1,125.999996154785,2|0,0:0|0:0,0:0:0:0:
256,224,129721,1,8,0:0:0:0:
440,220,129943,1,0,0:0:0:0:
224,176,130165,2,0,P|177:140|233:85,1,125.999996154785,2|2,0:0|0:0,0:0:0:0:
400,64,130499,2,0,L|464:40,1,62.9999980773926,2|8,0:0|0:0,0:0:0:0:
168,56,130832,6,0,P|88:80|144:216,1,251.999992309571,2|0,0:0|0:0,0:0:0:0:
280,216,131499,1,8,0:0:0:0:
64,220,131721,1,0,0:0:0:0:
252,128,131943,2,0,P|340:136|388:240,1,188.999994232178,2|2,0:0|0:0,0:0:0:0:
336,252,132388,1,8,0:0:0:0:
124,304,132610,6,0,P|89:237|229:176,1,251.999992309571,2|0,0:0|0:0,0:0:0:0:
88,128,133165,2,0,L|56:64,1,62.9999980773926,2|8,0:0|0:0,0:0:0:0:
368,76,133499,1,0,0:0:0:0:
176,72,133721,2,0,P|120:104|200:160,1,188.999994232178,2|2,0:0|0:0,0:0:0:0:
252,168,134165,1,8,0:0:0:0:
420,168,134388,1,2,0:0:0:0:
280,240,134610,6,0,L|120:240,1,125.999996154785,2|0,0:0|0:0,0:0:0:0:
352,296,135054,2,0,L|496:296,1,125.999996154785,8|0,0:0|0:0,0:0:0:0:
184,168,135499,2,0,L|56:168,1,125.999996154785,2|0,0:0|0:0,0:0:0:0:
8,168,135832,1,2,0:0:0:0:
192,104,135943,2,0,L|312:16,1,125.999996154785,8|0,0:0|0:0,0:0:0:0:
96,32,136388,6,0,P|31:111|133:116,1,251.999992309571,2|8,0:0|0:0,0:0:0:0:
344,96,137054,2,0,L|234:34,1,125.999996154785,0|2,0:0|0:0,0:0:0:0:
448,136,137499,1,2,0:0:0:0:
508,180,137610,1,2,0:0:0:0:
336,228,137721,2,0,L|240:332,1,125.999996154785,8|0,0:0|0:0,0:0:0:0:
24,100,138165,6,0,P|16:136|192:176,1,251.999992309571,2|8,0:0|0:0,0:0:0:0:
336,200,138832,1,0,0:0:0:0:
144,200,139054,1,2,0:0:0:0:
344,72,139276,1,2,0:0:0:0:
402,76,139387,1,2,0:0:0:0:
208,76,139499,2,0,L|72:76,1,125.999996154785,8|2,0:0|0:0,0:0:0:0:
292,76,139943,6,0,P|331:156|256:200,1,188.999994232178,2|2,0:0|0:0,0:0:0:0:
176,208,140388,1,8,0:0:0:0:
40,196,140610,2,0,P|54:268|122:285,1,125.999996154785,2|0,0:0|0:0,0:0:0:0:
320,224,141054,1,2,0:0:0:0:
375,197,141165,1,2,0:0:0:0:
390,138,141276,1,8,0:0:0:0:
88,136,141499,1,2,0:0:0:0:
368,140,141721,5,2,0:0:0:0:
128,216,142054,1,2,0:0:0:0:
328,216,142388,1,2,0:0:0:0:
88,232,142610,2,0,P|32:160|184:64,1,315.000012016297,2|0,0:0|0:0,0:0:0:0:
364,136,143499,6,0,L|500:136,1,105,6|0,0:0|0:0,0:0:0:0:
264,72,143943,2,0,L|152:72,1,105,8|0,0:0|0:0,0:0:0:0:
344,72,144388,2,0,L|456:72,1,105,2|0,0:0|0:0,0:0:0:0:
208,128,144832,2,0,L|80:128,1,105,8|0,0:0|0:0,0:0:0:0:
392,128,145276,6,0,L|512:128,1,105,2|0,0:0|0:0,0:0:0:0:
316,200,145721,2,0,L|421:200,1,105,8|0,0:0|0:0,0:0:0:0:
224,200,146165,2,0,L|119:200,1,105,2|0,0:0|0:0,0:0:0:0:
248,264,146610,2,0,L|120:264,1,105,8|0,0:0|0:0,0:0:0:0:
440,136,147054,6,0,L|520:32,1,105,2|0,0:0|0:0,0:0:0:0:
304,136,147499,2,0,L|232:48,1,105,8|0,0:0|0:0,0:0:0:0:
72,136,147943,2,0,L|184:80,1,105,2|0,0:0|0:0,0:0:0:0:
364,136,148388,2,0,L|292:44,1,105,8|0,0:0|0:0,0:0:0:0:
12,136,148832,6,0,L|120:154,1,105,2|0,0:0|0:0,0:0:0:0:
284,164,149276,2,0,L|396:148,1,105,8|0,0:0|0:0,0:0:0:0:
232,208,149721,2,0,L|104:200,1,105,2|0,0:0|0:0,0:0:0:0:
288,248,150165,2,0,P|352:224|384:176,1,105,8|2,0:0|0:0,0:0:0:0:
364,152,150443,1,2,0:0:0:0:
338,119,150498,1,2,0:0:0:0:
298,114,150554,1,2,0:0:0:0:
152,104,150610,5,10,0:0:0:0:
488,104,151054,1,8,0:0:0:0:
144,104,151499,1,8,0:0:0:0:
336,272,151721,1,2,0:0:0:0:
388,250,151832,1,2,0:0:0:0:
232,272,151943,2,0,L|96:272,1,115.50000352478,8|0,0:0|0:0,0:0:0:0:
432,272,152388,5,8,0:0:0:0:
88,272,152832,1,8,0:0:0:0:
272,176,153054,2,0,L|416:176,1,115.50000352478,2|8,0:0|0:0,0:0:0:0:
121,88,153610,1,2,0:0:0:0:
100,139,153721,1,8,0:0:0:0:
320,144,153943,1,2,0:0:0:0:
136,312,154165,5,2,0:0:0:0:
80,296,154220,1,0,0:0:0:0:
56,240,154276,1,2,0:0:0:0:
80,192,154331,1,0,0:0:0:0:
128,176,154387,1,2,0:0:0:0:
232,168,154499,1,2,0:0:0:0:
404,204,154610,5,2,0:3:0:0:
410,261,154665,1,0,0:3:0:0:
372,306,154721,1,2,0:3:0:0:
288,324,154832,1,2,0:3:0:0:
216,280,154943,1,2,0:3:0:0:
397,28,155054,5,2,0:0:0:0:
439,56,155109,1,0,0:0:0:0:
468,99,155165,1,2,0:0:0:0:
477,150,155220,1,0,0:0:0:0:
464,201,155276,1,2,0:0:0:0:
434,243,155331,1,0,0:0:0:0:
388,268,155387,1,2,0:0:0:0:
336,273,155442,1,0,0:0:0:0:
176,292,155499,5,2,0:0:0:0:
127,260,155554,1,2,0:0:0:0:
96,212,155610,1,2,0:0:0:0:
85,150,155665,1,2,0:0:0:0:
108,94,155721,1,2,0:0:0:0:
147,48,155776,1,2,0:0:0:0:
201,11,155832,1,2,0:0:0:0:
253,9,155887,1,2,0:0:0:0:
364,24,155943,6,0,B|501:126|501:126|512:288|348:329|146:198|190:93,1,630.000024032594,4|0,0:0|0:0,0:0:0:0:
392,160,157054,2,0,L|464:192,1,78.7500030040742,0|2,0:0|0:0,0:0:0:0:
184,240,157276,2,0,P|112:224|176:136,1,210,8|0,0:0|0:0,0:0:0:0:
480,136,157721,6,0,L|360:96,1,125.999996154785,4|0,0:0|0:0,0:0:0:0:
184,96,158165,2,0,L|40:96,2,125.999996154785,8|0|2,0:0|0:0|0:0,0:0:0:0:
360,96,158832,1,2,0:0:0:0:
408,152,158943,1,2,0:0:0:0:
200,200,159054,2,0,L|72:200,1,125.999996154785,8|0,0:0|0:0,0:0:0:0:
392,264,159499,6,0,L|512:312,1,125.999996154785,2|0,0:0|0:0,0:0:0:0:
312,312,159943,2,0,L|184:312,1,125.999996154785,8|0,0:0|0:0,0:0:0:0:
16,240,160388,2,0,L|144:240,1,125.999996154785,2|2,0:0|0:0,0:0:0:0:
236,240,160721,1,2,0:0:0:0:
460,184,160832,2,0,P|492:144|440:96,1,125.999996154785,8|0,0:0|0:0,0:0:0:0:
156,64,161276,6,0,P|48:96|112:248,1,315.000012016297,8|0,0:0|0:0,0:0:0:0:
432,136,161943,2,0,P|512:252|412:368,1,315.000012016297,8|0,0:0|0:0,0:0:0:0:
132,252,162610,2,0,L|4:252,1,125.999996154785,8|0,0:0|0:0,0:0:0:0:
232,140,163054,5,2,0:0:0:0:
72,136,163276,2,0,L|0:136,2,62.9999980773926,2|2|8,0:0|0:0|0:0,0:0:0:0:
364,136,163721,2,0,P|436:184|340:296,1,251.999992309571,2|2,0:0|0:0,0:0:0:0:
288,304,164276,1,2,0:0:0:0:
64,304,164388,2,0,P|8:256|48:192,1,157.500006008148,8|0,0:0|0:0,0:0:0:0:
384,192,164832,6,0,P|480:104|432:40,1,236.250009012223,2|0,0:0|0:0,0:0:0:0:
300,192,165276,2,0,P|204:104|252:40,1,236.250009012223,8|0,0:0|0:0,0:0:0:0:
384,112,165721,2,0,L|512:112,1,125.999996154785,2|0,0:0|0:0,0:0:0:0:
420,112,166054,1,2,0:0:0:0:
192,256,166165,2,0,L|64:256,1,125.999996154785,8|0,0:0|0:0,0:0:0:0:
312,336,166610,6,0,P|376:320|416:272,1,125.999996154785,2|0,0:0|0:0,0:0:0:0:
120,192,167054,2,8,P|48:200|0:232,2,125.999996154785,8|0|2,0:0|0:0|0:0,0:0:0:0:
336,192,167721,1,2,0:0:0:0:
408,192,167832,1,2,0:0:0:0:
216,192,167943,2,0,L|88:136,1,125.999996154785,8|0,0:0|0:0,0:0:0:0:
396,64,168388,6,0,P|492:96|424:252,1,315.000012016297,8|0,0:0|0:0,0:0:0:0:
104,136,169054,2,0,P|49:266|181:318,1,315.000012016297,8|0,0:0|0:0,0:0:0:0:
464,248,169722,2,0,L|338:248,1,125.999996154785,8|0,0:0|0:0,0:0:0:0:
120,320,170165,6,0,P|32:272|80:168,1,236.250009012223,2|0,0:0|0:0,0:0:0:0:
296,168,170610,2,0,P|384:160|448:120,1,157.500006008148,8|0,0:0|0:0,0:0:0:0:
112,56,171054,5,2,0:0:0:0:
50,65,171128,1,2,0:0:0:0:
8,110,171202,1,2,0:0:0:0:
0,171,171276,1,2,0:0:0:0:
32,225,171350,1,2,0:0:0:0:
89,249,171424,1,2,0:0:0:0:
376,248,171499,2,0,P|448:184|376:128,1,210,6|0,0:0|0:0,0:0:0:0:
96,192,171943,6,0,P|36:260|88:328,1,188.999994232178,4|0,0:0|0:0,0:0:0:0:
216,328,172388,2,0,L|352:328,1,125.999996154785,8|0,0:0|0:0,0:0:0:0:
128,192,172832,1,2,0:0:0:0:
344,192,173054,1,2,0:0:0:0:
408,192,173165,1,2,0:0:0:0:
232,192,173276,2,0,L|112:144,1,125.999996154785,8|0,0:0|0:0,0:0:0:0:
344,80,173721,6,0,L|464:123,1,125.999996154785,2|0,0:0|0:0,0:0:0:0:
216,144,174165,2,0,L|88:144,1,125.999996154785,8|0,0:0|0:0,0:0:0:0:
312,240,174610,1,2,0:0:0:0:
351,285,174721,1,2,0:0:0:0:
328,340,174832,1,2,0:0:0:0:
269,346,174943,1,2,0:0:0:0:
80,344,175054,2,0,L|200:296,1,125.999996154785,8|0,0:0|0:0,0:0:0:0:
424,192,175499,5,2,0:0:0:0:
256,192,175721,2,0,L|184:192,1,62.9999980773926,2|2,0:0|0:0,0:0:0:0:
384,136,175943,2,0,P|456:120|488:72,1,125.999996154785,8|0,0:0|0:0,0:0:0:0:
280,40,176388,1,2,0:0:0:0:
88,136,176610,1,2,0:0:0:0:
8,136,176721,1,2,0:0:0:0:
200,136,176832,2,0,L|344:136,1,125.999996154785,8|0,0:0|0:0,0:0:0:0:
104,240,177276,5,2,0:0:0:0:
304,240,177498,2,0,L|241:240,1,62.9999980773926,2|2,0:0|0:0,0:0:0:0:
48,240,177721,2,0,P|16:152|120:80,1,236.250009012223,8|0,0:0|0:0,0:0:0:0:
288,160,178165,2,0,P|336:248|240:320,1,236.250009012223
420,320,178610,2,0,P|510:258|464:159,1,236.250009012223,8|0,0:0|0:0,0:0:0:0:
120,160,179054,6,0,P|64:112|112:24,1,188.999994232178,2|0,0:0|0:0,0:0:0:0:
240,24,179499,2,0,L|104:24,1,125.999996154785,8|0,0:0|0:0,0:0:0:0:
328,160,179943,1,2,0:0:0:0:
104,160,180165,1,2,0:0:0:0:
32,160,180276,1,2,0:0:0:0:
200,160,180387,2,0,L|320:208,1,125.999996154785,8|0,0:0|0:0,0:0:0:0:
112,304,180832,6,0,P|48:296|0:256,1,125.999996154785
256,240,181276,2,0,P|320:232|368:192,1,125.999996154785,8|0,0:0|0:0,0:0:0:0:
160,144,181721,1,2,0:0:0:0:
121,99,181832,1,2,0:0:0:0:
144,44,181943,1,2,0:0:0:0:
203,38,182054,1,2,0:0:0:0:
392,40,182165,2,0,L|512:96,1,125.999996154785,8|0,0:0|0:0,0:0:0:0:
264,192,182610,5,10,0:0:0:0:
224,184,182665,1,0,0:0:0:0:
184,192,182721,1,2,0:0:0:0:
144,240,182832,1,2,0:0:0:0:
176,300,182943,1,2,0:0:0:0:
296,192,183054,5,10,0:0:0:0:
336,184,183109,1,0,0:0:0:0:
376,192,183165,1,2,0:0:0:0:
416,240,183276,1,2,0:0:0:0:
384,300,183387,1,2,0:0:0:0:
212,352,183499,5,10,0:0:0:0:
172,368,183554,1,0,0:0:0:0:
127,373,183610,1,2,0:0:0:0:
79,337,183721,1,2,0:0:0:0:
96,264,183832,1,2,0:0:0:0:
264,352,183943,5,10,0:0:0:0:
304,368,183999,1,0,0:0:0:0:
348,372,184054,1,2,0:0:0:0:
388,328,184165,1,2,0:0:0:0:
356,264,184276,1,2,0:0:0:0:
168,200,184388,5,2,0:0:0:0:
115,223,184443,1,0,0:0:0:0:
58,213,184499,1,2,0:0:0:0:
17,173,184554,1,0,0:0:0:0:
8,116,184610,1,2,0:0:0:0:
26,63,184665,1,0,0:0:0:0:
74,30,184721,1,2,0:0:0:0:
131,30,184776,1,0,0:0:0:0:
292,80,184832,5,2,0:0:0:0:
339,93,184887,1,0,0:0:0:0:
383,116,184943,1,2,0:0:0:0:
388,159,184998,1,0,0:0:0:0:
347,187,185054,1,2,0:0:0:0:
301,205,185109,1,0,0:0:0:0:
248,216,185165,1,2,0:0:0:0:
216,264,185220,1,0,0:0:0:0:
360,144,185276,5,2,0:0:0:0:
417,144,185331,1,2,0:0:0:0:
465,176,185387,1,2,0:0:0:0:
486,230,185442,1,2,0:0:0:0:
474,286,185498,1,2,0:0:0:0:
433,326,185553,1,2,0:0:0:0:
376,336,185609,1,2,0:0:0:0:
323,313,185664,1,2,0:0:0:0:
160,128,185721,6,0,P|96:208|160:272,1,210,4|0,0:0|0:0,0:0:0:0:
474,286,186165,6,0,P|256:48|20:286,1,735,6|0,0:0|0:0,0:0:0:0:
232,328,187054,6,0,L|252:304,1,17.5,8|0,0:0|0:0,0:0:0:0:
364,280,187202,2,0,L|372:248,1,17.5,2|0,0:0|0:0,0:0:0:0:
280,168,187351,2,0,L|272:144,1,17.5,2|0,0:0|0:0,0:0:0:0:
148,104,187499,2,0,L|132:128,1,17.5,8|0,0:0|0:0,0:0:0:0:
16,152,187647,2,0,L|20:184,1,17.5,2|0,0:0|0:0,0:0:0:0:
96,264,187795,2,0,L|116:280,1,17.5,2|0,0:0|0:0,0:0:0:0:
308,264,187943,6,0,P|412:164|376:112,1,236.250009012223,2|0,0:0|0:0,0:0:0:0:
200,48,188388,2,0,P|96:148|132:200,1,236.250009012223,2|0,0:0|0:0,0:0:0:0:
320,144,188832,6,0,L|340:160,1,26.2500010013581,8|0,0:0|0:0,0:0:0:0:
440,192,188980,2,0,L|448:220,1,26.2500010013581,2|0,0:0|0:0,0:0:0:0:
380,304,189128,2,0,L|364:332,1,26.2500010013581,2|0,0:0|0:0,0:0:0:0:
132,308,189276,2,0,L|48:308,1,78.7500030040742,8|2,0:0|0:0,0:0:0:0:
172,248,189499,2,0,L|252:248,1,78.7500030040742,8|2,0:0|0:0,0:0:0:0:
420,192,189721,5,2,0:0:0:0:
148,192,190054,1,2,0:0:0:0:
408,192,190388,1,2,0:0:0:0:
100,192,190610,6,0,P|24:160|8:92,1,157.500006008148,8|0,0:0|0:0,0:0:0:0:
376,92,191054,2,0,P|452:124|468:192,1,157.500006008148,8|0,0:0|0:0,0:0:0:0:
136,264,191499,6,0,P|52:324|136:376,1,236.250009012223,2|0,0:0|0:0,0:0:0:0:
236,320,191943,2,0,L|212:272,1,52.5000020027161,2|0,0:0|0:0,0:0:0:0:
56,316,192165,2,0,L|80:268,1,52.5000020027161,2|0,0:0|0:0,0:0:0:0:
396,192,192388,6,0,L|476:192,2,78.7500030040742,8|8|2,0:0|0:0|0:0,0:0:0:0:
80,192,192832,1,8,0:0:0:0:
364,192,193054,1,8,0:0:0:0:
44,112,193276,5,6,0:0:0:0:
316,112,193609,1,2,0:0:0:0:
68,112,193943,1,2,0:0:0:0:
372,112,194165,6,0,L|384:136,1,26.2500010013581,2|0,0:0|0:0,0:0:0:0:
306,223,194314,2,0,L|300:248,1,26.2500010013581,2|0,0:0|0:0,0:0:0:0:
415,275,194462,2,0,L|424:301,1,26.2500010013581,8|0,0:0|0:0,0:0:0:0:
216,112,194610,2,0,L|200:133,1,26.2500010013581,2|0,0:0|0:0,0:0:0:0:
282,223,194758,2,0,L|296:244,1,26.2500010013581,2|0,0:0|0:0,0:0:0:0:
173,275,194907,2,0,L|156:296,1,26.2500010013581,8|0,0:0|0:0,0:0:0:0:
360,272,195054,6,0,P|460:224|452:112,1,236.250009012223,2|0,0:0|0:0,0:0:0:0:
176,72,195499,2,0,P|65:76|28:183,1,236.250009012223,2|0,0:0|0:0,0:0:0:0:
204,192,195943,6,0,L|224:208,1,26.2500010013581,8|0,0:0|0:0,0:0:0:0:
304,304,196091,2,0,L|312:332,1,26.2500010013581,2|0,0:0|0:0,0:0:0:0:
200,352,196239,2,0,L|184:380,1,26.2500010013581,2|0,0:0|0:0,0:0:0:0:
408,252,196388,2,0,L|487:252,1,78.7500030040742,8|2,0:0|0:0,0:0:0:0:
390,192,196610,2,0,L|322:153,1,78.7500030040742,8|2,0:0|0:0,0:0:0:0:
452,192,196832,5,10,0:0:0:0:
496,148,196943,1,2,0:0:0:0:
476,88,197054,1,2,0:0:0:0:
412,88,197165,1,2,0:0:0:0:
244,304,197276,5,10,0:0:0:0:
203,257,197387,1,2,0:0:0:0:
223,197,197498,1,2,0:0:0:0:
285,193,197609,1,2,0:0:0:0:
108,192,197721,5,10,0:0:0:0:
52,176,197832,1,2,0:0:0:0:
32,120,197943,1,2,0:0:0:0:
72,76,198054,1,2,0:0:0:0:
256,32,198165,5,10,0:0:0:0:
312,44,198276,1,2,0:0:0:0:
336,100,198387,1,2,0:0:0:0:
297,142,198498,1,2,0:0:0:0:
112,192,198610,5,2,0:0:0:0:
80,223,198665,1,0,0:0:0:0:
67,266,198721,1,2,0:0:0:0:
75,309,198776,1,0,0:0:0:0:
102,345,198832,1,2,0:0:0:0:
142,363,198887,1,0,0:0:0:0:
187,361,198943,1,2,0:0:0:0:
225,338,198998,1,0,0:0:0:0:
176,304,199054,5,2,0:0:0:0:
152,265,199110,1,2,0:0:0:0:
150,220,199165,1,2,0:0:0:0:
168,180,199220,1,2,0:0:0:0:
204,153,199276,1,2,0:0:0:0:
247,145,199331,1,2,0:0:0:0:
290,158,199387,1,2,0:0:0:0:
321,189,199442,1,2,0:0:0:0:
192,188,199499,6,0,L|124:136,2,78.7500030040742,8|8|2,0:0|0:0|0:0,0:0:0:0:
252,188,199832,1,0,0:0:0:0:
460,188,199943,1,8,0:0:0:0:
112,188,200165,1,8,0:0:0:0:
260,252,200388,6,0,B|352:252|352:252|276:252|276:252,1,168,4|0,0:0|0:0,0:0:0:0:
4,304,201276,1,2,0:0:0:0:
192,304,201499,1,2,0:0:0:0:
256,304,201610,1,2,0:0:0:0:
44,304,201721,2,0,P|0:216|84:172,1,210,8|0,0:0|0:0,0:0:0:0:
368,188,202165,6,0,L|472:156,1,105,6|0,0:0|0:0,0:0:0:0:
236,192,202610,2,0,L|156:120,1,105,2|0,0:0|0:0,0:0:0:0:
368,112,203054,2,0,L|496:48,2,105,0|0|2,0:0|0:0|0:0,0:0:0:0:
216,120,203721,1,0,0:0:0:0:
72,136,203943,6,0,P|32:112|40:56,1,105,2|0,0:0|0:0,0:0:0:0:
224,128,204388,2,0,P|264:96|248:32,1,105,2|0,0:0|0:0,0:0:0:0:
112,192,204832,2,0,L|-8:192,1,105
216,192,205276,2,0,L|328:192,1,105,2|0,0:0|0:0,0:0:0:0:
172,288,205721,6,0,L|28:288,2,105,2|0|2,0:0|0:0|0:0,0:0:0:0:
304,288,206388,1,0,0:0:0:0:
160,176,206610,2,0,L|48:176,1,105
276,176,207054,2,0,L|380:176,1,105,2|0,0:0|0:0,0:0:0:0:
248,180,207499,5,2,0:0:0:0:
112,180,207721,1,0,0:0:0:0:
236,180,207943,1,2,0:0:0:0:
48,180,208165,1,2,0:0:0:0:
272,180,208388,1,2,0:0:0:0:
408,184,208610,1,0,0:0:0:0:
264,180,208832,1,2,0:0:0:0:
452,184,209054,1,2,0:0:0:0:
148,188,209276,6,0,P|100:124|116:84,1,105,2|0,0:0|0:0,0:0:0:0:
308,160,209721,2,0,L|228:80,1,105,2|0,0:0|0:0,0:0:0:0:
72,72,210165,2,0,P|40:120|60:168,1,105,2|0,0:0|0:0,0:0:0:0:
256,272,210610,2,0,P|312:232|312:152,1,105,2|0,0:0|0:0,0:0:0:0:
200,176,211054,6,0,P|136:168|104:120,2,105,2|0|2,0:0|0:0|0:0,0:0:0:0:
384,176,211721,1,2,0:0:0:0:
168,264,211943,2,0,L|96:184,1,105,2|0,0:0|0:0,0:0:0:0:
332,264,212388,2,0,L|448:264,1,105,2|0,0:0|0:0,0:0:0:0:
148,168,212832,5,2,0:0:0:0:
24,96,213054,1,2,0:0:0:0:
376,40,213276,1,2,0:0:0:0:
480,132,213499,1,2,0:0:0:0:
200,92,213721,2,0,L|80:28,2,105,2|0|2,0:0|0:0|0:0,0:0:0:0:
384,152,214388,1,0,0:0:0:0:
208,152,214610,6,0,P|144:136|144:88,1,105,2|0,0:0|0:0,0:0:0:0:
348,152,215054,2,0,P|420:120|412:88,1,105,2|0,0:0|0:0,0:0:0:0:
212,36,215499,2,0,P|259:15|310:26,1,105,2|0,0:0|0:0,0:0:0:0:
448,96,215943,2,0,P|399:114|348:104,1,105,2|0,0:0|0:0,0:0:0:0:
64,160,216388,6,0,P|17:194|18:237,1,105,12|0,0:0|0:0,0:0:0:0:
216,256,216832,2,0,L|312:304,2,105,8|0|8,0:0|0:0|0:0,0:0:0:0:
80,256,217499,1,0,0:0:0:0:
312,256,217721,2,0,P|366:247|396:204,1,105,8|0,0:0|0:0,0:0:0:0:
100,192,218165,6,0,L|12:136,1,105,8|0,0:0|0:0,0:0:0:0:
220,136,218610,2,0,L|308:192,1,105,8|0,0:0|0:0,0:0:0:0:
124,232,219054,1,8,0:0:0:0:
336,236,219276,2,0,L|440:196,2,105,0|8|0,0:0|0:0|0:0,0:0:0:0:
56,232,219943,6,0,P|16:128|128:112,1,251.999992309571,8|8,0:0|0:0,0:0:0:0:
404,192,220610,2,0,P|512:170|471:68,1,251.999992309571,2|0,0:0|0:0,0:0:0:0:
168,64,221276,2,0,L|64:120,1,105,8|0,0:0|0:0,0:0:0:0:
288,112,221721,6,0,L|392:152,1,105,8|0,0:0|0:0,0:0:0:0:
152,192,222165,1,8,0:0:0:0:
440,192,222388,2,0,P|484:264|440:312,1,157.5
348,312,222832,2,0,L|244:312,2,105,0|8|0,0:0|0:0|0:0,0:0:0:0:
384,292,223332,1,2,0:0:0:0:
385,251,223388,1,2,0:0:0:0:
348,232,223443,1,2,0:0:0:0:
232,232,223499,6,0,L|124:232,1,105,8|0,0:0|0:0,0:0:0:0:
324,164,223943,2,0,L|396:72,1,105,8|0,0:0|0:0,0:0:0:0:
168,128,224388,2,0,P|120:72|132:40,1,105,8|2,0:0|0:0,0:0:0:0:
180,24,224721,1,2,0:0:0:0:
376,24,224832,2,0,L|476:68,1,105,8|0,0:0|0:0,0:0:0:0:
80,132,225276,6,0,P|44:164|80:200,1,105,8|0,0:0|0:0,0:0:0:0:
296,172,225720,2,0,P|332:204|296:240,1,105,8|0,0:0|0:0,0:0:0:0:
76,240,226165,2,0,P|28:296|40:328,1,105,8|2,0:0|0:0,0:0:0:0:
88,344,226498,1,2,0:0:0:0:
284,344,226609,2,0,L|392:320,1,105,8|0,0:0|0:0,0:0:0:0:
68,192,227054,5,2,0:0:0:0:
31,179,227109,1,0,0:0:0:0:
3,152,227165,1,2,0:0:0:0:
68,88,227276,1,2,0:0:0:0:
160,64,227388,1,2,0:0:0:0:
384,88,227499,5,2,0:0:0:0:
422,100,227554,1,0,0:0:0:0:
450,127,227610,1,2,0:0:0:0:
384,192,227721,1,2,0:0:0:0:
292,224,227833,1,2,0:0:0:0:
112,304,227943,5,2,0:0:0:0:
65,284,227998,1,0,0:0:0:0:
36,241,228054,1,2,0:0:0:0:
36,189,228109,1,0,0:0:0:0:
66,147,228165,1,2,0:0:0:0:
114,128,228220,1,0,0:0:0:0:
164,140,228276,1,2,0:0:0:0:
199,178,228331,1,0,0:0:0:0:
328,172,228388,5,2,0:0:0:0:
380,188,228443,1,2,0:0:0:0:
416,228,228499,1,2,0:0:0:0:
432,280,228554,1,2,0:0:0:0:
404,324,228610,1,2,0:0:0:0:
360,348,228665,1,2,0:0:0:0:
304,348,228721,1,2,0:0:0:0:
240,332,228776,1,2,0:0:0:0:
66,147,228832,6,0,B|24:148|-8:128|-8:60|28:20|92:20|156:44|164:85|164:144|216:200|284:200|324:180|344:120|324:64|276:40|208:60|168:184,1,630.000024032594,4|2,0:0|0:0,0:0:0:0:
52,208,229943,1,2,0:0:0:0:
396,208,230165,2,0,P|472:236|480:312,1,157.500006008148,8|2,0:0|0:0,0:0:0:0:
192,304,230610,6,0,P|120:272|128:192,1,136.499993751526,4|0,0:0|0:0,0:0:0:0:
152,184,230943,1,0,0:0:0:0:
352,184,231054,2,0,P|424:144|416:80,1,136.499993751526,8|0,0:0|0:0,0:0:0:0:
144,80,231499,1,2,0:0:0:0:
296,80,231721,1,2,0:0:0:0:
360,88,231832,1,2,0:0:0:0:
144,80,231943,2,0,L|8:80,1,136.499993751526,8|0,0:0|0:0,0:0:0:0:
308,192,232388,6,0,P|364:256|340:288,1,136.499993751526,2|0,0:0|0:0,0:0:0:0:
160,320,232833,2,0,P|104:272|128:224,1,136.499993751526,8|0,0:0|0:0,0:0:0:0:
332,224,233276,1,2,0:0:0:0:
112,272,233499,1,2,0:0:0:0:
56,248,233610,1,2,0:0:0:0:
40,192,233721,2,0,P|56:124|152:120,1,136.499993751526,8|0,0:0|0:0,0:0:0:0:
484,112,234165,6,0,P|440:260|320:252,1,293.999991027832,8|0,0:0|0:0,0:0:0:0:
16,296,234832,2,0,P|36:172|192:152,1,293.999991027832,8|0,0:0|0:0,0:0:0:0:
472,248,235499,2,0,P|432:176|352:160,1,136.499993751526,8|0,0:0|0:0,0:0:0:0:
224,160,235943,5,2,0:0:0:0:
424,160,236165,1,2,0:0:0:0:
348,160,236276,1,2,0:0:0:0:
148,164,236387,1,8,0:0:0:0:
292,168,236610,2,0,P|372:152|284:40,1,272.999987503052,2|2,0:0|0:0,0:0:0:0:
148,32,237276,1,8,0:0:0:0:
376,32,237499,1,2,0:0:0:0:
96,40,237721,6,0,P|32:104|80:168,1,136.499993751526,2|0,0:0|0:0,0:0:0:0:
96,168,238054,1,0,0:0:0:0:
320,168,238165,2,0,P|368:248|312:288,1,136.499993751526,8|0,0:0|0:0,0:0:0:0:
168,272,238610,1,2,0:0:0:0:
400,272,238832,1,2,0:0:0:0:
120,344,239054,1,8,0:0:0:0:
296,248,239276,2,0,P|368:208|368:152,1,136.499993751526,0|2,0:0|0:0,0:0:0:0:
120,188,239721,5,0,0:0:0:0:
400,184,239943,1,8,0:0:0:0:
220,188,240165,1,0,0:0:0:0:
444,128,240388,1,2,0:0:0:0:
404,180,240499,1,2,0:0:0:0:
308,172,240610,1,2,0:0:0:0:
267,223,240721,1,2,0:0:0:0:
76,168,240832,2,0,P|37:237|87:311,1,136.499993751526,8|0,0:0|0:0,0:0:0:0:
400,336,241276,6,0,P|496:248|392:144,1,293.999991027832,8|0,0:0|0:0,0:0:0:0:
80,336,241943,2,0,P|12:256|152:152,1,293.999991027832,8|0,0:0|0:0,0:0:0:0:
448,216,242610,2,0,P|470:136|425:80,1,136.499993751526,8|0,0:0|0:0,0:0:0:0:
144,288,243054,6,0,B|8:216|272:136,1,220.499993270874,2|0,0:0|0:0,0:0:0:0:
436,156,243499,2,0,P|488:228|372:308,1,220.499993270874,8|0,0:0|0:0,0:0:0:0:
240,292,243943,2,0,P|210:210|324:144,1,220.499993270874
80,100,244388,2,0,P|24:168|100:256,1,220.499993270874,8|0,0:0|0:0,0:0:0:0:
336,152,244832,6,0,P|372:240|256:284,1,204.749990627289,4|0,0:0|0:0,0:0:0:0:
108,292,245276,1,8,0:0:0:0:
316,288,245499,1,0,0:0:0:0:
164,348,245721,2,0,P|98:276|117:199,1,136.499993751526,0|2,0:0|0:0,0:0:0:0:
136,196,246054,1,2,0:0:0:0:
332,196,246165,2,0,L|476:196,1,136.499993751526,8|0,0:0|0:0,0:0:0:0:
228,64,246610,6,0,P|148:64|96:120,1,136.499993751526,2|0,0:0|0:0,0:0:0:0:
76,144,246943,1,0,0:0:0:0:
256,152,247054,2,0,L|364:240,1,136.499993751526,8|0,0:0|0:0,0:0:0:0:
160,336,247499,6,0,P|240:336|292:280,1,136.499993751526,2|0,0:0|0:0,0:0:0:0:
312,256,247832,1,0,0:0:0:0:
132,248,247943,2,0,L|24:160,1,136.499993751526,8|0,0:0|0:0,0:0:0:0:
328,64,248388,6,0,L|480:64,1,136.499993751526,2|0,0:0|0:0,0:0:0:0:
152,168,248832,2,0,L|-8:168,1,136.499993751526,8|0,0:0|0:0,0:0:0:0:
376,304,249276,1,2,0:0:0:0:
424,260,249387,1,2,0:0:0:0:
412,196,249498,1,2,0:0:0:0:
224,204,249721,2,0,L|96:316,1,136.499993751526,8|0,0:0|0:0,0:0:0:0:
444,108,250165,6,0,P|476:144|436:244,1,136.499993751526,2|0,0:0|0:0,0:0:0:0:
120,308,250610,2,0,P|64:264|88:188,1,136.499993751526,8|0,0:0|0:0,0:0:0:0:
364,208,251054,2,0,L|476:72,1,136.499993751526,2|2,0:0|0:0,0:0:0:0:
368,96,251388,1,2,0:0:0:0:
284,96,251499,1,8,0:0:0:0:
72,88,251721,1,2,0:0:0:0:
29,115,251776,1,2,0:0:0:0:
13,163,251832,1,2,0:0:0:0:
29,210,251887,1,2,0:0:0:0:
71,238,251943,1,2,0:0:0:0:
488,184,252165,5,2,0:0:0:0:
440,228,252276,1,2,0:0:0:0:
344,240,252388,2,0,P|268:244|200:204,1,136.499993751526,8|0,0:0|0:0,0:0:0:0:
64,208,252832,2,0,P|44:136|96:81,1,136.499993751526,2|2,0:0|0:0,0:0:0:0:
136,80,253165,1,2,0:0:0:0:
360,80,253276,2,0,L|496:80,1,136.499993751526,8|0,0:0|0:0,0:0:0:0:
200,80,253721,1,2,0:0:0:0:
360,196,253943,5,2,0:0:0:0:
424,196,254054,1,2,0:0:0:0:
168,204,254165,2,0,L|48:300,1,136.499993751526,8|0,0:0|0:0,0:0:0:0:
352,24,254610,2,0,L|496:24,1,136.499993751526,2|0,0:0|0:0,0:0:0:0:
244,96,255054,2,0,L|84:96,1,136.499993751526,8|0,0:0|0:0,0:0:0:0:
404,308,255499,5,10,0:0:0:0:
442,280,255554,1,2,0:0:0:0:
465,238,255610,1,2,0:0:0:0:
447,148,255721,1,2,0:0:0:0:
364,108,255832,1,2,0:0:0:0:
188,264,255943,5,10,0:0:0:0:
142,253,255998,1,2,0:0:0:0:
104,223,256054,1,2,0:0:0:0:
85,133,256165,1,2,0:0:0:0:
146,64,256276,1,2,0:0:0:0:
348,216,256388,5,10,0:0:0:0:
380,181,256443,1,2,0:0:0:0:
396,135,256499,1,2,0:0:0:0:
363,50,256610,1,2,0:0:0:0:
274,25,256721,1,2,0:0:0:0:
88,60,256832,5,10,0:0:0:0:
44,127,256943,1,2,0:0:0:0:
55,207,257054,1,2,0:0:0:0:
115,260,257165,1,2,0:0:0:0:
392,320,257276,5,2,0:0:0:0:
445,299,257331,1,2,0:0:0:0:
482,255,257387,1,2,0:0:0:0:
491,199,257442,1,2,0:0:0:0:
471,145,257498,1,2,0:0:0:0:
426,109,257553,1,2,0:0:0:0:
369,100,257609,1,2,0:0:0:0:
316,121,257664,1,2,0:0:0:0:
116,292,257721,5,2,0:0:0:0:
72,259,257776,1,2,0:0:0:0:
45,213,257832,1,2,0:0:0:0:
57,161,257887,1,2,0:0:0:0:
96,123,257943,1,2,0:0:0:0:
145,100,257998,1,2,0:0:0:0:
194,76,258054,1,2,0:0:0:0:
244,53,258109,1,2,0:0:0:0:
384,120,258165,5,2,0:0:0:0:
439,132,258220,1,2,0:0:0:0:
479,174,258276,1,2,0:0:0:0:
487,232,258331,1,2,0:0:0:0:
463,284,258387,1,2,0:0:0:0:
414,313,258442,1,2,0:0:0:0:
356,310,258498,1,2,0:0:0:0:
309,276,258553,1,2,0:0:0:0:
148,300,258610,6,0,P|52:240|180:24,1,377.999988464356,10|10,0:0|0:0,0:0:0:0:
448,40,259276,5,0,0:0:0:0:
504,40,259388,1,0,0:0:0:0:
405,91,259499,2,0,L|296:112,1,105,8|0,0:0|0:0,0:0:0:0:
64,192,259943,2,0,L|16:160,1,52.5,2|2,0:0|0:0,0:0:0:0:
188,192,260165,2,0,L|236:224,1,52.5,2|2,0:0|0:0,0:0:0:0:
60,224,260388,2,0,P|20:272|32:312,1,105,8|0,0:0|0:0,0:0:0:0:
344,304,260832,5,2,0:0:0:0:
136,304,261054,1,2,0:0:0:0:
72,304,261165,1,2,0:0:0:0:
168,252,261276,2,0,P|152:196|112:180,1,105,8|0,0:0|0:0,0:0:0:0:
416,128,261721,2,0,P|472:112|488:72,1,105,2|0,0:0|0:0,0:0:0:0:
456,32,262054,1,0,0:0:0:0:
288,36,262165,2,0,L|372:100,1,105,8|0,0:0|0:0,0:0:0:0:
88,128,262610,5,2,0:0:0:0:
244,192,262832,2,0,L|300:192,1,52.5
116,192,263054,2,0,P|64:208|40:256,1,105,8|0,0:0|0:0,0:0:0:0:
348,256,263499,2,0,L|452:296,1,105,2|2,0:0|0:0,0:0:0:0:
392,296,263832,1,2,0:0:0:0:
220,328,263943,1,8,0:0:0:0:
400,368,264165,1,2,0:0:0:0:
104,192,264388,5,2,0:0:0:0:
288,144,264610,2,0,L|352:144,1,52.5,2|2,0:0|0:0,0:0:0:0:
236,96,264832,2,0,L|172:96,1,52.5,10|2,0:0|0:0,0:0:0:0:
300,64,265054,1,2,0:0:0:0:
144,192,265276,2,0,L|80:192,1,52.5,2|2,0:0|0:0,0:0:0:0:
200,248,265499,2,0,L|256:248,1,52.5,2|2,0:0|0:0,0:0:0:0:
132,296,265721,2,0,L|44:352,1,105,8|0,0:0|0:0,0:0:0:0:
336,192,266165,6,0,L|440:192,1,105,2|0,0:0|0:0,0:0:0:0:
200,128,266610,2,0,L|96:128,1,105,8|0,0:0|0:0,0:0:0:0:
304,56,267054,2,0,L|408:72,1,105,2|2,0:0|0:0,0:0:0:0:
328,136,267388,1,2,0:0:0:0:
408,200,267499,2,0,L|512:216,1,105,8|0,0:0|0:0,0:0:0:0:
216,200,267943,6,0,L|112:216,1,105,2|2,0:0|0:0,0:0:0:0:
32,280,268276,1,2,0:0:0:0:
112,344,268388,2,0,L|8:360,1,105,8|0,0:0|0:0,0:0:0:0:
408,264,268832,2,0,L|303:264,1,105,2|2,0:0|0:0,0:0:0:0:
208,264,269165,1,2,0:0:0:0:
8,200,269277,2,0,L|113:200,1,105,8|0,0:0|0:0,0:0:0:0:
428,192,269721,5,10,0:0:0:0:
468,176,269776,1,0,0:0:0:0:
484,136,269832,1,2,0:0:0:0:
436,72,269943,1,2,0:0:0:0:
356,72,270054,1,2,0:0:0:0:
156,192,270165,5,10,0:0:0:0:
116,208,270220,1,0,0:0:0:0:
100,248,270276,1,2,0:0:0:0:
152,312,270387,1,2,0:0:0:0:
236,312,270498,1,2,0:0:0:0:
44,192,270610,5,10,0:0:0:0:
8,144,270665,1,0,0:0:0:0:
36,92,270721,1,2,0:0:0:0:
112,60,270832,1,2,0:0:0:0:
196,60,270943,1,2,0:0:0:0:
372,120,271054,5,8,0:0:0:0:
484,177,271165,1,2,0:0:0:0:
428,291,271276,1,2,0:0:0:0:
314,238,271387,1,2,0:0:0:0:
116,192,271499,5,2,0:0:0:0:
75,186,271554,1,0,0:0:0:0:
38,202,271610,1,2,0:0:0:0:
16,236,271665,1,0,0:0:0:0:
15,277,271721,1,2,0:0:0:0:
37,311,271776,1,0,0:0:0:0:
73,329,271832,1,2,0:0:0:0:
114,324,271887,1,0,0:0:0:0:
232,196,271943,5,2,0:0:0:0:
272,196,271998,1,0,0:0:0:0:
271,141,272054,1,2,0:0:0:0:
231,140,272110,1,0,0:0:0:0:
184,140,272165,1,2,0:0:0:0:
144,140,272221,1,0,0:0:0:0:
145,85,272276,1,2,0:0:0:0:
184,84,272331,1,0,0:0:0:0:
304,84,272388,5,2,0:0:0:0:
345,78,272443,1,2,0:0:0:0:
382,94,272499,1,2,0:0:0:0:
404,128,272554,1,2,0:0:0:0:
405,169,272610,1,2,0:0:0:0:
383,203,272665,1,2,0:0:0:0:
347,221,272721,1,2,0:0:0:0:
306,216,272776,1,2,0:0:0:0:
440,256,272832,5,2,0:0:0:0:
488,280,272887,1,2,0:0:0:0:
488,336,272943,1,2,0:0:0:0:
440,356,272999,1,2,0:0:0:0:
392,332,273054,1,2,0:0:0:0:
360,288,273109,1,2,0:0:0:0:
312,264,273165,1,2,0:0:0:0:
256,264,273221,1,2,0:0:0:0:
80,272,273276,6,0,P|72:256|136:192,1,105,6|0,0:0|0:0,0:0:0:0:
344,188,273721,2,0,P|416:156|416:132,1,105,2|0,0:0|0:0,0:0:0:0:
180,120,274165,2,0,P|132:120|108:56,2,105,2|0|2,0:0|0:0|0:0,0:0:0:0:
380,116,274832,6,0,P|464:168|428:304,1,251.999992309571
304,200,275499,2,0,L|192:200,1,105,2|0,0:0|0:0,0:0:0:0:
48,200,275943,2,0,L|144:128,1,105,2|0,0:0|0:0,0:0:0:0:
264,128,276388,1,2,0:0:0:0:
400,128,276610,1,0,0:0:0:0:
296,200,276832,5,2,0:0:0:0:
152,200,277054,2,0,P|88:168|80:128,1,105,0|2,0:0|0:0,0:0:0:0:
264,204,277499,2,0,P|288:148|264:104,1,105,0|2,0:0|0:0,0:0:0:0:
116,56,277943,1,0,0:0:0:0:
276,56,278165,1,2,0:0:0:0:
164,136,278388,1,0,0:0:0:0:
336,144,278610,6,0,P|392:120|416:72,1,105,2|0,0:0|0:0,0:0:0:0:
260,72,279054,2,0,P|204:80|156:56,1,105,2|0,0:0|0:0,0:0:0:0:
16,128,279499,2,0,P|56:168|112:168,1,105,2|0,0:0|0:0,0:0:0:0:
288,168,279943,2,0,P|328:168|376:224,1,105,2|0,0:0|0:0,0:0:0:0:
88,304,280388,6,0,P|24:264|16:240,1,105,2|0,0:0|0:0,0:0:0:0:
320,304,280832,2,0,P|368:296|400:232,1,105,2|0,0:0|0:0,0:0:0:0:
116,228,281276,1,2,0:0:0:0:
48,144,281499,1,0,0:0:0:0:
264,112,281721,2,0,P|344:128|376:152,1,105,2|0,0:0|0:0,0:0:0:0:
204,112,282165,2,0,P|124:128|92:152,1,105,2|0,0:0|0:0,0:0:0:0:
320,232,282610,6,0,P|240:168|120:168,2,210,2|2|2,0:0|0:0|0:0,0:0:0:0:
180,256,283721,1,0,0:0:0:0:
80,248,283943,6,0,L|0:152,2,105,2|0|2,0:0|0:0|0:0,0:0:0:0:
224,248,284610,1,2,0:0:0:0:
368,240,284832,2,0,L|464:192,2,105,2|0|0,0:0|0:0|0:0,0:0:0:0:
224,248,285499,1,2,0:0:0:0:
48,240,285721,6,0,P|64:168|104:160,1,105,2|0,0:0|0:0,0:0:0:0:
248,168,286165,2,0,P|304:120|288:88,1,105,2|0,0:0|0:0,0:0:0:0:
120,96,286610,2,0,L|16:96,1,105,2|0,0:0|0:0,0:0:0:0:
256,32,287054,2,0,L|384:32,1,105,2|0,0:0|0:0,0:0:0:0:
44,192,287499,6,0,L|140:236,1,105,6|0,0:0|0:0,0:0:0:0:
324,236,287943,2,0,L|225:193,1,105,2|0,0:0|0:0,0:0:0:0:
412,192,288388,2,0,L|508:236,1,105,2|0,0:0|0:0,0:0:0:0:
324,316,288832,1,2,0:0:0:0:
116,312,289054,6,0,P|44:280|92:196,1,196.875,2|0,0:0|0:0,0:0:0:0:
180,196,289499,1,0,0:0:0:0:
388,200,289721,2,0,P|448:180|476:144,1,105,2|0,0:0|0:0,0:0:0:0:
264,64,290165,2,0,P|204:84|176:120,1,105,2|0,0:0|0:0,0:0:0:0:
416,200,290610,1,2,0:0:0:0:
228,200,290832,1,0,0:0:0:0:
424,200,291054,6,0,L|512:144,2,105,2|0|0,0:0|0:0|0:0,0:0:0:0:
296,200,291721,1,0,0:0:0:0:
104,196,291943,2,0,L|28:124,1,105,2|0,0:0|0:0,0:0:0:0:
240,196,292388,2,0,L|324:116,1,105,2|0,0:0|0:0,0:0:0:0:
84,288,292832,6,0,L|12:368,1,105,2|0,0:0|0:0,0:0:0:0:
216,288,293276,1,2,0:0:0:0:
416,288,293499,1,0,0:0:0:0:
228,216,293721,2,0,L|132:172,1,105,2|0,0:0|0:0,0:0:0:0:
324,216,294165,2,0,L|420:172,1,105,2|0,0:0|0:0,0:0:0:0:
104,128,294610,6,0,P|68:100|104:72,1,105,2|0,0:0|0:0,0:0:0:0:
312,128,295054,2,0,P|348:156|312:184,1,105,2|0,0:0|0:0,0:0:0:0:
80,200,295499,1,2,0:0:0:0:
268,204,295721,2,0,L|368:248,2,105
56,288,296388,6,0,P|44:332|88:364,1,105,2|0,0:0|0:0,0:0:0:0:
256,364,296832,1,2,0:0:0:0:
68,232,297054,1,0,0:0:0:0:
280,232,297276,2,0,L|380:200,1,105,2|0,0:0|0:0,0:0:0:0:
172,164,297721,2,0,L|72:132,1,105,2|0,0:0|0:0,0:0:0:0:
300,112,298165,6,0,P|456:109|394:318,1,440.999986541748,2|0,0:0|0:0,0:0:0:0:
296,248,299054,2,0,P|192:192|296:136,1,288.750008811951,2|0,0:0|0:0,0:0:0:0:
200,332,299721,2,0,P|255:38|312:332,1,840,2|4,0:0|0:0,0:0:0:0:
256,192,301721,12,0,305276,0:0:0:0:
