osu file format v12

[General]
AudioFilename: Sincerity.mp3
AudioLeadIn: 0
PreviewTime: 104365
Countdown: 0
SampleSet: Soft
StackLeniency: 0.7
Mode: 0
LetterboxInBreaks: 0
WidescreenStoryboard: 0

[Editor]
Bookmarks: 18745,27552,39279,44996,47653,49834,69279,102334,118915
DistanceSpacing: 2
BeatDivisor: 4
GridSize: 4

[Metadata]
Title:Today
TitleUnicode:Today
Artist:Halou
ArtistUnicode:Halou
Creator:Autumn
Version:Sincerity
Source:
Tags:alacat Hyouka Sincerity Umika AMV
BeatmapID:244444
BeatmapSetID:89995

[Difficulty]
HPDrainRate:5
CircleSize:4
OverallDifficulty:6
ApproachRate:8
SliderMultiplier:2.1
SliderTickRate:1

[Events]
//Background and Video events
Video,0,"Video.avi"
0,0,"BG.jpg",0,0
//Break Periods
2,142200,144561
//Storyboard Layer 0 (Background)
//Storyboard Layer 1 (Fail)
//Storyboard Layer 2 (Pass)
//Storyboard Layer 3 (Foreground)
//Storyboard Sound Samples
//Background Colour Transformations
3,100,163,162,255

[TimingPoints]
18729,545.454545454546,4,2,1,20,1,0
18729,-133.333333333333,4,2,1,20,0,0
20365,-133.333333333333,4,2,1,13,0,0
21729,-133.333333333333,4,2,1,20,0,0
37001,-133.333333333333,4,2,1,17,0,0
37819,-133.333333333333,4,2,1,13,0,0
38638,-133.333333333333,4,2,1,10,0,0
39456,-133.333333333333,4,2,1,7,0,0
40547,-133.333333333333,4,2,1,20,0,0
50501,-200,4,2,1,25,0,0
51183,-200,4,2,1,25,0,0
51456,-133.333333333333,4,2,1,25,0,0
65638,-133.333333333333,4,2,1,25,0,0
88001,-133.333333333333,4,2,1,10,0,0
88547,-133.333333333333,4,2,1,25,0,0
89229,-133.333333333333,4,2,1,20,0,0
90183,-133.333333333333,4,2,1,25,0,0
90865,-133.333333333333,4,2,1,20,0,0
91547,-133.333333333333,4,2,1,25,0,0
103001,-200,4,2,1,25,0,0
103819,-133.333333333333,4,2,1,15,0,0
104365,-133.333333333333,4,2,1,20,0,0
104638,-125,4,2,1,20,0,0
105183,-111.111111111111,4,2,1,20,0,0
106001,-100,4,1,1,30,0,1
140638,-200,4,1,1,30,0,0
142001,-200,4,2,2,5,0,0
145311,545.454545454546,4,2,1,20,1,0
145311,-200,4,2,1,20,0,0
146401,-200,4,2,1,5,0,0
146947,-200,4,2,1,20,0,0
152401,-200,4,2,1,5,0,0
153492,-200,4,2,1,20,0,0
154856,-200,4,2,1,5,0,0

[Colours]
Combo1 : 255,255,140
Combo2 : 0,255,255
Combo3 : 255,128,255
Combo4 : 170,255,170
SliderBorder : 225,227,213

[HitObjects]
268,260,18729,6,0,P|296:180|238:116,1,157.500006008148,0|0,0:0|0:0,0:0:0:0:
212,196,19547,2,0,P|182:275|223:337,1,157.500006008148,2|0,0:0|0:0,0:0:0:0:
300,340,20365,1,2,0:0:0:0:
268,260,20638,1,0,0:0:0:0:
184,280,20910,6,0,P|152:308|136:348,2,78.7500030040742
284,164,21729,2,0,P|296:244|348:296,1,157.500006008148,2|0,0:0|0:0,0:0:0:0:
284,164,22547,2,0,L|216:216,1,78.7500030040742,2|0,0:0|0:0,0:0:0:0:
364,136,23092,6,0,P|440:168|484:232,1,157.500006008148,0|0,0:0|0:0,0:0:0:0:
324,200,23910,2,0,P|248:168|204:96,1,157.500006008148,2|0,0:0|0:0,0:0:0:0:
168,252,24729,2,0,L|248:252,1,78.7500030040742,2|0,0:0|0:0,0:0:0:0:
419,207,25274,6,0,P|344:240|332:308,1,157.500006008148,0|0,0:0|0:0,0:0:0:0:
408,284,26092,2,0,L|252:180,1,157.500006008148,2|0,0:0|0:0,0:0:0:0:
260,276,26910,2,0,L|248:360,1,78.7500030040742,2|0,0:0|0:0,0:0:0:0:
180,312,27456,6,0,P|128:244|60:220,1,157.500006008148,0|0,0:0|0:0,0:0:0:0:
224,212,28274,2,0,L|372:144,1,157.500006008148,2|0,0:0|0:0,0:0:0:0:
232,124,29092,2,0,L|148:164,1,78.7500030040742,2|0,0:0|0:0,0:0:0:0:
284,268,29638,6,0,P|360:268|396:192,1,157.500006008148
320,200,30456,2,0,B|279:174|228:196|208:240|208:240|188:288|148:304|108:304,1,236.250009012223,2|2,0:0|0:0,0:0:0:0:
128,224,31547,2,0,L|88:152,2,78.7500030040742,0|0|0,0:0|0:0|0:0,0:0:0:0:
208,356,32365,5,0,0:0:0:0:
208,356,32638,2,0,L|360:296,1,157.500006008148,2|0,0:0|0:0,0:0:0:0:
472,256,33456,1,2,0:0:0:0:
452,260,34001,6,0,L|288:256,1,157.500006008148
324,184,34819,2,0,P|296:252|200:264,1,157.500006008148,2|0,0:0|0:0,0:0:0:0:
240,192,35638,2,0,P|244:152|272:116,1,78.7500030040742,2|0,0:0|0:0,0:0:0:0:
376,96,36183,6,0,P|417:177|380:271,1,196.875007510186,2|0,0:0|0:0,0:0:0:0:
340,269,37001,2,0,P|298:187|335:93,1,196.875007510186,2|0,0:0|0:0,0:0:0:0:
275,97,37819,2,0,P|197:152|104:132,1,196.875007510186,2|0,0:0|0:0,0:0:0:0:
104,132,38638,2,0,P|187:169|219:264,1,196.875007510186,2|0,0:0|0:0,0:0:0:0:
220,264,39456,2,0,P|148:288|72:260,1,157.500006008148
304,84,40547,6,0,P|376:60|452:88,1,157.500006008148
452,244,41365,2,0,P|382:271|306:247,1,157.500006008148,2|0,0:0|0:0,0:0:0:0:
256,160,42183,2,0,P|296:144|332:148,1,78.7500030040742,2|0,0:0|0:0,0:0:0:0:
213,247,42729,6,0,P|140:271|68:244,1,157.500006008148,0|0,0:0|0:0,0:0:0:0:
175,150,43547,2,0,P|140:219|67:243,1,157.500006008148,2|0,0:0|0:0,0:0:0:0:
126,91,44365,2,0,P|166:75|206:79,1,78.7500030040742,2|0,0:0|0:0,0:0:0:0:
436,152,44910,6,0,P|368:188|292:160,1,157.500006008148
352,108,45729,2,0,P|376:168|320:244,1,157.500006008148,2|0,0:0|0:0,0:0:0:0:
179,257,46547,1,2,0:0:0:0:
308,340,46819,1,0,0:0:0:0:
252,280,47092,6,0,P|216:260|168:260,1,78.7500030040742
336,264,47638,1,0,0:0:0:0:
336,264,47910,2,0,P|312:212|260:180,1,118.125004506111,2|0,0:0|0:0,0:0:0:0:
224,171,48456,2,0,P|188:159|164:128,1,78.7500030040742
231,41,49001,38,0,P|216:92|164:128,1,118.125004506111,2|0,0:0|0:0,0:0:0:0:
124,136,49547,2,0,P|88:144|60:176,1,78.7500030040742
76,288,50092,2,0,P|112:280|140:248,1,78.7500030040742
172,272,50501,22,0,P|236:300|300:272,1,131.25
236,220,51456,38,0,P|264:136|236:72,1,157.500006008148,2|0,0:0|0:0,0:0:0:0:
120,52,52274,2,0,P|128:92|152:120,2,78.7500030040742
113,186,53092,2,0,P|140:156|152:120,1,78.7500030040742
96,280,53638,6,0,B|168:280|168:280|224:336|312:320|336:248|328:200|280:172,1,315.000012016297,0|2,0:0|0:0,0:0:0:0:
236,232,55001,5,0,0:0:0:0:
384,192,55274,2,0,P|372:156|340:124,1,78.7500030040742
244,28,55819,2,0,B|240:72|276:104,2,78.7500030040742
344,128,56638,6,0,P|416:108|480:152,1,157.500006008148,2|0,0:0|0:0,0:0:0:0:
272,160,57456,2,0,L|227:95,1,78.7500030040742,2|0,0:0|0:0,0:0:0:0:
216,240,58001,2,0,L|170:175,1,78.7500030040742
128,276,58547,1,0,0:0:0:0:
128,276,58819,2,0,L|32:144,1,157.500006008148,2|0,0:0|0:0,0:0:0:0:
217,239,59638,2,0,P|257:243|292:260,1,78.7500030040742,2|0,0:0|0:0,0:0:0:0:
428,282,60183,22,0,P|364:304|292:260,1,157.500006008148,0|0,0:0|0:0,0:0:0:0:
235,196,61001,2,0,P|308:176|368:224,1,157.500006008148,2|0,0:0|0:0,0:0:0:0:
211,269,61819,2,0,P|216:229|236:197,1,78.7500030040742,2|0,0:0|0:0,0:0:0:0:
276,312,62365,6,0,P|241:342|205:347,1,78.7500030040742
132,344,62910,1,0,0:0:0:0:
276,312,63183,2,0,P|348:292|420:336,1,157.500006008148,2|0,0:0|0:0,0:0:0:0:
276,312,64001,2,0,L|208:268,1,78.7500030040742,2|0,0:0|0:0,0:0:0:0:
128,184,64547,2,0,P|208:180|256:120,1,157.500006008148,0|0,0:0|0:0,0:0:0:0:
160,96,65365,5,0,0:0:0:0:
160,96,65638,2,0,L|236:236,1,157.500006008148,2|0,0:0|0:0,0:0:0:0:
280,316,66456,2,0,L|380:244,1,118.125004506111
348,220,67001,2,0,L|233:190,1,118.125004506111
216,228,67547,2,0,L|227:345,1,118.125004506111,2|0,0:0|0:0,0:0:0:0:
188,356,68092,2,0,L|73:326,1,118.125004506111
40,304,68638,2,0,L|112:240,1,78.7500030040742,0|0,0:0|0:0,0:0:0:0:
224,144,69183,6,0,P|236:184|276:216,1,78.7500030040742
420,212,69729,2,0,P|380:220|344:248,1,78.7500030040742
256,368,70274,2,0,P|276:332|276:280,1,78.7500030040742,0|2,0:0|0:0,0:0:0:0:
308,172,70819,5,0,0:0:0:0:
308,172,71092,2,0,B|240:228|152:196,1,157.500006008148,0|0,0:0|0:0,0:0:0:0:
88,168,71910,1,2,0:0:0:0:
84,304,72456,5,0,0:0:0:0:
88,168,72729,1,2,0:0:0:0:
212,240,73001,1,0,0:0:0:0:
84,304,73274,2,0,P|52:236|88:168,1,157.500006008148,0|0,0:0|0:0,0:0:0:0:
256,172,74092,2,0,P|291:238|259:307,1,157.500006008148,0|0,0:0|0:0,0:0:0:0:
176,176,74910,2,0,P|180:140|208:104,1,78.7500030040742,2|0,0:0|0:0,0:0:0:0:
304,108,75456,6,0,P|329:142|333:178,2,78.7500030040742,0|0|0,0:0|0:0|0:0,0:0:0:0:
285,242,76274,2,0,B|325:266|365:250,1,78.7500030040742,2|0,0:0|0:0,0:0:0:0:
381,120,76819,2,0,P|349:142|333:177,1,78.7500030040742,0|2,0:0|0:0,0:0:0:0:
433,270,77365,1,0,0:0:0:0:
433,270,77638,6,0,P|429:226|410:197,1,78.7500030040742
248,196,78183,1,0,0:0:0:0:
272,272,78456,2,0,P|324:216|300:136,1,157.500006008148,2|0,0:0|0:0,0:0:0:0:
172,180,79274,2,0,P|172:220|200:260,1,78.7500030040742,2|0,0:0|0:0,0:0:0:0:
224,120,79819,6,0,P|184:100|136:112,2,78.7500030040742
248,196,80638,1,2,0:0:0:0:
68,240,81183,5,0,0:0:0:0:
128,116,81456,1,2,0:0:0:0:
184,316,81729,1,0,0:0:0:0:
68,240,82001,2,0,P|68:164|136:116,1,157.500006008148
192,164,82819,2,0,P|248:216|328:200,1,157.500006008148,2|0,0:0|0:0,0:0:0:0:
272,144,83638,1,2,0:0:0:0:
244,300,83910,1,0,0:0:0:0:
272,144,84183,6,0,P|292:104|332:76,2,78.7500030040742
344,285,85001,1,2,0:0:0:0:
202,213,85274,1,0,0:0:0:0:
359,188,85547,1,0,0:0:0:0:
244,300,85819,2,0,P|176:328|100:292,1,157.500006008148,2|0,0:0|0:0,0:0:0:0:
256,192,86501,12,0,88001,0:0:0:0:
456,184,88547,22,0,P|396:256|288:252,1,196.875007510186,2|0,0:0|0:0,0:0:0:0:
268,232,89365,2,0,P|280:276|268:320,1,78.7500030040742,2|0,0:0|0:0,0:0:0:0:
56,200,90183,6,0,P|116:128|224:132,1,196.875007510186,2|0,0:0|0:0,0:0:0:0:
244,152,91001,2,0,P|230:111|244:60,1,78.7500030040742,2|0,0:0|0:0,0:0:0:0:
356,156,91547,1,0,0:0:0:0:
356,156,91819,6,0,P|332:216|252:256,1,157.500006008148,2|0,0:0|0:0,0:0:0:0:
100,220,92638,1,0,0:0:0:0:
132,148,92910,2,0,P|168:180|176:208,2,78.7500030040742,0|0|0,0:0|0:0|0:0,0:0:0:0:
52,160,93729,2,0,P|24:232|80:296,1,157.500006008148,2|0,0:0|0:0,0:0:0:0:
224,268,94547,1,2,0:0:0:0:
152,316,94819,1,0,0:0:0:0:
152,237,95092,22,0,P|180:203|218:189,2,78.7500030040742
224,344,95910,2,0,P|294:301|288:224,1,157.500006008148,2|0,0:0|0:0,0:0:0:0:
188,116,96729,1,2,0:0:0:0:
336,168,97001,1,0,0:0:0:0:
256,172,97274,6,0,P|264:132|288:104,2,78.7500030040742
300,240,98092,2,0,P|356:244|416:160,1,157.500006008148,2|0,0:0|0:0,0:0:0:0:
220,240,98910,2,0,P|180:256|152:296,1,78.7500030040742,2|0,0:0|0:0,0:0:0:0:
112,140,99456,6,0,P|144:164|185:167,1,78.7500030040742
76,284,100001,1,0,0:0:0:0:
76,284,100274,2,0,B|80:240|52:204,2,78.7500030040742,2|0|0,0:0|0:0|0:0,0:0:0:0:
112,140,101092,2,0,P|136:108|172:96,1,78.7500030040742,2|0,0:0|0:0,0:0:0:0:
324,132,101638,6,0,P|284:180|192:180,1,157.500006008148
205,21,102456,2,0,L|232:96,1,78.7500030040742,2|0,0:0|0:0,0:0:0:0:
216,207,103001,6,0,B|220:173|237:140|274:123|274:123|232:96,1,157.5,0|0,0:0|0:0,0:0:0:0:
96,356,104365,37,0,0:0:0:0:
96,356,104638,2,0,L|144:288,1,84
4,240,105183,2,0,L|64:156,1,94.499997116089
112,104,105728,1,0,0:2:0:0:
112,104,106001,38,0,P|184:160|272:103,1,210,2|8,0:0|0:0,0:0:0:0:
192,76,106819,1,0,0:0:0:0:
368,76,107092,1,0,0:0:0:0:
368,76,107229,1,0,0:0:0:0:
367,76,107365,1,0,0:0:0:0:
288,224,107638,1,4,0:0:0:0:
324,152,107910,5,0,0:0:0:0:
324,152,108047,1,0,0:0:0:0:
324,152,108183,2,0,P|268:144|224:176,1,105,2|0,0:0|0:0,0:0:0:0:
120,292,108729,1,8,0:0:0:0:
152,152,109001,2,0,L|176:40,1,105,2|0,0:0|0:0,0:0:0:0:
220,212,109547,2,0,L|197:314,1,105
152,152,110092,5,0,0:0:0:0:
292,256,110365,1,2,0:0:0:0:
116,308,110638,1,0,0:0:0:0:
260,144,110910,1,8,0:0:0:0:
148,232,111183,2,0,P|96:208|72:164,1,105,0|0,0:0|0:0,0:0:0:0:
224,248,111729,2,0,P|272:276|292:324,1,105,0|4,0:0|0:0,0:0:0:0:
116,308,112274,5,0,0:0:0:0:
292,320,112547,1,2,0:0:0:0:
236,164,112819,1,0,0:0:0:0:
204,332,113092,1,8,0:0:0:0:
156,172,113365,2,0,P|216:84|304:120,1,210
156,172,114183,2,0,P|104:168|64:128,1,105,0|0,0:0|0:0,0:0:0:0:
196,24,114729,5,2,0:0:0:0:
68,132,115001,1,0,0:0:0:0:
140,284,115274,1,8,0:0:0:0:
40,212,115547,1,2,0:0:0:0:
40,212,115683,1,0,0:0:0:0:
40,212,115819,2,0,P|88:212|140:176,1,105
304,184,116365,2,0,P|264:148|212:140,1,105,4|0,0:0|0:0,0:0:0:0:
320,268,116910,6,0,P|360:303|411:311,1,105,2|0,0:0|0:0,0:0:0:0:
488,284,117456,1,8,0:0:0:0:
424,144,117729,1,0,0:0:0:0:
320,268,118001,2,0,P|276:304|224:312,1,105
92,236,118547,1,0,0:0:0:0:
172,372,118819,1,0,0:0:0:0:
180,216,119092,6,0,P|220:176|272:168,2,105,2|0|8,0:0|0:0|0:0,0:0:0:0:
336,212,119910,2,0,P|352:164|328:104,1,105,2|0,0:0|0:0,0:0:0:0:
264,256,120456,2,0,P|308:292|368:288,1,105,0|4,0:0|0:0,0:0:0:0:
260,168,121001,1,0,0:0:0:0:
192,304,121274,1,2,0:0:0:0:
336,212,121547,1,0,0:0:0:0:
184,216,121819,1,8,0:0:0:0:
272,352,122092,6,0,P|324:328|352:280,1,105,2|0,0:0|0:0,0:0:0:0:
156,300,122638,2,0,P|108:280|80:228,1,105
112,140,123183,1,0,0:0:0:0:
112,140,123319,1,0,0:0:0:0:
112,140,123456,6,0,P|216:176|244:276,1,210,2|8,0:0|0:0,0:0:0:0:
136,252,124274,1,2,0:0:0:0:
328,156,124547,1,0,0:0:0:0:
112,140,124819,1,0,0:0:0:0:
276,264,125092,1,4,0:0:0:0:
232,48,125365,1,0,0:0:0:0:
156,64,125638,6,0,P|184:108|232:125,1,105,2|0,0:0|0:0,0:0:0:0:
400,104,126183,1,8,0:0:0:0:
320,124,126456,1,2,0:0:0:0:
344,44,126729,1,0,0:0:0:0:
464,160,127001,1,0,0:0:0:0:
292,200,127274,1,4,0:0:0:0:
452,248,127547,1,0,0:0:0:0:
372,268,127819,6,0,P|376:212|420:176,1,105,2|0,0:0|0:0,0:0:0:0:
496,128,128365,2,0,L|388:96,1,105,8|2,0:0|0:0,0:0:0:0:
228,124,128910,2,0,L|328:153,1,105,0|0,0:0|0:0,0:0:0:0:
492,200,129456,1,4,0:0:0:0:
328,240,129729,1,0,0:0:0:0:
328,240,129865,1,0,0:0:0:0:
328,240,130001,6,0,P|280:252|224:304,1,105,2|0,0:0|0:0,0:0:0:0:
154,288,130547,2,0,P|176:238|212:204,1,105,8|2,0:0|0:0,0:0:0:0:
92,228,131092,2,0,P|78:275|95:350,2,105,0|0|4,0:0|0:0|0:0,0:0:0:0:
200,96,131910,1,0,0:0:0:0:
44,160,132183,6,0,P|96:148|148:168,1,105,2|0,0:0|0:0,0:0:0:0:
300,232,132729,1,8,0:0:0:0:
348,72,133001,1,2,0:0:0:0:
294,137,133274,2,0,P|251:165|200:160,1,105,0|0,0:0|0:0,0:0:0:0:
139,110,133819,2,0,P|183:82|239:94,1,105,4|0,0:0|0:0,0:0:0:0:
200,160,134365,6,0,P|156:188|100:180,1,105,2|0,0:0|0:0,0:0:0:0:
28,148,134910,1,8,0:0:0:0:
120,288,135183,1,2,0:0:0:0:
120,288,135319,1,0,0:0:0:0:
120,288,135456,2,0,P|184:244|256:268,1,157.5
292,292,136001,1,4,0:0:0:0:
348,128,136274,1,0,0:0:0:0:
320,208,136547,6,0,P|380:208|420:172,2,105,2|0|8,0:0|0:0|0:0,0:0:0:0:
185,109,137365,1,2,0:0:0:0:
236,267,137638,1,0,0:0:0:0:
287,110,137910,1,0,0:0:0:0:
152,208,138183,1,4,0:0:0:0:
320,208,138456,1,0,0:0:0:0:
185,109,138729,1,2,0:0:0:0:
320,208,139001,38,0,P|376:208|420:176,1,105,0|8,0:0|0:0,0:0:0:0:
196,212,139547,2,0,P|140:212|100:244,1,105,2|0,0:0|0:0,0:0:0:0:
320,208,140092,2,0,P|376:208|420:240,1,105,0|4,0:0|0:0,0:0:0:0:
196,212,140638,1,0,0:0:0:0:
196,212,140774,1,0,0:0:0:0:
196,212,140910,6,0,B|156:200|132:176|132:140|132:140|124:104|68:88|32:108,1,210
144,284,145311,22,0,B|244:276|244:276|292:364|388:372|444:316,1,315,0|0,0:0|0:0,0:0:0:0:
420,260,147220,2,0,B|382:246|314:187|322:130|414:75|457:180|409:230|326:225|292:213,1,315,2|0,0:0|0:0,0:0:0:0:
184,56,149674,6,0,P|260:64|320:128,1,157.5,2|0,0:0|0:0,0:0:0:0:
332,192,150765,2,0,B|344:216|332:252|304:288|304:288|384:252|460:284|488:356,1,315,0|0,0:0|0:0,0:0:0:0:
158,291,153492,5,0,0:0:0:0:
158,291,153765,2,0,B|213:303|245:287|245:287|253:287|253:287|253:279|253:279|261:279|261:279|261:287|261:287|269:287|269:287|301:303|349:291,1,210,2|0,0:0|0:0,0:0:0:0:
