osu file format v12

[General]
AudioFilename: Sincerity.mp3
AudioLeadIn: 0
PreviewTime: 104365
Countdown: 0
SampleSet: Normal
StackLeniency: 0.7
Mode: 0
LetterboxInBreaks: 0
WidescreenStoryboard: 0

[Editor]
Bookmarks: 33279,37915,47653,49834,96688,97097,102334,114744,123471,136289
DistanceSpacing: 0.8
BeatDivisor: 4
GridSize: 4

[Metadata]
Title:Today
TitleUnicode:Today
Artist:Halou
ArtistUnicode:Halou
Creator:Autumn
Version:Purity
Source:
Tags:alacat Hyouka Sincerity Umika AMV
BeatmapID:257891
BeatmapSetID:89995

[Difficulty]
HPDrainRate:4
CircleSize:3
OverallDifficulty:4
ApproachRate:5
SliderMultiplier:1.3
SliderTickRate:1

[Events]
//Background and Video events
0,0,"BG.jpg",0,0
Video,0,"Video.avi"
//Break Periods
2,141110,144111
//Storyboard Layer 0 (Background)
//Storyboard Layer 1 (Fail)
//Storyboard Layer 2 (Pass)
//Storyboard Layer 3 (Foreground)
//Storyboard Sound Samples
//Background Colour Transformations
3,100,163,162,255

[TimingPoints]
18729,545.454545454546,4,2,1,20,1,0
71092,-100,4,2,1,20,0,0
106001,-100,4,1,1,30,0,1
140638,-100,4,2,1,15,0,0
145311,545.454545454546,4,2,1,20,1,0
154583,-100,4,2,1,5,0,0

[Colours]
Combo1 : 255,255,140
Combo2 : 0,255,255
Combo3 : 255,128,255
Combo4 : 170,255,170
SliderBorder : 225,227,213

[HitObjects]
176,88,18729,6,0,L|324:88,1,130
352,112,19547,2,0,P|360:208|292:292,1,195,2|0,0:0|0:0,0:0:0:0:
252,284,20638,5,0,0:0:0:0:
212,252,20910,2,0,P|148:228|92:248,1,130,0|0,0:0|0:0,0:0:0:0:
52,280,21729,2,0,L|52:140,1,130,2|0,0:0|0:0,0:0:0:0:
52,96,22547,1,0,0:0:0:0:
156,100,23092,6,0,B|200:100|200:100|248:116|248:116|292:116,1,130
336,116,23910,1,2,0:0:0:0:
328,324,25001,5,0,0:0:0:0:
328,324,25274,2,0,B|296:336|268:324|244:312|244:312|192:312,1,130
148,316,26092,2,0,P|172:256|140:184,1,130,2|0,0:0|0:0,0:0:0:0:
116,156,26910,1,0,0:0:0:0:
76,60,27456,6,0,B|116:60|116:60|168:72|168:72|216:72,1,130
256,72,28274,1,2,0:0:0:0:
256,280,29365,5,0,0:0:0:0:
256,280,29638,2,0,P|292:244|388:244,1,130
416,252,30456,2,0,B|436:216|436:216|436:168|436:168|416:132,1,130,2|0,0:0|0:0,0:0:0:0:
380,96,31274,1,0,0:0:0:0:
280,116,31819,6,0,P|216:132|136:100,1,130
104,100,32638,2,0,B|104:140|104:140|84:180|84:180|84:248,1,130,2|0,0:0|0:0,0:0:0:0:
84,276,33456,1,0,0:0:0:0:
172,220,34001,6,0,P|236:196|296:224,1,130
292,272,34819,2,0,P|232:294|173:270,1,130,2|0,0:0|0:0,0:0:0:0:
172,220,35638,1,0,0:0:0:0:
272,188,36183,6,0,B|312:180|336:160|336:160|356:192|384:224|412:236|412:236|448:208|512:204,1,260
472,312,37819,2,0,B|428:332|392:332|392:332|332:308|300:264,2,195,2|0|0,0:0|0:0|0:0,0:0:0:0:
476,208,40001,1,0,0:0:0:0:
380,164,40547,2,0,P|316:152|252:164,1,130
256,268,41638,5,2,0:0:0:0:
360,268,42183,1,0,0:0:0:0:
448,324,42729,2,0,P|464:280|440:196,1,130
404,168,43547,2,0,B|368:136|288:152|256:212|256:212|216:164|156:160|112:196,1,325,2|0,0:0|0:0,0:0:0:0:
168,284,45456,1,0,0:0:0:0:
264,324,46001,2,0,P|328:348|384:324,1,130,2|0,0:0|0:0,0:0:0:0:
432,232,47092,6,0,B|368:208|324:244|324:244|328:196|292:144,1,195,0|2,0:0|0:0,0:0:0:0:
200,160,48456,1,0,0:0:0:0:
128,236,49001,1,2,0:0:0:0:
56,160,49547,1,0,0:0:0:0:
128,88,50092,2,0,L|184:40,1,65,0|0,0:0|0:0,0:0:0:0:
228,44,50638,2,0,P|296:52|348:104,1,130,2|0,0:0|0:0,0:0:0:0:
364,136,51456,1,0,0:0:0:0:
364,240,52001,5,0,0:0:0:0:
364,240,52274,2,0,L|364:376,2,130
312,252,53638,2,0,P|212:224|204:140,1,195,0|0,0:0|0:0,0:0:0:0:
220,96,54729,1,2,0:0:0:0:
320,120,55274,1,0,0:0:0:0:
396,192,55819,6,0,P|408:240|372:308,1,130,0|0,0:0|0:0,0:0:0:0:
320,308,56638,2,0,P|260:284|196:292,1,130,2|0,0:0|0:0,0:0:0:0:
148,316,57456,1,0,0:0:0:0:
68,248,58001,2,0,P|84:184|140:145,1,130
184,160,58819,2,0,B|236:188|236:188|288:156|288:156|380:156,1,195,2|0,0:0|0:0,0:0:0:0:
468,160,60183,6,0,L|468:244,2,65
452,112,61001,2,0,P|412:64|336:64,1,130,2|0,0:0|0:0,0:0:0:0:
300,76,61819,1,0,0:0:0:0:
260,108,62092,2,0,B|212:172|212:172|272:220|240:296,1,195,2|0,0:0|0:0,0:0:0:0:
224,320,63183,2,0,B|184:352|136:348|104:320|104:320|32:320,1,195,2|0,0:0|0:0,0:0:0:0:
40,216,64547,5,2,0:0:0:0:
144,216,65092,1,0,0:0:0:0:
144,112,65638,2,0,L|144:44,2,65,0|0|0,0:0|0:0|0:0,0:0:0:0:
184,148,66456,2,0,P|248:168|308:148,1,130,2|0,0:0|0:0,0:0:0:0:
372,68,67547,2,0,P|308:48|250:66,2,130,2|0|0,0:0|0:0|0:0,0:0:0:0:
448,140,69183,6,0,L|448:280,1,130
368,336,70274,2,0,P|332:296|260:276,1,130,2|0,0:0|0:0,0:0:0:0:
208,272,71092,2,0,B|156:257|96:292|96:292|112:208,1,195
108,112,72456,2,0,L|20:112,2,65,0|2|0,0:0|0:0|0:0,0:0:0:0:
168,112,73274,6,0,B|232:92|280:140|280:140|264:48,1,195
372,68,74638,2,0,L|440:48,2,65,0|2|0,0:0|0:0|0:0,0:0:0:0:
356,116,75456,2,0,P|332:172|360:236,1,130
388,272,76274,2,0,L|252:272,1,130
204,272,77092,1,2,0:0:0:0:
100,272,77638,6,0,B|32:272|32:272|72:192|20:140,1,195
132,124,79001,2,0,L|268:124,1,130
316,124,79819,2,0,L|316:60,2,65
364,148,80638,2,0,B|372:188|428:216|428:216|372:244|368:300,1,195,0|2,0:0|0:0,0:0:0:0:
276,336,82001,6,0,P|220:356|140:320,1,130
132,288,82819,2,0,P|156:232|124:168,1,130
84,144,83638,1,2,0:0:0:0:
84,92,83910,1,0,0:0:0:0:
120,56,84183,2,0,L|184:40,1,65
236,48,84729,6,0,P|332:80|420:44,1,195
468,52,85819,2,0,P|448:116|464:188,1,130
256,192,86501,12,0,88001,0:0:0:0:
168,140,88547,6,0,P|184:112|216:76,2,65,0|0|0,0:0|0:0|0:0,0:0:0:0:
144,184,89365,2,0,B|136:240|136:240|180:248|204:292,1,130
228,324,90183,1,2,0:0:0:0:
124,332,90729,6,0,L|56:332,2,65
156,288,91547,2,0,P|200:248|272:256,1,130
312,280,92365,1,2,0:0:0:0:
408,320,92910,6,0,L|472:356,2,65
400,268,93729,2,0,B|396:220|364:200|332:188|332:188|412:136,1,195,0|2,0:0|0:0,0:0:0:0:
320,80,95092,6,0,L|248:68,1,65
204,64,95638,1,0,0:0:0:0:
156,88,95910,2,0,P|160:147|112:208,1,130
76,228,96729,2,0,P|84:264|108:292,1,65,2|0,0:0|0:0,0:0:0:0:
140,320,97274,5,0,0:0:0:0:
188,336,97547,1,0,0:0:0:0:
240,336,97819,1,0,0:0:0:0:
292,328,98092,2,0,P|352:304|396:248,1,130
412,208,98910,6,0,L|428:116,1,65,2|0,0:0|0:0,0:0:0:0:
436,92,99456,2,0,L|504:64,2,65
384,80,100274,2,0,P|332:56|260:64,1,130
216,88,101092,2,0,P|192:116|172:156,1,65,2|0,0:0|0:0,0:0:0:0:
168,192,101638,5,0,0:0:0:0:
156,294,102183,1,0,0:0:0:0:
252,336,102729,1,0,0:0:0:0:
321,259,103274,1,0,0:0:0:0:
269,170,103819,1,0,0:0:0:0:
256,192,103956,12,0,105456,0:0:0:0:
396,240,106001,6,0,P|356:204|352:120,1,130,2|8,0:0|0:0,0:0:0:0:
376,88,106819,2,0,L|444:88,2,65,2|0|0,0:0|0:0|0:0,0:0:0:0:
324,88,107638,1,4,0:0:0:0:
220,92,108183,5,2,0:0:0:0:
172,112,108456,1,0,0:0:0:0:
136,152,108729,1,8,0:0:0:0:
112,196,109001,2,0,P|128:260|184:304,1,130,2|0,0:0|0:0,0:0:0:0:
220,328,109819,2,0,L|304:328,1,65,0|0,0:0|0:0,0:0:0:0:
336,328,110365,6,0,P|372:332|412:356,2,65,0|0|8,0:0|0:0|0:0,0:0:0:0:
336,276,111183,2,0,P|312:228|232:196,1,130,2|0,0:0|0:0,0:0:0:0:
196,176,112001,2,0,P|180:144|180:104,1,65,4|0,0:0|0:0,0:0:0:0:
204,68,112547,6,0,P|256:44|328:60,1,130,2|8,0:0|0:0,0:0:0:0:
376,72,113365,1,2,0:0:0:0:
428,84,113638,2,0,P|460:80|496:84,2,65,0|0|0,0:0|0:0|0:0,0:0:0:0:
372,172,114729,2,0,P|340:175|304:168,2,65,2|0|8,0:0|0:0|0:0,0:0:0:0:
404,272,115819,2,0,P|436:269|476:272,2,65,0|0|4,0:0|0:0|0:0,0:0:0:0:
304,292,116910,6,0,B|252:328|252:328|180:328,1,130,2|8,0:0|0:0,0:0:0:0:
136,328,117729,1,2,0:0:0:0:
92,304,118001,2,0,P|64:252|84:188,1,130,0|0,0:0|0:0,0:0:0:0:
116,148,118819,2,0,P|176:128|240:148,1,130
276,184,119638,1,8,0:0:0:0:
292,232,119910,6,0,P|360:288|444:232,1,195,0|8,0:0|0:0,0:0:0:0:
440,188,121001,1,0,0:0:0:0:
384,100,121547,2,0,L|312:100,1,65,0|8,0:0|0:0,0:0:0:0:
272,124,122092,2,0,B|248:136|216:136|187:114|187:114|116:108|90:143,1,195,2|8,0:0|0:0,0:0:0:0:
160,220,123456,6,0,B|176:252|216:272|216:272|280:272,1,130,2|8,0:0|0:0,0:0:0:0:
320,264,124274,1,0,0:0:0:0:
360,228,124547,2,0,P|360:168|308:120,1,130,0|4,0:0|0:0,0:0:0:0:
216,164,125638,5,2,0:0:0:0:
168,148,125910,1,2,0:0:0:0:
136,108,126183,1,8,0:0:0:0:
100,72,126456,2,0,L|56:204,1,130,2|0,0:0|0:0,0:0:0:0:
44,244,127274,2,0,P|52:284|76:312,1,65,4|0,0:0|0:0,0:0:0:0:
116,312,127819,6,0,L|188:312,1,65,2|0,0:0|0:0,0:0:0:0:
232,312,128365,1,8,0:0:0:0:
284,312,128638,2,0,B|256:284|256:244|292:196|292:196|220:196,1,195,2|4,0:0|0:0,0:0:0:0:
180,104,130001,6,0,L|312:104,1,130,2|8,0:0|0:0,0:0:0:0:
360,96,130819,2,0,L|420:44,2,65,2|0|0,0:0|0:0|0:0,0:0:0:0:
348,148,131638,1,4,0:0:0:0:
372,192,131910,1,0,0:0:0:0:
416,220,132183,2,0,L|492:220,2,65,2|0|8,0:0|0:0|0:0,0:0:0:0:
396,268,133001,2,0,B|368:300|308:304|308:304|208:304,1,195,2|4,0:0|0:0,0:0:0:0:
108,300,134365,6,0,L|152:240,1,65,2|0,0:0|0:0,0:0:0:0:
148,196,134910,2,0,L|232:184,1,65,8|2,0:0|0:0,0:0:0:0:
264,180,135456,2,0,P|316:208|336:272,1,130,0|4,0:0|0:0,0:0:0:0:
320,324,136274,1,0,0:0:0:0:
372,324,136547,6,0,B|408:324|408:324|448:300|448:300|496:300,1,130,2|8,0:0|0:0,0:0:0:0:
496,196,137638,2,0,B|448:196|448:196|412:172|412:172|372:172,1,130,0|4,0:0|0:0,0:0:0:0:
320,172,138456,2,0,B|244:172|244:172|276:228|244:288,1,195,0|8,0:0|0:0,0:0:0:0:
208,324,139547,5,0,0:0:0:0:
156,232,140092,1,0,0:0:0:0:
104,140,140638,2,0,L|169:140,1,65
148,124,145311,6,0,B|224:116|256:60|256:60|288:116|368:128,1,260,2|0,0:0|0:0,0:0:0:0:
460,160,146947,1,0,0:0:0:0:
440,208,147220,2,0,B|404:244|360:244|360:244|320:244,1,130,2|0,0:0|0:0,0:0:0:0:
232,188,148311,2,0,B|260:155|312:148|312:148|352:148,1,130,2|0,0:0|0:0,0:0:0:0:
268,280,149674,6,0,P|184:316|92:280,1,195,2|0,0:0|0:0,0:0:0:0:
92,228,150765,2,0,P|179:191|267:228,1,195
168,292,153492,5,0,0:0:0:0:
168,292,153765,2,0,B|216:304|256:336|256:336|292:304|344:292,1,195,2|0,0:0|0:0,0:0:0:0:
