osu file format v12

[General]
AudioFilename: Sincerity.mp3
AudioLeadIn: 0
PreviewTime: 104365
Countdown: 0
SampleSet: Soft
StackLeniency: 0.7
Mode: 0
LetterboxInBreaks: 0
WidescreenStoryboard: 0

[Editor]
DistanceSpacing: 0.8
BeatDivisor: 4
GridSize: 4

[Metadata]
Title:Today
TitleUnicode:Today
Artist:Halou
ArtistUnicode:Halou
Creator:Autumn
Version:Alacatty
Source:
Tags:alacat Hyouka Sincerity Umika AMV
BeatmapID:256464
BeatmapSetID:89995

[Difficulty]
HPDrainRate:3
CircleSize:3
OverallDifficulty:3
ApproachRate:4
SliderMultiplier:1.2
SliderTickRate:1

[Events]
//Background and Video events
0,0,"BG.jpg",0,0
Video,0,"Video.avi"
//Break Periods
//Storyboard Layer 0 (Background)
//Storyboard Layer 1 (Fail)
//Storyboard Layer 2 (Pass)
//Storyboard Layer 3 (Foreground)
//Storyboard Sound Samples
//Background Colour Transformations
3,100,163,162,255

[TimingPoints]
18729,545.454545454546,4,2,1,30,1,0
53638,-100,4,2,1,40,0,0
86365,-100,4,2,1,30,0,0
88001,-100,4,2,1,20,0,0
88547,-100,4,2,1,40,0,0
104365,-100,4,2,1,30,0,0
106001,-100,4,1,1,50,0,1
140638,-100,4,2,1,40,0,0
142001,-100,4,2,1,5,0,0
143092,-100,4,2,1,30,0,0
145311,545.454545454546,4,2,1,20,1,0
146947,-100,4,2,1,30,0,0
149674,-100,4,2,1,20,0,0
151311,-100,4,2,1,30,0,0
153765,-100,4,2,1,20,0,0
154856,-100,4,2,1,10,0,0

[Colours]
Combo1 : 255,255,140
Combo2 : 0,255,255
Combo3 : 255,128,255
Combo4 : 170,255,170
SliderBorder : 225,227,213

[HitObjects]
256,192,18729,12,2,20910,0:0:0:0:
324,244,22001,5,0,0:0:0:0:
132,232,23092,2,0,B|88:184|116:120|116:120|44:112|28:52,2,240,2|0|2,0:0|0:0|0:0,0:0:0:0:
288,344,26365,5,0,0:0:0:0:
456,252,27456,2,0,P|452:140|344:108,1,240,2|0,0:0|0:0,0:0:0:0:
188,224,29638,6,0,P|286:278|369:202,2,240,2|0|2,0:0|0:0|0:0,0:0:0:0:
88,60,32910,1,0,0:0:0:0:
16,236,34001,6,0,P|50:342|163:343,1,240,2|0,0:0|0:0,0:0:0:0:
332,252,36183,6,0,B|388:232|440:252|440:252|488:208|476:132,1,240,2|0,0:0|0:0,0:0:0:0:
420,56,37819,2,0,P|360:40|304:48,1,120,0|2,0:0|0:0,0:0:0:0:
152,168,39456,2,0,L|168:288,1,120
232,356,40547,5,2,0:0:0:0:
68,260,41638,2,0,L|52:141,1,120
92,56,42729,6,0,P|208:36|300:108,1,240,2|0,0:0|0:0,0:0:0:0:
324,200,44365,1,0,0:0:0:0:
276,284,44910,2,0,P|380:280|412:164,2,240,2|0|2,0:0|0:0|0:0,0:0:0:0:
172,124,48183,5,0,0:0:0:0:
8,224,49274,1,2,0:0:0:0:
152,348,50365,2,0,P|140:288|144:228,1,120
232,188,51456,6,0,B|292:212|352:200|352:200|380:140|364:80,1,240,2|0,0:0|0:0,0:0:0:0:
280,44,53092,1,0,0:0:0:0:
192,80,53638,6,0,B|112:104|32:56|32:56|52:128,1,240,2|0,0:0|0:0,0:0:0:0:
80,220,55274,1,0,0:0:0:0:
124,304,55819,2,0,B|180:320|244:300|244:300|304:284|364:308,1,240,2|0,0:0|0:0,0:0:0:0:
448,344,57456,1,0,0:0:0:0:
512,272,58001,6,0,L|492:152,2,120,2|0|0,0:0|0:0|0:0,0:0:0:0:
328,216,60183,2,0,P|243:134|128:158,1,240,2|0,0:0|0:0,0:0:0:0:
108,248,61819,1,0,0:0:0:0:
12,244,62365,6,0,P|-4:128|96:68,2,240,2|0|2,0:0|0:0|0:0,0:0:0:0:
196,304,65638,2,0,P|244:268|304:272,1,120,0|0,0:0|0:0,0:0:0:0:
392,308,66729,6,0,P|484:348|472:248,1,240,2|0,0:0|0:0,0:0:0:0:
384,212,68365,1,0,0:0:0:0:
304,160,68910,2,0,P|284:100|292:44,2,120,2|0|0,0:0|0:0|0:0,0:0:0:0:
388,116,70547,1,0,0:0:0:0:
472,164,71092,6,0,B|500:292|500:292|488:344,2,180,2|0|2,0:0|0:0|0:0,0:0:0:0:
388,116,73274,6,0,P|328:128|268:116,1,120,2|0,0:0|0:0,0:0:0:0:
232,92,74092,2,0,P|152:56|60:68,1,180,2|0,0:0|0:0,0:0:0:0:
24,156,75456,2,0,B|40:248|40:248|60:272,1,120,2|0,0:0|0:0,0:0:0:0:
92,300,76274,1,2,0:0:0:0:
184,324,76819,2,0,L|248:320,1,60,0|2,0:0|0:0,0:0:0:0:
328,276,77638,6,0,B|448:268|448:268|508:280,2,180,2|2|0,0:0|0:0|0:0,0:0:0:0:
244,228,79819,2,0,P|200:188|192:128,1,120,2|0,0:0|0:0,0:0:0:0:
212,88,80638,1,2,0:0:0:0:
296,40,81183,2,0,L|356:44,1,60,0|2,0:0|0:0,0:0:0:0:
432,104,82001,6,0,P|456:160|448:220,1,120,2|0,0:0|0:0,0:0:0:0:
424,256,82819,2,0,P|340:304|256:304,1,180,2|0,0:0|0:0,0:0:0:0:
176,256,84183,2,0,P|120:280|88:328,2,120,2|0|2,0:0|0:0|0:0,0:0:0:0:
260,212,85819,1,0,0:0:0:0:
352,236,86365,6,0,P|484:176|356:108,1,360,2|0,0:0|0:0,0:0:0:0:
260,112,88547,6,0,L|140:96,1,120,2|0,0:0|0:0,0:0:0:0:
92,88,89365,2,0,P|20:148|32:228,1,180,2|0,0:0|0:0,0:0:0:0:
88,304,90729,2,0,B|180:288|180:288|204:268,1,120,2|0,0:0|0:0,0:0:0:0:
232,236,91547,1,2,0:0:0:0:
308,176,92092,2,0,L|296:116,1,60,0|2,0:0|0:0,0:0:0:0:
228,52,92911,6,0,B|108:44|108:44|48:56,2,180,2|2|0,0:0|0:0|0:0,0:0:0:0:
320,76,95092,1,2,0:0:0:0:
400,128,95638,1,0,0:0:0:0:
400,128,95910,2,0,B|432:168|476:172|476:172|456:264,1,180,2|0,0:0|0:0,0:0:0:0:
396,336,97274,6,0,P|340:360|280:352,1,120,2|0,0:0|0:0,0:0:0:0:
240,332,98092,2,0,P|184:252|188:172,1,180,2|0,0:0|0:0,0:0:0:0:
256,108,99456,6,0,L|376:84,2,120,2|0|2,0:0|0:0|0:0,0:0:0:0:
164,76,101092,1,0,0:0:0:0:
68,68,101638,2,0,P|16:168|104:236,1,240,2|2,0:0|0:0,0:0:0:0:
192,212,103274,1,0,0:0:0:0:
256,284,103819,5,2,0:0:0:0:
352,288,104365,2,0,P|436:220|384:120,1,240
308,64,106001,6,0,P|216:56|128:72,2,180,2|2|4,0:0|0:0|0:0,0:0:0:0:
400,32,108183,2,0,L|440:148,1,120,2|0,0:0|0:0,0:0:0:0:
456,192,109001,2,0,P|412:272|328:288,1,180,2|4,0:0|0:0,0:0:0:0:
244,328,110365,6,0,B|164:308|164:308|124:316,1,120,2|0,0:0|0:0,0:0:0:0:
84,332,111183,1,2,0:0:0:0:
24,256,111729,2,0,L|40:196,1,60,2|4,0:0|0:0,0:0:0:0:
72,108,112547,2,0,P|132:92|188:104,1,120,2|0,0:0|0:0,0:0:0:0:
220,140,113365,2,0,B|248:220|248:220|288:248|340:224,1,180,2|4,0:0|0:0,0:0:0:0:
428,192,114729,6,0,P|476:272|436:340,2,180,2|2|4,0:0|0:0|0:0,0:0:0:0:
352,136,116910,1,2,0:0:0:0:
260,164,117456,1,0,0:0:0:0:
260,164,117729,2,0,B|188:172|148:104|148:104|104:116,1,180,2|4,0:0|0:0,0:0:0:0:
32,180,119092,6,0,P|36:244|68:292,1,120,2|0,0:0|0:0,0:0:0:0:
108,312,119910,2,0,P|200:304|280:336,1,180,2|4,0:0|0:0,0:0:0:0:
368,300,121274,2,0,P|424:324|484:324,2,120,2|0|0,0:0|0:0|0:0,0:0:0:0:
340,208,122910,1,4,0:0:0:0:
248,188,123456,6,0,P|228:136|244:76,1,120,2|0,0:0|0:0,0:0:0:0:
276,40,124274,2,0,P|364:24|440:72,1,180,2|4,0:0|0:0,0:0:0:0:
488,152,125638,1,2,0:0:0:0:
452,240,126183,1,0,0:0:0:0:
452,240,126456,2,0,P|360:256|300:320,1,180,2|4,0:0|0:0,0:0:0:0:
208,328,127819,6,0,P|116:328|60:268,2,180,2|2|4,0:0|0:0|0:0,0:0:0:0:
268,252,130001,2,0,L|292:132,1,120,2|0,0:0|0:0,0:0:0:0:
268,92,130819,1,2,0:0:0:0:
184,44,131365,2,0,L|124:56,1,60,2|4,0:0|0:0,0:0:0:0:
48,112,132183,6,0,P|24:200|52:284,2,180,2|2|4,0:0|0:0|0:0,0:0:0:0:
140,136,134365,2,0,P|200:140|256:120,1,120,2|0,0:0|0:0,0:0:0:0:
296,96,135183,2,0,P|384:96|444:164,1,180,2|4,0:0|0:0,0:0:0:0:
456,256,136547,6,0,P|400:280|340:272,1,120,2|0,0:0|0:0,0:0:0:0:
252,304,137638,2,0,P|205:264|186:206,1,120,2|4,0:0|0:0,0:0:0:0:
200,116,138729,2,0,P|108:92|24:116,2,180,2|2|0,0:0|0:0|0:0,0:0:0:0:
256,192,140638,12,0,142001,0:0:0:0:
256,328,143092,6,0,P|320:336|364:308,1,120,2|0,0:0|0:0,0:0:0:0:
424,232,144183,2,0,L|400:112,1,120
332,48,145274,1,2,0:0:0:0:
176,296,146947,5,0,0:0:0:0:
84,264,147492,2,0,P|36:204|48:104,2,180,2|2|0,0:0|0:0|0:0,0:0:0:0:
160,204,149674,6,0,P|256:156|380:192,1,240,2|0,0:0|0:0,0:0:0:0:
440,264,151311,2,0,L|428:324,1,60,2|0,0:0|0:0,0:0:0:0:
188,88,153492,5,0,0:0:0:0:
188,88,153765,2,0,B|172:148|172:148|256:216|224:308,1,240,2|0,0:0|0:0,0:1:0:0:
