osu file format v12

[General]
AudioFilename: Dustblown Travels.mp3
AudioLeadIn: 0
PreviewTime: 11919
Countdown: 0
SampleSet: Soft
StackLeniency: 0.5
Mode: 0
LetterboxInBreaks: 1
WidescreenStoryboard: 1

[Editor]
DistanceSpacing: 1
BeatDivisor: 4
GridSize: 8
TimelineZoom: 1

[Metadata]
Title:Dustblown Travels
TitleUnicode:Dustblown Travels
Artist:HalcyonicFalconX
ArtistUnicode:HalcyonicFalconX
Creator:Johuan
Version:Natalie
Source:Epic Battle Fantasy 4
Tags:Epic Battle Fantasy Video Game
BeatmapID:376508
BeatmapSetID:135273

[Difficulty]
HPDrainRate:4
CircleSize:4
OverallDifficulty:4
ApproachRate:7
SliderMultiplier:1.40000000596046
SliderTickRate:1

[Events]
//Background and Video events
0,0,"desertresort.png",0,0
//Break Periods
//Storyboard Layer 0 (Background)
//Storyboard Layer 1 (Fail)
//Storyboard Layer 2 (Pass)
//Storyboard Layer 3 (Foreground)
//Storyboard Sound Samples
//Background Colour Transformations
3,100,163,162,255

[TimingPoints]
1205,444.444444444444,4,2,0,50,1,0
1205,-133.333333333333,4,2,0,20,0,0
10847,267.857142857143,4,2,0,20,1,0
10847,-133.333333333333,4,2,0,20,0,0
46472,-100,4,2,0,20,0,1
63280,-100,4,2,0,50,0,0
97499,-100,4,2,0,20,0,0
106071,-100,4,2,0,5,0,0

[Colours]
Combo1 : 253,253,0
Combo2 : 71,207,5
Combo3 : 255,140,26
Combo4 : 239,14,48

[HitObjects]
256,88,1205,5,0,0:0:0:0:
168,192,1649,1,0,0:0:0:0:
256,288,2093,1,0,0:0:0:0:
352,192,2538,1,0,0:0:0:0:
224,88,2982,1,0,0:0:0:0:
168,224,3427,1,0,0:0:0:0:
288,288,3871,1,0,0:0:0:0:
360,160,4316,1,0,0:0:0:0:
192,88,4760,1,0,0:0:0:0:
168,256,5205,1,0,0:0:0:0:
320,288,5649,1,0,0:0:0:0:
360,128,6093,1,0,0:0:0:0:
160,88,6538,1,0,0:0:0:0:
168,296,6982,1,0,0:0:0:0:
360,288,7427,1,0,0:0:0:0:
360,88,7871,1,0,0:0:0:0:
256,192,8316,12,8,10538,0:0:0:0:
344,80,11919,5,0,0:0:0:0:
296,136,12187,1,0,0:0:0:0:
248,192,12455,1,0,0:0:0:0:
200,240,12722,1,8,0:0:0:0:
152,240,12856,1,0,0:0:0:0:
112,240,12989,2,0,B|64:184|128:184|88:120,3,105.000004452467,0|0|0|8,0:0|0:0|0:0|0:0,0:0:0:0:
184,64,14062,5,0,0:0:0:0:
216,96,14196,1,0,0:0:0:0:
240,128,14330,1,0,0:0:0:0:
240,208,14597,1,0,0:0:0:0:
160,248,14865,1,8,0:0:0:0:
240,288,15133,1,0,0:0:0:0:
160,328,15401,1,0,0:0:0:0:
240,360,15669,2,0,L|360:328,1,105.000004452467,0|8,0:0|0:0,0:0:0:0:
472,256,16205,6,0,P|472:184|432:152,1,105.000004452467
408,224,16740,2,0,P|408:296|440:328,1,105.000004452467,0|8,0:0|0:0,0:0:0:0:
352,336,17276,2,0,P|328:280|336:216,1,105.000004452467
320,200,17678,1,0,0:0:0:0:
296,160,17812,1,0,0:0:0:0:
240,96,18080,1,8,0:0:0:0:
144,96,18347,5,0,0:0:0:0:
64,160,18615,1,0,0:0:0:0:
64,248,18883,1,0,0:0:0:0:
152,312,19151,1,8,0:0:0:0:
256,304,19419,1,0,0:0:0:0:
240,184,19687,1,0,0:0:0:0:
136,192,19955,1,0,0:0:0:0:
152,312,20222,1,8,0:0:0:0:
256,304,20490,5,0,0:0:0:0:
368,272,20758,1,0,0:0:0:0:
400,232,20892,1,0,0:0:0:0:
416,184,21026,1,0,0:0:0:0:
416,96,21294,1,8,0:0:0:0:
352,40,21562,2,0,L|224:40,1,105.000004452467
208,72,21963,1,0,0:0:0:0:
176,96,22097,2,0,L|56:96,1,105.000004452467,0|8,0:0|0:0,0:0:0:0:
40,192,22632,5,0,0:0:0:0:
96,288,22900,1,0,0:0:0:0:
224,288,23168,1,0,0:0:0:0:
288,192,23436,1,8,0:0:0:0:
288,288,23704,1,0,0:0:0:0:
224,192,23972,1,0,0:0:0:0:
96,192,24239,1,0,0:0:0:0:
40,288,24507,1,8,0:0:0:0:
160,288,24775,5,0,0:0:0:0:
96,192,25043,1,0,0:0:0:0:
224,192,25311,1,0,0:0:0:0:
160,104,25579,1,8,0:0:0:0:
280,104,25847,2,0,L|344:104,2,52.5000022262334,0|0|8,0:0|0:0|0:0,0:0:0:0:
280,192,26382,1,0,0:0:0:0:
280,280,26650,6,0,L|352:280,2,52.5000022262334,0|0|0,0:0|0:0|0:0,0:0:0:0:
240,272,27052,1,0,0:0:0:0:
208,248,27186,1,0,0:0:0:0:
104,152,27454,1,0,0:0:0:0:
160,72,27722,1,8,0:0:0:0:
256,24,27989,1,0,0:0:0:0:
352,72,28257,1,0,0:0:0:0:
408,152,28525,1,0,0:0:0:0:
256,168,28793,1,8,0:0:0:0:
248,256,29061,6,0,L|120:256,1,105.000004452467
112,248,29463,2,0,P|80:216|72:192,1,52.5000022262334
112,96,29864,1,8,0:0:0:0:
144,96,29998,1,0,0:0:0:0:
176,96,30132,1,0,0:0:0:0:
312,80,30400,1,0,0:0:0:0:
312,112,30534,1,0,0:0:0:0:
312,152,30668,1,0,0:0:0:0:
312,256,30936,1,8,0:0:0:0:
256,160,31204,2,0,B|272:112|240:96|256:56,1,105.000004452467
224,192,31739,2,0,B|176:208|160:176|112:192,1,105.000004452467,0|8,0:0|0:0,0:0:0:0:
256,224,32275,2,0,B|240:272|272:288|256:336,1,105.000004452467
288,192,32811,2,0,B|352:168|352:208|408:192,1,105.000004452467,0|8,0:0|0:0,0:0:0:0:
384,192,33347,6,0,P|400:168|384:136,1,52.5000022262334
328,152,33614,2,0,P|329:123|299:103,1,52.5000022262334
256,136,33882,2,0,P|243:110|207:108,1,52.5000022262334
192,160,34150,2,0,P|167:144|136:161,1,52.5000022262334,8|0,0:0|0:0,0:0:0:0:
112,224,34418,1,0,0:0:0:0:
120,280,34552,1,0,0:0:0:0:
128,336,34686,1,0,0:0:0:0:
256,328,34954,1,0,0:0:0:0:
248,272,35088,1,0,0:0:0:0:
240,216,35222,1,8,0:0:0:0:
368,264,35489,6,0,B|416:192|368:192|416:224|392:176|368:224|448:176,1,105.000004452467
352,136,36025,2,0,B|304:200|352:200|280:152,1,105.000004452467,0|8,0:0|0:0,0:0:0:0:
144,176,36561,2,0,P|96:136|112:80,1,105.000004452467
160,112,36963,1,0,0:0:0:0:
176,48,37097,2,0,P|223:87|207:144,1,105.000004452467,0|8,0:0|0:0,0:0:0:0:
312,200,37632,6,0,P|376:184|416:144,3,105.000004452467,0|0|0|8,0:0|0:0|0:0|0:0,0:0:0:0:
416,128,38570,1,0,0:0:0:0:
408,96,38704,2,0,P|384:48|328:48,3,105.000004452467,0|0|0|8,0:0|0:0|0:0|0:0,0:0:0:0:
256,112,39775,2,0,L|128:112,1,105.000004452467
48,232,40311,2,0,L|160:232,1,105.000004452467,0|8,0:0|0:0,0:0:0:0:
360,232,40847,2,0,L|232:232,1,105.000004452467
168,216,41382,1,0,0:0:0:0:
136,120,41650,1,8,0:0:0:0:
256,56,41918,5,0,0:0:0:0:
160,192,42186,1,0,0:0:0:0:
352,192,42454,1,0,0:0:0:0:
256,312,42722,1,8,0:0:0:0:
128,312,42989,1,0,0:0:0:0:
128,192,43257,1,0,0:0:0:0:
256,192,43525,1,0,0:0:0:0:
256,312,43793,1,8,0:0:0:0:
392,312,44061,5,0,0:0:0:0:
392,192,44329,1,0,0:0:0:0:
256,192,44597,1,0,0:0:0:0:
256,64,44864,1,8,0:0:0:0:
160,64,45132,2,0,L|112:112,1,52.5000022262334
96,128,45400,1,0,0:0:0:0:
64,160,45534,2,0,L|64:224,1,52.5000022262334
152,280,45936,1,4,0:0:0:0:
288,336,46204,1,0,0:0:0:0:
256,192,46472,5,0,0:0:0:0:
344,192,46739,1,0,0:0:0:0:
432,200,47007,2,0,P|480:248|432:288,1,140.000000596046
344,288,47543,1,0,0:0:0:0:
256,192,47811,1,0,0:0:0:0:
224,160,47945,1,0,0:0:0:0:
256,128,48079,1,8,0:0:0:0:
152,56,48347,5,0,0:0:0:0:
104,56,48480,1,8,0:0:0:0:
56,152,48748,1,0,0:0:0:0:
96,152,48882,1,8,0:0:0:0:
152,240,49150,1,0,0:0:0:0:
112,240,49284,1,8,0:0:0:0:
248,312,49552,1,0,0:0:0:0:
288,312,49686,1,0,0:0:0:0:
328,312,49820,1,0,0:0:0:0:
368,312,49954,2,0,P|416:264|384:184,1,140.000000596046
344,80,50489,5,0,0:0:0:0:
288,80,50623,1,8,0:0:0:0:
256,168,50891,2,0,L|184:160,1,70.000000298023,0|8,0:0|0:0,0:0:0:0:
192,256,51293,2,0,L|112:232,1,70.000000298023,0|8,0:0|0:0,0:0:0:0:
64,112,51829,1,0,0:0:0:0:
128,48,52097,1,0,0:0:0:0:
208,40,52364,1,0,0:0:0:0:
336,120,52632,1,0,0:0:0:0:
336,160,52766,1,8,0:0:0:0:
240,168,53034,1,0,0:0:0:0:
240,128,53168,1,8,0:0:0:0:
144,136,53436,1,0,0:0:0:0:
144,176,53570,1,8,0:0:0:0:
256,192,53838,12,8,54507,0:0:0:0:
480,240,54775,6,0,B|336:320|280:360|256:248|368:192|96:264,1,420.000001788138
104,144,55847,2,0,B|248:120|248:120|288:40|192:8|168:56|168:56|192:192,1,420.000001788138,0|8,0:0|0:0,0:0:0:0:
400,40,56918,2,0,B|480:144|472:208|456:256|416:312|360:312|360:312|264:304|224:232|216:152|232:80,1,630.000002682207
232,56,58257,1,0,0:0:0:0:
208,32,58391,1,0,0:0:0:0:
168,24,58525,1,0,0:0:0:0:
88,96,58793,1,8,0:0:0:0:
256,192,59061,12,8,60668,0:0:0:0:
144,216,61204,5,0,0:0:0:0:
184,216,61338,1,8,0:0:0:0:
248,80,61605,1,0,0:0:0:0:
200,80,61739,1,8,0:0:0:0:
264,216,62007,1,0,0:0:0:0:
304,216,62141,1,8,0:0:0:0:
400,88,62409,1,0,0:0:0:0:
432,120,62543,1,0,0:0:0:0:
448,152,62677,1,0,0:0:0:0:
456,192,62811,1,0,0:0:0:0:
456,224,62945,1,0,0:0:0:0:
448,256,63079,1,4,0:0:0:0:
128,208,63347,6,0,L|128:112,1,70.000000298023
192,136,63748,2,0,L|192:232,1,70.000000298023
152,304,64150,1,8,0:0:0:0:
256,320,64418,1,0,0:0:0:0:
360,288,64686,1,0,0:0:0:0:
432,216,64954,1,0,0:0:0:0:
448,128,65222,1,8,0:0:0:0:
416,40,65489,5,0,0:0:0:0:
376,48,65623,2,0,L|224:48,1,140.000000596046
208,72,66025,2,0,L|208:144,1,70.000000298023
192,176,66293,1,8,0:0:0:0:
96,208,66561,2,0,L|96:152,4,35.0000001490115
120,296,67097,1,0,0:0:0:0:
160,320,67230,1,0,0:0:0:0:
200,328,67364,1,8,0:0:0:0:
296,168,67632,6,0,L|352:112,1,70.000000298023
256,144,67900,2,0,L|256:72,1,70.000000298023
216,168,68168,2,0,L|160:112,1,70.000000298023
216,200,68436,2,0,L|152:248,1,70.000000298023,8|0,0:0|0:0,0:0:0:0:
256,224,68704,2,0,L|256:304,1,70.000000298023
288,208,68972,2,0,L|344:264,1,70.000000298023
376,264,69239,2,0,L|456:248,1,70.000000298023
456,208,69507,2,0,L|448:128,1,70.000000298023,8|0,0:0|0:0,0:0:0:0:
400,64,69775,5,0,0:0:0:0:
352,48,69909,1,0,0:0:0:0:
312,64,70043,1,0,0:0:0:0:
232,88,70311,2,0,L|152:96,2,70.000000298023,0|0|8,0:0|0:0|0:0,0:0:0:0:
88,160,70847,2,0,P|48:216|80:288,1,140.000000596046
88,304,71248,2,0,L|144:360,1,70.000000298023
224,272,71650,1,8,0:0:0:0:
256,192,71918,5,0,0:0:0:0:
256,192,72052,1,0,0:0:0:0:
256,192,72186,1,0,0:0:0:0:
384,192,72454,1,0,0:0:0:0:
256,80,72722,1,8,0:0:0:0:
256,192,72989,1,0,0:0:0:0:
256,192,73123,1,0,0:0:0:0:
256,192,73257,1,0,0:0:0:0:
128,192,73525,2,0,P|72:128|88:56,1,140.000000596046,0|8,0:0|0:0,0:0:0:0:
192,64,74061,5,0,0:0:0:0:
256,80,74195,1,0,0:0:0:0:
320,96,74329,1,0,0:0:0:0:
424,144,74597,2,0,L|432:224,2,70.000000298023,0|0|8,0:0|0:0|0:0,0:0:0:0:
336,224,75132,2,0,L|240:224,2,70.000000298023
360,256,75534,1,0,0:0:0:0:
344,296,75668,1,0,0:0:0:0:
312,320,75802,1,0,0:0:0:0:
272,328,75936,1,8,0:0:0:0:
152,272,76204,5,0,0:0:0:0:
152,272,76338,1,0,0:0:0:0:
152,272,76472,1,0,0:0:0:0:
152,144,76739,1,0,0:0:0:0:
152,144,76873,1,0,0:0:0:0:
152,144,77007,1,8,0:0:0:0:
216,48,77275,2,0,P|272:48|344:104,1,140.000000596046
352,128,77677,1,0,0:0:0:0:
360,168,77811,1,0,0:0:0:0:
360,168,77945,1,0,0:0:0:0:
360,168,78079,1,8,0:0:0:0:
272,272,78347,6,0,P|216:216|224:144,1,140.000000596046
224,128,78748,1,0,0:0:0:0:
240,88,78882,2,0,P|312:24|376:48,1,140.000000596046,0|8,0:0|0:0,0:0:0:0:
440,80,79418,2,0,L|480:152,2,70.000000298023
408,64,79820,1,0,0:0:0:0:
376,80,79954,1,0,0:0:0:0:
376,112,80088,1,0,0:0:0:0:
408,128,80222,1,8,0:0:0:0:
440,112,80355,1,0,0:0:0:0:
424,208,80489,5,0,0:0:0:0:
392,240,80623,1,0,0:0:0:0:
376,280,80757,1,0,0:0:0:0:
384,328,80891,1,0,0:0:0:0:
464,288,81025,1,2,0:0:0:0:
264,192,81293,1,8,0:0:0:0:
184,48,81561,1,0,0:0:0:0:
168,88,81695,1,0,0:0:0:0:
136,120,81829,1,0,0:0:0:0:
104,144,81963,1,0,0:0:0:0:
64,152,82097,1,2,0:0:0:0:
72,40,82364,1,8,0:0:0:0:
112,248,82632,5,0,0:0:0:0:
192,320,82900,1,0,0:0:0:0:
256,240,83168,1,0,0:0:0:0:
176,168,83436,1,8,0:0:0:0:
136,272,83704,1,0,0:0:0:0:
216,296,83972,1,0,0:0:0:0:
232,216,84239,1,0,0:0:0:0:
152,192,84507,1,2,0:0:0:0:
384,256,84775,6,0,P|448:160|336:32,1,280.000001192092
328,40,85445,1,0,0:0:0:0:
288,40,85579,2,0,B|144:48|144:48|104:128|176:200,1,280.000001192092,8|0,0:0|0:0,0:0:0:0:
216,256,86382,1,0,0:0:0:0:
256,280,86516,1,0,0:0:0:0:
296,304,86650,1,8,0:0:0:0:
384,232,86918,6,0,B|504:232|320:136|480:184|456:112,1,140.000000596046
432,104,87320,1,0,0:0:0:0:
392,72,87454,2,0,B|312:64|344:152|352:48|248:88,1,140.000000596046,0|8,0:0|0:0,0:0:0:0:
128,80,87989,2,0,B|80:104|96:152|128:136|104:120|64:144|104:208,1,140.000000596046
120,224,88391,1,0,0:0:0:0:
152,240,88525,2,0,B|200:256|168:288|216:288|208:224|176:256|256:288|160:304|224:272|248:224|208:192|192:256|248:272|200:328|240:312|240:312,1,140.000000596046,0|12,0:0|0:0,0:0:0:0:
360,272,89061,6,0,B|432:256|368:192|424:152,1,140.000000596046
416,120,89463,1,0,0:0:0:0:
400,80,89597,1,0,0:0:0:0:
368,48,89730,1,0,0:0:0:0:
328,32,89864,1,8,0:0:0:0:
256,192,90132,12,8,90936,0:0:0:0:
64,200,91204,5,0,0:0:0:0:
112,96,91472,1,0,0:0:0:0:
160,200,91739,1,0,0:0:0:0:
208,96,92007,1,8,0:0:0:0:
304,96,92275,1,0,0:0:0:0:
344,200,92543,1,0,0:0:0:0:
384,96,92811,1,0,0:0:0:0:
424,200,93079,1,8,0:0:0:0:
432,352,93347,22,0,B|168:328|216:232|384:136|392:256|192:48|64:88,2,560.000002384184
424,256,95757,1,0,0:0:0:0:
376,152,96025,1,0,0:0:0:0:
296,80,96293,1,8,0:0:0:0:
160,48,96561,1,0,0:0:0:0:
48,160,96829,1,0,0:0:0:0:
112,328,97097,1,0,0:0:0:0:
352,272,97364,1,4,0:0:0:0:
440,128,97632,6,0,B|344:160|256:88|256:88|184:152|248:320,1,420.000001788138
144,288,98704,1,0,0:0:0:0:
224,224,98972,1,0,0:0:0:0:
224,128,99239,1,0,0:0:0:0:
144,64,99507,1,0,0:0:0:0:
128,176,99775,1,0,0:0:0:0:
32,176,100043,1,0,0:0:0:0:
128,176,100311,1,0,0:0:0:0:
440,176,100579,1,0,0:0:0:0:
304,344,100847,1,0,0:0:0:0:
376,176,101114,1,0,0:0:0:0:
376,264,101382,1,0,0:0:0:0:
304,104,101650,1,0,0:0:0:0:
152,248,101918,22,0,L|48:248,1,70.000000298023
152,192,102186,2,0,L|80:192,1,70.000000298023
152,136,102454,2,0,L|72:136,1,70.000000298023
216,192,102722,2,0,L|360:192,1,140.000000596046
424,88,103257,1,0,0:0:0:0:
424,288,103525,1,0,0:0:0:0:
488,192,103793,1,0,0:0:0:0:
256,304,104061,5,0,0:0:0:0:
256,240,104329,1,0,0:0:0:0:
160,240,104597,1,0,0:0:0:0:
352,240,104864,1,0,0:0:0:0:
208,240,105132,2,0,L|208:80,1,140.000000596046
256,64,105534,1,0,0:0:0:0:
304,96,105668,2,0,L|304:256,1,140.000000596046
288,216,106271,5,0,0:0:0:0:
200,216,106605,1,0,0:0:0:0:
232,120,106940,1,0,0:0:0:0:
344,120,107242,1,0,0:0:0:0:
384,216,107576,1,0,0:0:0:0:
288,304,107894,1,0,0:0:0:0:
288,216,108246,1,0,0:0:0:0:
256,192,108514,12,0,114214,0:0:0:0:
