osu file format v12

[General]
AudioFilename: Dustblown Travels.mp3
AudioLeadIn: 0
PreviewTime: 11919
Countdown: 0
SampleSet: Soft
StackLeniency: 0.5
Mode: 0
LetterboxInBreaks: 1
WidescreenStoryboard: 1

[Editor]
DistanceSpacing: 1
BeatDivisor: 4
GridSize: 8
TimelineZoom: 1

[Metadata]
Title:Dustblown Travels
TitleUnicode:Dustblown Travels
Artist:HalcyonicFalconX
ArtistUnicode:HalcyonicFalconX
Creator:Johuan
Version:Matt
Source:Epic Battle Fantasy 4
Tags:Epic Battle Fantasy Video Game
BeatmapID:375967
BeatmapSetID:135273

[Difficulty]
HPDrainRate:7
CircleSize:4
OverallDifficulty:6
ApproachRate:8
SliderMultiplier:1.40000000596046
SliderTickRate:1

[Events]
//Background and Video events
0,0,"desertresort.png",0,0
//Break Periods
//Storyboard Layer 0 (Background)
//Storyboard Layer 1 (Fail)
//Storyboard Layer 2 (Pass)
//Storyboard Layer 3 (Foreground)
//Storyboard Sound Samples
//Background Colour Transformations
3,100,163,162,255

[TimingPoints]
1205,444.444444444444,4,2,0,50,1,0
1205,-66.6666666666667,4,2,0,20,0,0
10847,267.857142857143,4,2,0,20,1,0
46472,-100,4,2,0,20,0,1
63280,-100,4,2,0,50,0,0
97499,-100,4,2,0,20,0,0
106071,-100,4,2,0,5,0,0

[Colours]
Combo1 : 253,253,0
Combo2 : 71,207,5
Combo3 : 255,140,26
Combo4 : 221,13,44

[HitObjects]
64,64,1205,5,0,0:0:0:0:
184,136,1649,1,0,0:0:0:0:
64,208,2093,1,0,0:0:0:0:
184,280,2538,1,0,0:0:0:0:
312,64,2982,1,0,0:0:0:0:
456,136,3427,1,0,0:0:0:0:
312,208,3871,1,0,0:0:0:0:
456,280,4316,1,0,0:0:0:0:
312,24,4760,2,0,P|200:64|144:176,1,210.000008904934
104,232,5649,2,0,P|215:192|280:80,1,210.000008904934
40,40,6538,1,0,0:0:0:0:
320,128,6982,1,0,0:0:0:0:
192,256,7427,1,0,0:0:0:0:
480,352,7871,1,0,0:0:0:0:
256,192,8316,12,8,10538,0:0:0:0:
176,288,11919,5,0,0:0:0:0:
384,288,12187,1,0,0:0:0:0:
456,120,12455,1,0,0:0:0:0:
376,48,12722,1,8,0:0:0:0:
312,48,12856,1,0,0:0:0:0:
248,48,12990,2,0,P|232:96|144:128,1,140.000000596046
64,216,13526,1,0,0:0:0:0:
152,312,13794,1,8,0:0:0:0:
248,216,14062,1,0,0:0:0:0:
152,312,14330,1,0,0:0:0:0:
64,216,14597,1,0,0:0:0:0:
152,128,14865,1,8,0:0:0:0:
80,32,15133,2,0,L|232:32,1,140.000000596046
256,72,15535,1,0,0:0:0:0:
296,112,15669,2,0,L|448:112,1,140.000000596046,0|8,0:0|0:0,0:0:0:0:
504,32,16205,5,0,0:0:0:0:
512,184,16472,1,0,0:0:0:0:
448,320,16740,1,0,0:0:0:0:
312,248,17008,1,8,0:0:0:0:
256,184,17276,2,0,L|400:184,1,140.000000596046
256,64,17812,2,0,L|112:64,1,140.000000596046,0|8,0:0|0:0,0:0:0:0:
112,168,18347,2,0,B|112:240|112:240|168:240|168:240|168:304|168:304|216:304|216:304|216:240|216:240|264:240|264:240|264:168|264:168,1,420.000001788138,0|8,0:0|0:0,0:0:0:0:
256,48,19419,1,0,0:0:0:0:
336,80,19553,1,0,0:0:0:0:
424,112,19687,1,0,0:0:0:0:
352,152,19821,1,0,0:0:0:0:
288,192,19955,1,0,0:0:0:0:
168,192,20222,1,8,0:0:0:0:
168,64,20490,5,0,0:0:0:0:
344,64,20758,1,0,0:0:0:0:
344,192,21026,1,0,0:0:0:0:
168,192,21294,1,8,0:0:0:0:
168,320,21562,1,0,0:0:0:0:
456,264,21830,1,0,0:0:0:0:
168,192,22097,1,0,0:0:0:0:
456,136,22365,1,8,0:0:0:0:
208,304,22633,5,0,0:0:0:0:
256,304,22767,1,0,0:0:0:0:
304,304,22901,1,0,0:0:0:0:
384,232,23169,1,0,0:0:0:0:
384,152,23437,1,8,0:0:0:0:
304,64,23705,1,0,0:0:0:0:
256,64,23838,1,0,0:0:0:0:
208,64,23972,1,0,0:0:0:0:
136,144,24240,1,0,0:0:0:0:
136,232,24508,1,8,0:0:0:0:
304,40,24776,6,0,L|448:40,1,140
440,104,25312,2,0,L|440:256,1,140,0|8,0:0|0:0,0:0:0:0:
456,344,25847,2,2,L|8:344,1,420,2|10,0:0|0:0,0:0:0:0:
48,248,26919,2,0,L|144:144,1,140.000000596046
400,160,27455,2,0,L|304:263,1,140.000000596046,0|8,0:0|0:0,0:0:0:0:
176,256,27990,2,0,L|272:152,1,140.000000596046
400,72,28526,2,0,P|320:32|256:72,1,140.000000596046,0|8,0:0|0:0,0:0:0:0:
320,120,29062,6,0,P|400:160|464:119,1,140.000000596046,0|0,0:0|0:0,0:0:0:0:
416,280,29597,1,0,0:0:0:0:
312,344,29865,1,8,0:0:0:0:
192,272,30133,1,0,0:0:0:0:
312,344,30401,2,0,L|176:264,1,140.000000596046
192,168,30937,1,8,0:0:0:0:
192,48,31205,5,0,0:0:0:0:
232,80,31338,1,0,0:0:0:0:
272,104,31472,1,0,0:0:0:0:
312,80,31606,1,0,0:0:0:0:
352,48,31740,1,8,0:0:0:0:
272,224,32007,2,0,L|328:280,1,70.000000298023
352,304,32275,1,0,0:0:0:0:
392,272,32410,1,0,0:0:0:0:
432,240,32544,1,0,0:0:0:0:
464,64,32812,1,8,0:0:0:0:
368,192,33080,1,8,0:0:0:0:
256,296,33347,5,0,0:0:0:0:
144,192,33615,1,0,0:0:0:0:
256,72,33883,1,0,0:0:0:0:
368,192,34151,1,8,0:0:0:0:
224,280,34419,1,0,0:0:0:0:
160,160,34687,1,0,0:0:0:0:
288,88,34955,1,0,0:0:0:0:
352,224,35222,1,8,0:0:0:0:
184,264,35490,5,0,0:0:0:0:
176,128,35758,1,0,0:0:0:0:
320,104,36026,1,0,0:0:0:0:
336,256,36294,1,8,0:0:0:0:
168,224,36562,1,0,0:0:0:0:
208,112,36830,1,0,0:0:0:0:
336,144,37097,1,0,0:0:0:0:
296,272,37365,1,8,0:0:0:0:
184,112,37633,2,0,P|248:88|328:120,1,140.000000596046
328,216,38169,2,8,L|168:216,1,140,0|8,0:0|0:0,0:0:0:0:
192,328,38705,2,0,P|256:344|336:320,3,140.000000596046,0|0|0|8,0:0|0:0|0:0|0:0,0:0:0:0:
256,112,39775,6,0,L|256:32,1,70.000000298023
184,184,40043,2,0,L|104:184,1,70.000000298023
256,256,40311,2,0,L|256:336,1,70.000000298023
328,184,40579,2,0,L|400:184,1,70.000000298023,8|0,0:0|0:0,0:0:0:0:
352,72,40847,2,0,P|320:32|280:32,1,70.000000298023
200,24,41114,1,0,0:0:0:0:
184,96,41248,1,0,0:0:0:0:
112,88,41383,1,0,0:0:0:0:
112,160,41517,1,0,0:0:0:0:
40,168,41651,1,8,0:0:0:0:
0,88,41919,5,0,0:0:0:0:
40,168,42187,1,0,0:0:0:0:
104,240,42455,1,0,0:0:0:0:
176,288,42722,2,0,L|336:288|336:288,1,140,8|0,0:0|0:0,0:0:0:0:
384,256,43124,1,0,0:0:0:0:
400,184,43258,1,0,0:0:0:0:
280,88,43526,1,0,0:0:0:0:
224,336,43794,1,8,0:0:0:0:
104,312,44062,5,0,0:0:0:0:
104,264,44196,1,0,0:0:0:0:
104,216,44330,1,0,0:0:0:0:
64,48,44597,1,0,0:0:0:0:
208,72,44865,1,8,0:0:0:0:
224,56,44932,1,0,0:0:0:0:
256,48,44999,1,0,0:0:0:0:
280,56,45066,1,0,0:0:0:0:
296,72,45133,1,0,0:0:0:0:
352,128,45267,1,0,0:0:0:0:
312,192,45401,2,0,L|160:192,1,140
240,288,45937,1,4,0:0:0:0:
48,136,46205,5,0,0:0:0:0:
184,72,46740,5,0,0:0:0:0:
184,136,47008,2,0,L|216:200,1,70
280,200,47276,2,0,L|352:200,2,70
312,272,47812,1,0,0:0:0:0:
200,272,48080,1,0,0:0:0:0:
104,288,48347,2,0,L|104:208,1,70
104,136,48749,2,0,L|144:64,1,70.000000298023
216,32,49151,2,0,L|288:32,1,70
352,104,49553,1,0,0:0:0:0:
384,152,49687,1,0,0:0:0:0:
400,208,49821,1,0,0:0:0:0:
392,264,49955,1,0,0:0:0:0:
368,312,50088,1,0,0:0:0:0:
320,336,50222,1,2,0:0:0:0:
264,288,50490,5,0,0:0:0:0:
304,256,50624,1,8,0:0:0:0:
296,144,50892,2,0,L|224:88,1,70,0|8,0:0|0:0,0:0:0:0:
224,208,51294,2,0,L|176:144,1,70,0|8,0:0|0:0,0:0:0:0:
160,296,51696,1,0,0:0:0:0:
128,256,51830,1,0,0:0:0:0:
104,216,51963,1,0,0:0:0:0:
96,176,52097,1,0,0:0:0:0:
96,128,52231,1,0,0:0:0:0:
120,88,52365,1,0,0:0:0:0:
216,48,52633,5,0,0:0:0:0:
264,48,52767,1,8,0:0:0:0:
240,136,53035,1,0,0:0:0:0:
200,136,53169,1,8,0:0:0:0:
224,224,53437,1,0,0:0:0:0:
264,224,53571,1,8,0:0:0:0:
368,232,53838,1,0,0:0:0:0:
352,280,53972,1,0,0:0:0:0:
320,320,54106,1,0,0:0:0:0:
272,344,54240,1,0,0:0:0:0:
224,352,54374,1,0,0:0:0:0:
184,336,54508,1,0,0:0:0:0:
144,312,54642,1,2,0:0:0:0:
88,304,54776,5,0,0:0:0:0:
88,264,54910,1,8,0:0:0:0:
168,248,55178,1,0,0:0:0:0:
184,208,55312,1,8,0:0:0:0:
144,136,55580,1,0,0:0:0:0:
144,96,55713,1,8,0:0:0:0:
240,80,55981,1,0,0:0:0:0:
288,88,56115,1,0,0:0:0:0:
328,104,56249,1,0,0:0:0:0:
360,136,56383,1,0,0:0:0:0:
384,176,56517,1,0,0:0:0:0:
392,224,56651,1,0,0:0:0:0:
400,272,56785,1,0,0:0:0:0:
360,304,56919,6,0,L|288:312,1,70,0|8,0:0|0:0,0:0:0:0:
360,304,57321,2,0,L|312:360,1,70,0|8,0:0|0:0,0:0:0:0:
360,304,57722,2,0,L|272:336,2,70,0|8|0,0:0|0:0|0:0,0:0:0:0:
280,288,58124,1,0,0:0:0:0:
232,272,58258,1,0,0:0:0:0:
208,224,58392,1,0,0:0:0:0:
240,184,58526,1,0,0:0:0:0:
288,176,58660,1,0,0:0:0:0:
328,216,58794,1,2,0:0:0:0:
464,216,59062,1,0,0:0:0:0:
464,176,59196,1,8,0:0:0:0:
464,72,59463,1,0,0:0:0:0:
432,32,59597,1,8,0:0:0:0:
296,32,59865,1,0,0:0:0:0:
256,72,59999,1,0,0:0:0:0:
264,128,60133,1,0,0:0:0:0:
208,144,60267,1,0,0:0:0:0:
152,144,60401,1,0,0:0:0:0:
128,96,60535,1,0,0:0:0:0:
72,96,60669,1,0,0:0:0:0:
48,144,60803,1,0,0:0:0:0:
72,192,60937,1,0,0:0:0:0:
112,352,61205,5,0,0:0:0:0:
168,352,61338,1,8,0:0:0:0:
280,344,61606,1,0,0:0:0:0:
280,288,61740,1,8,0:0:0:0:
232,216,62008,1,0,0:0:0:0:
176,216,62142,1,8,0:0:0:0:
64,24,62410,1,0,0:0:0:0:
96,64,62544,1,0,0:0:0:0:
136,96,62678,1,0,0:0:0:0:
184,112,62812,1,0,0:0:0:0:
240,112,62946,1,0,0:0:0:0:
280,88,63080,1,0,0:0:0:0:
320,56,63213,1,4,0:0:0:0:
400,160,63347,6,0,B|240:160|96:160|96:160,1,280
144,216,64150,2,0,L|96:272,1,70.000000298023
144,216,64418,2,0,L|144:296,1,70.000000298023
144,216,64686,2,0,L|200:280,1,70.000000298023
144,216,64954,2,0,L|208:136,1,70.000000298023
104,48,65222,1,8,0:0:0:0:
312,40,65490,1,0,0:0:0:0:
280,80,65624,1,0,0:0:0:0:
248,120,65758,1,0,0:0:0:0:
480,152,66026,1,0,0:0:0:0:
392,264,66294,1,8,0:0:0:0:
368,304,66428,1,0,0:0:0:0:
320,336,66562,1,0,0:0:0:0:
240,312,66696,1,0,0:0:0:0:
184,248,66830,1,0,0:0:0:0:
128,368,67097,1,0,0:0:0:0:
24,232,67365,1,8,0:0:0:0:
184,192,67633,2,0,L|328:192,1,140
328,80,68169,2,0,L|176:80,1,140,0|8,0:0|0:0,0:0:0:0:
256,192,68705,12,8,69507,0:0:0:0:
256,192,69776,5,0,0:0:0:0:
260,88,70044,2,0,P|324:144|364:208,1,140.000000596046
400,192,70445,1,0,0:0:0:0:
456,192,70580,1,8,0:0:0:0:
256,192,70847,1,0,0:0:0:0:
354,191,71115,2,0,P|298:255|234:295,1,140.000000596046
256,336,71516,1,0,0:0:0:0:
256,384,71651,1,8,0:0:0:0:
256,192,71919,5,0,0:0:0:0:
252,287,72187,2,0,P|188:231|148:167,1,140.000000596046
56,184,72722,1,8,0:0:0:0:
256,192,72990,1,0,0:0:0:0:
157,186,73258,2,0,P|212:121|277:81,1,140.000000596046
256,56,73659,1,0,0:0:0:0:
256,16,73794,1,8,0:0:0:0:
256,128,74062,5,0,0:0:0:0:
224,160,74196,1,0,0:0:0:0:
192,192,74330,1,0,0:0:0:0:
256,256,74597,1,0,0:0:0:0:
272,240,74664,1,0,0:0:0:0:
288,224,74731,1,0,0:0:0:0:
304,208,74798,1,0,0:0:0:0:
320,192,74865,1,0,0:0:0:0:
96,96,75133,5,0,0:0:0:0:
416,96,75401,1,0,0:0:0:0:
416,288,75669,1,0,0:0:0:0:
96,288,75937,1,8,0:0:0:0:
120,192,76205,5,0,0:0:0:0:
256,120,76472,1,0,0:0:0:0:
392,192,76740,1,0,0:0:0:0:
256,264,77008,1,8,0:0:0:0:
120,192,77276,2,0,B|280:72|256:320|416:128|392:328|448:48|136:56,1,560
192,232,78615,1,0,0:0:0:0:
104,136,78883,1,0,0:0:0:0:
184,40,79151,1,8,0:0:0:0:
232,88,79285,1,0,0:0:0:0:
288,128,79419,1,0,0:0:0:0:
192,232,79687,2,0,P|216:296|304:312,1,140.000000596046
464,184,80222,1,8,0:0:0:0:
288,40,80490,5,0,0:0:0:0:
192,240,80758,2,0,L|120:112,1,140.000000596046
120,184,81160,1,0,0:0:0:0:
120,256,81294,2,0,L|40:128,1,140.000000596046
48,24,81830,2,0,L|192:24,1,140.000000596046
120,80,82231,1,0,0:0:0:0:
56,128,82365,2,0,L|200:128,1,140.000000596046
272,248,82901,1,0,0:0:0:0:
480,184,83169,1,8,0:0:0:0:
272,104,83437,1,8,0:0:0:0:
384,24,83705,1,0,0:0:0:0:
432,64,83838,1,0,0:0:0:0:
480,96,83972,1,0,0:0:0:0:
80,168,84240,1,4,0:0:0:0:
480,248,84508,1,4,0:0:0:0:
432,296,84775,5,0,0:0:0:0:
264,312,85311,2,0,P|184:304|144:256,1,140.000000596046
224,240,85847,1,0,0:0:0:0:
408,216,86114,1,0,0:0:0:0:
432,160,86248,1,0,0:0:0:0:
416,96,86382,1,0,0:0:0:0:
320,152,86650,1,8,0:0:0:0:
256,280,86919,5,0,0:0:0:0:
208,256,87053,1,0,0:0:0:0:
176,208,87187,1,0,0:0:0:0:
168,152,87321,1,0,0:0:0:0:
192,104,87455,1,8,0:0:0:0:
408,88,87722,1,8,0:0:0:0:
56,136,87990,5,0,0:0:0:0:
96,176,88124,1,0,0:0:0:0:
144,200,88258,1,0,0:0:0:0:
200,200,88392,1,0,0:0:0:0:
248,176,88526,1,8,0:0:0:0:
408,88,88794,1,4,0:0:0:0:
208,224,89062,5,0,0:0:0:0:
248,120,89196,1,0,0:0:0:0:
280,224,89330,1,0,0:0:0:0:
192,160,89463,1,0,0:0:0:0:
304,160,89597,1,0,0:0:0:0:
240,368,89865,1,0,0:0:0:0:
144,280,90133,5,0,0:0:0:0:
112,232,90267,1,0,0:0:0:0:
80,104,90535,1,0,0:0:0:0:
104,56,90669,1,0,0:0:0:0:
144,24,90803,1,0,0:0:0:0:
192,16,90937,1,0,0:0:0:0:
256,192,91205,12,8,93080,0:0:0:0:
120,64,93347,6,0,L|32:24,2,70.000000298023
400,112,93883,2,0,L|472:80,2,70.000000298023
256,272,94419,2,0,L|160:272,2,70.000000298023
296,184,94821,1,0,0:0:0:0:
336,272,94955,1,0,0:0:0:0:
368,184,95088,1,0,0:0:0:0:
408,272,95222,1,0,0:0:0:0:
488,192,95490,1,0,0:0:0:0:
40,192,95758,1,0,0:0:0:0:
184,56,96026,2,0,L|344:56,1,140
256,128,96562,2,0,L|256:280,1,140
272,344,97097,2,0,P|168:344|112:312,1,140.000000596046,0|4,0:0|0:0,0:0:0:0:
80,256,97633,5,0,0:0:0:0:
80,160,97901,1,0,0:0:0:0:
80,72,98169,1,0,0:0:0:0:
176,72,98437,1,0,0:0:0:0:
256,256,98705,2,0,L|256:104,1,140.000000596046
256,256,99240,1,0,0:0:0:0:
176,72,99508,1,0,0:0:0:0:
256,256,99776,1,0,0:0:0:0:
256,16,100044,1,0,0:0:0:0:
256,256,100312,1,0,0:0:0:0:
328,72,100580,1,0,0:0:0:0:
120,192,100847,1,0,0:0:0:0:
400,192,101115,1,0,0:0:0:0:
256,64,101383,1,0,0:0:0:0:
256,328,101651,1,0,0:0:0:0:
368,128,101919,5,0,0:0:0:0:
448,200,102187,1,0,0:0:0:0:
448,304,102455,1,0,0:0:0:0:
336,344,102722,1,0,0:0:0:0:
216,344,102990,1,0,0:0:0:0:
216,224,103258,1,0,0:0:0:0:
336,224,103526,1,0,0:0:0:0:
336,112,103794,1,0,0:0:0:0:
192,112,104062,2,0,L|352:112,1,140
336,240,104597,2,0,L|176:240,1,140
88,192,105133,2,0,B|168:72|344:72|432:216,1,385.000001639126
256,192,106271,5,0,0:0:0:0:
256,192,106539,1,0,0:0:0:0:
256,328,106874,1,0,0:0:0:0:
72,328,107209,1,0,0:0:0:0:
192,248,107544,1,0,0:0:0:0:
72,192,107879,1,0,0:0:0:0:
192,112,108213,1,0,0:0:0:0:
272,32,108548,1,0,0:0:0:0:
384,144,108883,1,0,0:0:0:0:
424,328,109285,1,0,0:0:0:0:
288,328,109687,1,0,0:0:0:0:
248,176,110155,1,0,0:0:0:0:
296,64,110557,1,0,0:0:0:0:
168,64,111026,1,0,0:0:0:0:
256,192,111562,12,0,114240,0:0:0:0:
