osu file format v13

[General]
AudioFilename: 08 Crystalis Fantasia.mp3
AudioLeadIn: 2000
PreviewTime: 28935
Countdown: 0
SampleSet: Normal
StackLeniency: 0.3
Mode: 0
LetterboxInBreaks: 1
WidescreenStoryboard: 1

[Editor]
Bookmarks: 1072,7929,14786,18214,31929,38792,45649,52506,59363
DistanceSpacing: 1.1
BeatDivisor: 2
GridSize: 4
TimelineZoom: 1

[Metadata]
Title:Crystalis Fantasia
TitleUnicode:Crystalis Fantasia
Artist:Halcyonic Falcon X
ArtistUnicode:Halcyonic Falcon X
Creator:DarkVortex
Version:Normal
Source:Epic Battle Fantasy 4
Tags:Matt likes swords Newgrounds ebf ebf4
BeatmapID:267377
BeatmapSetID:99653

[Difficulty]
HPDrainRate:4
CircleSize:3
OverallDifficulty:4
ApproachRate:5
SliderMultiplier:1.56
SliderTickRate:2

[Events]
//Background and Video events
0,0,"crystal_cave (grey).jpg",0,0
//Break Periods
//Storyboard Layer 0 (Background)
//Storyboard Layer 1 (Fail)
//Storyboard Layer 2 (Pass)
//Storyboard Layer 3 (Foreground)
//Storyboard Sound Samples
//Background Colour Transformations
3,100,163,162,255

[TimingPoints]
1080,428.571428571429,4,2,1,80,1,0
1080,-133.333333333333,4,2,1,80,0,0
59365,-100,4,1,1,75,0,1
73080,-133.333333333333,4,1,1,75,0,0
100508,-100,4,1,1,75,0,1
114222,-133.333333333333,4,1,1,65,0,0
127937,-133.333333333333,4,2,1,85,0,0
134794,-133.333333333333,4,2,1,80,0,0
136508,-133.333333333333,4,2,1,68,0,0
138222,-133.333333333333,4,2,1,50,0,0
139937,-133.333333333333,4,2,1,33,0,0

[Colours]
Combo1 : 120,60,220
Combo2 : 130,130,130
Combo3 : 230,230,230
Combo4 : 45,0,215
Combo5 : 164,0,148

[HitObjects]
52,84,7937,6,0,P|161:49|270:85,1,234.000008926392,4|4,0:3|0:3,0:0:0:0:
52,172,9651,2,0,P|161:207|270:171,1,234.000008926392,4|4,0:3|0:3,0:0:0:0:
445,324,11365,5,4,0:3:0:0:
339,377,11794,1,4,0:3:0:0:
347,260,12222,1,4,0:3:0:0:
231,282,12651,1,4,0:3:0:0:
270,171,13080,53,4,0:3:0:0:
155,145,13508,1,4,0:3:0:0:
116,257,13937,1,4,0:3:0:0:
231,282,14365,2,0,L|252:224,1,58.500002231598,4|4,0:3|0:3,0:0:0:0:
256,192,14794,12,4,18222,0:3:0:0:
52,276,19080,70,0,B|89:315|89:315|133:271|133:271|177:315|177:315|216:275,1,234.000008926392,4|4,0:3|0:3,0:0:0:0:
52,108,20794,2,0,B|92:72|92:72|136:116|136:116|180:72|180:72|219:111,1,234.000008926392,4|4,0:3|0:3,0:0:0:0:
347,307,22508,6,0,B|399:267|443:307|443:307|455:244|400:185,1,234.000008926392,4|4,0:3|0:3,0:0:0:0:
336,96,23794,1,0,0:0:0:0:
452,72,24222,1,4,0:3:0:0:
464,190,24651,1,0,0:0:0:0:
405,190,24865,2,0,L|329:190,1,58.500002231598,4|4,0:3|0:3,0:0:0:0:
112,190,25937,54,0,B|103:226|114:272|171:272|171:272|171:328|216:339|247:332,1,234.000008926392,4|4,0:3|0:3,0:0:0:0:
247,98,27651,2,0,B|283:89|329:100|329:157|329:157|385:157|396:202|389:233,1,234.000008926392,4|4,0:3|0:3,0:0:0:0:
204,376,29365,6,0,B|116:368|72:276|136:196,1,234.000008926392,4|4,0:3|0:3,0:0:0:0:
236,148,30651,1,0,0:0:0:0:
318,230,31080,2,0,B|351:313|304:397|206:370,1,175.500006694794,4|4,0:3|0:3,0:0:0:0:
204,376,31937,1,4,0:3:0:0:
88,244,32580,54,0,B|23:206|23:206|93:202|111:118,1,175.500006694794,4|2,0:3|0:0,0:0:0:0:
124,36,33651,2,0,B|181:37|218:94|191:149|191:149|257:174,1,175.500006694794,4|4,0:3|0:3,0:0:0:0:
360,240,34937,2,0,B|373:253|413:269|413:269|425:309|405:319,1,117.000004463196,2|4,0:0|0:3,0:0:0:0:
228,344,36008,2,0,P|128:352|72:296,1,175.500006694794,4|2,0:3|0:0,0:0:0:0:
116,196,37080,2,0,B|99:197|172:202|133:111|133:111|216:120,2,175.500006694794,4|4|2,0:3|0:3|0:0,0:0:0:0:
56,196,38580,1,4,0:3:0:0:
72,252,38794,6,0,B|93:323|177:322|199:249|199:249|222:177|306:175|327:247,1,351.000013389588,4|2,0:3|0:0,0:0:0:0:
432,284,40508,2,0,B|453:154|343:36|215:68,1,351.000013389588,4|2,0:3|0:0,0:0:0:0:
109,65,42222,69,4,0:3:0:0:
88,240,42865,1,4,0:3:0:0:
240,328,43508,2,0,B|284:292|284:292|248:252|256:216,1,117.000004463196,2|4,0:0|0:3,0:0:0:0:
280,68,44580,1,4,0:3:0:0:
108,16,45222,2,0,L|64:64,1,58.500002231598,2|4,0:0|0:3,0:0:0:0:
32,104,45651,53,4,0:3:0:0:
32,280,46294,2,0,B|96:244|164:276|124:168,1,175.500006694794,4|2,0:3|0:0,0:0:0:0:
228,228,47365,2,0,B|188:122|256:154|320:118,2,175.500006694794,4|4|2,0:3|0:3|0:0,0:0:0:0:
340,268,49080,1,4,0:3:0:0:
392,100,49722,1,4,0:3:0:0:
276,128,50151,6,0,L|302:190,1,58.500002231598,2|4,0:0|0:3,0:0:0:0:
240,172,50580,2,0,L|216:116,1,58.500002231598,2|4,0:0|0:3,0:0:0:0:
392,100,51437,53,4,0:3:0:0:
240,172,52080,1,2,0:0:0:0:
240,172,52294,1,4,0:3:0:0:
240,172,52508,6,0,B|176:176|172:252|172:252|120:216,2,175.500006694794,4|4|2,0:3|0:3|0:0,0:0:0:0:
356,172,54222,2,0,B|420:176|424:252|424:252|476:216,2,175.500006694794,4|4|2,0:3|0:3|0:0,0:0:0:0:
240,172,55937,54,0,P|189:197|173:259,1,117.000004463196,4|0,0:3|0:0,0:0:0:0:
284,280,56794,1,2,0:0:0:0:
284,280,57008,1,2,0:0:0:0:
284,280,57222,1,4,0:3:0:0:
312,172,57651,2,0,P|363:147|379:85,1,117.000004463196,4|0,0:3|0:0,0:0:0:0:
268,60,58508,1,2,0:0:0:0:
268,60,58722,1,2,0:0:0:0:
268,60,58936,1,4,0:3:0:0:
152,176,59365,21,4,0:3:0:0:
128,332,59794,1,8,0:0:0:0:
240,232,60222,2,0,L|316:212,1,78,4|0,0:3|0:0,0:0:0:0:
320,292,60651,2,0,L|396:272,1,78,8|0,0:0|0:0,0:0:0:0:
396,192,61080,5,4,0:3:0:0:
256,100,61508,1,8,0:0:0:0:
420,100,61937,2,0,L|340:100,1,78,4|0,0:3|0:0,0:0:0:0:
316,20,62365,2,0,L|232:20,1,78,8|0,0:0|0:0,0:0:0:0:
164,64,62794,6,0,P|88:63|41:122,1,156,4|8,0:3|0:0,0:0:0:0:
64,204,63437,1,0,0:0:0:0:
128,144,63651,2,0,B|192:164|184:256|296:276,1,156,4|8,0:3|0:0,0:0:0:0:
317,292,64294,1,0,0:0:0:0:
404,308,64508,38,0,P|444:288|468:240,1,78,4|0,0:3|0:0,0:0:0:0:
384,220,64937,2,0,L|384:140,1,78,8|0,0:0|0:0,0:0:0:0:
452,84,65365,2,0,P|383:52|315:84,1,156,4|8,0:3|0:0,0:0:0:0:
228,84,66008,2,4,L|144:84,1,78,4|4,0:3|0:3,0:0:0:0:
92,244,66651,6,0,L|140:308,1,78,8|0,0:0|0:0,0:0:0:0:
228,312,67080,2,0,L|276:248,1,78,4|0,0:3|0:0,0:0:0:0:
208,188,67508,2,0,P|276:156|344:192,1,156,8|4,0:0|0:3,0:0:0:0:
476,304,68365,6,0,P|492:252|472:208,1,78,8|0,0:0|0:0,0:0:0:0:
440,164,68794,2,0,P|416:132|412:88,1,78,4|0,0:3|0:0,0:0:0:0:
332,76,69222,1,8,0:0:0:0:
332,76,69437,1,0,0:0:0:0:
332,76,69651,1,4,0:3:0:0:
164,48,70080,38,0,P|120:60|88:88,2,78,8|0|4,0:0|0:0|0:3,0:0:0:0:
220,112,70722,1,0,0:0:0:0:
272,180,70937,1,8,0:0:0:0:
292,264,71151,1,0,0:0:0:0:
264,344,71365,5,4,0:3:0:0:
100,300,71794,2,0,P|28:248|24:232,1,78,8|0,0:0|0:0,0:0:0:0:
103,211,72222,2,0,P|142:209|171:184,1,78,4|0,0:3|0:0,0:0:0:0:
108,124,72651,2,0,P|124:89|156:67,1,78,8|4,0:0|0:3,0:0:0:0:
244,40,73080,6,0,P|376:56|268:296,1,468.000017852784,4|0,0:3|0:0,0:0:0:0:
112,276,75437,2,0,B|28:292|4:184|88:160,1,175.500006694794,0|8,0:0|0:0,0:0:0:0:
168,84,76508,38,0,B|284:30|284:30|227:160|362:206|362:206|241:267,1,468.000017852784,4|0,0:3|0:0,0:0:0:0:
68,284,78865,2,0,B|24:304|24:304|24:260|-10:232|-10:232|32:211,1,175.500006694794,0|8,0:0|0:0,0:0:0:0:
92,100,79937,6,0,B|168:5|344:121|436:33,1,351.000013389588,4|8,0:3|0:0,0:0:0:0:
484,156,81651,2,0,B|395:240|219:124|143:219,1,351.000013389588,4|8,0:3|0:0,0:0:0:0:
72,316,83365,6,0,B|96:372|172:380|224:328|224:328|276:380|352:372|376:316,1,351.000013389588,4|8,0:3|0:0,0:0:0:0:
448,224,85080,2,0,B|424:169|348:161|296:213|296:213|244:161|168:169|144:225,1,351.000013389588,4|8,0:3|0:0,0:0:0:0:
44,292,86794,38,0,B|204:436|364:292,1,351.000013389588,4|8,0:3|0:0,0:0:0:0:
440,200,88508,2,0,B|280:56|120:200,1,351.000013389588,4|8,0:3|0:0,0:0:0:0:
152,320,90222,6,0,B|88:360|28:312|28:312|28:364,2,175.500006694794,4|0|8,0:3|0:0|0:0,0:0:0:0:
244,228,91937,2,0,B|204:164|252:104|252:104|200:104,2,175.500006694794,4|0|8,0:3|0:0|0:0,0:0:0:0:
280,280,93437,1,4,0:3:0:0:
320,328,93651,6,0,B|371:376|359:220|451:356|460:261,1,175.500006694794,4|0,0:3|0:0,0:0:0:0:
308,144,94937,1,8,0:0:0:0:
180,152,95365,2,0,B|121:226|282:195|163:297|227:301,1,175.500006694794,4|0,0:3|0:0,0:0:0:0:
416,272,96651,1,8,0:0:0:0:
480,160,97080,38,0,P|472:104|424:68,1,117.000004463196,4|0,0:3|0:0,0:0:0:0:
362,68,97722,1,4,0:3:0:0:
362,68,97937,2,0,P|318:96|302:132,2,58.500002231598,8|8|4,0:0|0:0|0:3,0:0:0:0:
362,197,98794,6,0,P|368:253|331:300,1,117.000004463196,4|0,0:3|0:0,0:0:0:0:
272,316,99436,1,4,0:3:0:0:
272,316,99651,2,0,P|222:300|197:269,2,58.500002231598,8|8|4,0:0|0:0|0:3,0:0:0:0:
100,292,100508,6,0,P|67:224|99:156,1,156,4|8,0:3|0:0,0:0:0:0:
152,224,101151,1,0,0:0:0:0:
236,224,101365,2,0,L|312:156,1,78,4|0,0:3|0:0,0:0:0:0:
216,136,101794,2,0,L|156:84,1,78,8|0,0:0|0:0,0:0:0:0:
228,36,102222,38,0,L|396:36,1,156,4|8,0:3|0:0,0:0:0:0:
468,36,102865,1,0,0:0:0:0:
468,120,103080,2,0,B|468:160|468:160|428:160,1,78,4|0,0:3|0:0,0:0:0:0:
352,200,103508,2,0,B|352:240|352:240|392:240,1,78,8|0,0:0|0:0,0:0:0:0:
432,316,103937,5,4,0:3:0:0:
264,344,104365,2,0,L|184:368,1,78,8|0,0:0|0:0,0:0:0:0:
103,366,104794,2,0,L|23:334,1,78,4|0,0:3|0:0,0:0:0:0:
30,250,105222,2,0,L|110:226,1,78,8|0,0:0|0:0,0:0:0:0:
184,200,105651,5,4,0:3:0:0:
160,32,106080,2,0,P|196:20|240:36,1,78,8|0,0:0|0:0,0:0:0:0:
316,48,106508,2,0,L|374:101,1,78,4|4,0:3|0:3,0:0:0:0:
440,160,106937,2,0,L|464:236,1,78,8|4,0:0|0:3,0:0:0:0:
488,316,107365,37,4,0:3:0:0:
316,316,107794,2,0,P|276:300|253:267,1,78,8|0,0:0|0:0,0:0:0:0:
329,231,108222,2,0,P|305:200|268:188,1,78,4|0,0:3|0:0,0:0:0:0:
188,164,108651,1,8,0:0:0:0:
104,148,108865,1,0,0:0:0:0:
20,164,109080,5,4,0:3:0:0:
79,319,109508,2,0,P|102:350|140:350,1,78,8|0,0:0|0:0,0:0:0:0:
193,284,109937,2,0,P|216:315|254:315,1,78,4|0,0:3|0:0,0:0:0:0:
312,255,110365,1,8,0:0:0:0:
396,235,110580,1,0,0:0:0:0:
480,212,110794,5,4,0:3:0:0:
464,44,111222,2,0,L|364:76,1,78,8|0,0:0|0:0,0:0:0:0:
324,12,111651,2,0,P|304:56|312:104,1,78,4|0,0:3|0:0,0:0:0:0:
324,168,112080,1,8,0:0:0:0:
312,256,112294,1,0,0:0:0:0:
268,328,112508,37,4,0:3:0:0:
96,328,112937,2,0,P|56:332|16:312,1,78,8|0,0:0|0:0,0:0:0:0:
72,248,113365,2,0,P|82:213|112:186,1,78,4|0,0:3|0:0,0:0:0:0:
184,140,113794,2,0,P|216:112|236:48,2,78,8|4|4,0:0|0:3|0:3,0:0:0:0:
275,231,114651,5,4,0:3:0:0:
403,231,115080,2,0,L|403:303,2,58.500002231598,4|0|4,0:3|0:0|0:3,0:0:0:0:
275,231,115937,1,4,0:3:0:0:
184,140,116365,1,4,0:3:0:0:
56,140,116794,2,0,L|56:76,2,58.500002231598,4|0|4,0:3|0:0|0:3,0:0:0:0:
184,140,117651,5,4,0:3:0:0:
275,231,118080,1,4,0:3:0:0:
316,108,118508,2,0,L|376:52,2,58.500002231598,4|0|4,0:3|0:0|0:3,0:0:0:0:
275,231,119365,1,4,0:3:0:0:
183,139,119794,1,4,0:3:0:0:
84,224,120222,2,0,L|24:276,2,58.500002231598,4|0|4,0:3|0:0|0:3,0:0:0:0:
180,312,121080,38,0,L|236:264,1,58.500002231598,4|0,0:3|0:0,0:0:0:0:
275,231,121508,1,4,0:3:0:0:
404,232,121937,2,0,L|404:304,2,58.500002231598,4|0|4,0:3|0:0|0:3,0:0:0:0:
404,103,122794,2,0,L|348:55,1,58.500002231598,4|0,0:3|0:0,0:0:0:0:
308,24,123222,1,4,0:3:0:0:
208,104,123651,2,0,L|144:104,2,58.500002231598,4|0|4,0:3|0:0|0:3,0:0:0:0:
316,176,124508,6,0,L|260:224,1,58.500002231598,4|0,0:3|0:0,0:0:0:0:
224,256,124937,1,4,0:3:0:0:
224,128,125365,2,0,L|224:56,2,58.500002231598,4|0|4,0:3|0:0|0:3,0:0:0:0:
120,204,126222,1,4,0:3:0:0:
164,248,126437,2,0,L|220:304,1,58.500002231598,0|4,0:0|0:3,0:0:0:0:
300,204,127080,1,4,0:3:0:0:
348,248,127294,2,0,L|400:296,1,58.500002231598,0|4,0:0|0:3,0:0:0:0:
392,160,127937,5,4,0:3:0:0:
328,49,128366,1,4,0:3:0:0:
201,49,128795,1,4,0:3:0:0:
137,159,129223,1,4,0:3:0:0:
201,269,129652,1,4,0:3:0:0:
328,269,130080,1,4,0:3:0:0:
392,160,130508,1,4,0:3:0:0:
328,49,130937,1,4,0:3:0:0:
263,159,131365,37,4,0:3:0:0:
201,269,131794,1,4,0:3:0:0:
88,206,132222,1,4,0:3:0:0:
149,96,132651,1,4,0:3:0:0:
263,159,133080,6,0,L|381:226,1,117.000004463196,4|4,0:3|0:3,0:0:0:0:
436,112,133937,2,0,L|334:54,1,117.000004463196,4|4,0:3|0:3,0:0:0:0:
276,80,134580,1,4,0:3:0:0:
212,80,134794,22,0,P|163:181|212:283,1,234.000008926392,4|4,0:3|0:3,0:0:0:0:
312,200,136080,1,0,0:0:0:0:
408,284,136508,2,0,P|457:182|408:80,1,234.000008926392,4|4,0:3|0:3,0:0:0:0:
312,168,137794,1,0,0:0:0:0:
200,104,138222,6,0,P|112:37|24:105,1,234.000008926392,4|4,0:3|0:3,0:0:0:0:
112,196,139508,1,0,0:0:0:0:
240,196,139937,2,0,P|328:264|416:196,1,234.000008926392,4|4,0:3|0:3,0:0:0:0:
