osu file format v13

[General]
AudioFilename: 08 Crystalis Fantasia.mp3
AudioLeadIn: 2000
PreviewTime: 28935
Countdown: 0
SampleSet: Normal
StackLeniency: 0.3
Mode: 0
LetterboxInBreaks: 1
WidescreenStoryboard: 1

[Editor]
Bookmarks: 1072,7929,14786,18214,31929,45649,52506,59363,88078
DistanceSpacing: 1.1
BeatDivisor: 2
GridSize: 4
TimelineZoom: 1

[Metadata]
Title:Crystalis Fantasia
TitleUnicode:Crystalis Fantasia
Artist:Halcyonic Falcon X
ArtistUnicode:Halcyonic Falcon X
Creator:DarkVortex
Version:Insane
Source:Epic Battle Fantasy 4
Tags:Matt likes swords Newgrounds ebf ebf4
BeatmapID:344789
BeatmapSetID:99653

[Difficulty]
HPDrainRate:7
CircleSize:4
OverallDifficulty:7
ApproachRate:8
SliderMultiplier:1.8
SliderTickRate:2

[Events]
//Background and Video events
0,0,"crystal_cave (grey).jpg",0,0
//Break Periods
//Storyboard Layer 0 (Background)
//Storyboard Layer 1 (Fail)
//Storyboard Layer 2 (Pass)
//Storyboard Layer 3 (Foreground)
//Storyboard Sound Samples
//Background Colour Transformations
3,100,163,162,255

[TimingPoints]
1080.07388185807,428.571428571429,4,2,1,80,1,0
13080,-100,4,2,1,95,0,0
13937,-100,4,2,1,100,0,0
59365,-71.4285714285714,4,1,1,75,0,1
73080,-133.333333333333,4,1,1,75,0,0
86794,-100,4,1,1,75,0,0
100508,-71.4285714285714,4,1,1,75,0,1
114222,-100,4,1,1,65,0,0
127937,-100,4,2,1,85,0,0
134794,-100,4,2,1,68,0,0
136508,-100,4,2,1,50,0,0
138222,-100,4,2,1,33,0,0
139937,-100,4,2,1,20,0,0
140794,-100,4,2,1,5,0,0

[Colours]
Combo1 : 120,60,220
Combo2 : 130,130,130
Combo3 : 230,230,230
Combo4 : 45,0,215
Combo5 : 164,0,148

[HitObjects]
88,128,1080,5,2,0:0:0:0:
145,185,1294,1,0,0:0:0:0:
145,70,1508,1,0,0:0:0:0:
202,128,1722,1,0,0:0:0:0:
284,128,1937,1,0,0:0:0:0:
341,70,2151,1,0,0:0:0:0:
341,185,2365,1,0,0:0:0:0:
398,128,2580,1,0,0:0:0:0:
456,184,2794,6,0,P|484:224|480:292,1,90,2|0,0:0|0:0,0:0:0:0:
408,252,3222,2,0,P|399:300|348:345,1,90,0|0,0:0|0:0,0:0:0:0:
328,264,3651,2,0,P|288:292|219:288,1,90,0|0,0:0|0:0,0:0:0:0:
260,216,4080,2,0,P|211:207|166:156,1,90,0|0,0:0|0:0,0:0:0:0:
248,140,4508,53,2,0:0:0:0:
296,76,4722,1,0,0:0:0:0:
376,56,4937,1,0,0:0:0:0:
452,88,5151,1,0,0:0:0:0:
416,160,5365,1,0,0:0:0:0:
344,200,5580,1,0,0:0:0:0:
260,216,5794,1,0,0:0:0:0:
180,204,6008,1,0,0:0:0:0:
108,168,6222,6,0,B|60:144|72:80,1,90,2|0,0:0|0:0,0:0:0:0:
108,240,6651,2,0,B|60:264|72:328,1,90
108,168,7080,2,0,L|192:104,1,90
108,240,7508,2,0,L|192:304,1,90
180,204,7937,53,4,0:3:0:0:
260,204,8151,2,0,L|364:204,2,90
180,204,8794,1,4,0:3:0:0:
100,204,9008,2,0,L|10:204,2,90
180,204,9651,5,4,0:3:0:0:
212,276,9865,2,0,P|244:308|300:308,1,90
368,308,10294,1,0,0:0:0:0:
328,240,10508,1,4,0:3:0:0:
300,164,10722,2,0,P|300:118|339:79,1,90
376,20,11151,1,0,0:0:0:0:
428,84,11365,54,0,L|476:165,1,90,4|0,0:3|0:0,0:0:0:0:
228,128,11794,2,0,L|275:47,1,90,4|0,0:3|0:0,0:0:0:0:
376,228,12222,2,0,L|424:309,1,90,4|0,0:3|0:0,0:0:0:0:
160,324,12651,2,0,L|207:243,1,90,4|0,0:3|0:0,0:0:0:0:
376,228,13080,5,4,0:3:0:0:
244,324,13294,1,2,0:0:0:0:
252,204,13508,1,4,0:3:0:0:
360,356,13722,1,2,0:0:0:0:
468,204,13937,53,4,0:3:0:0:
360,48,14151,1,2,0:0:0:0:
252,204,14365,1,4,0:3:0:0:
360,356,14580,1,4,0:3:0:0:
256,192,14794,12,4,16508,0:3:0:0:
252,186,16722,6,0,L|252:90,2,90
252,186,17365,2,0,P|186:255|114:231,1,180,4|4,0:3|0:3,0:0:0:0:
172,172,18008,1,4,0:3:0:0:
172,172,18222,53,4,0:3:0:0:
172,172,18651,2,0,L|128:93,1,90
88,24,19080,1,4,0:3:0:0:
48,92,19294,1,0,0:0:0:0:
80,168,19508,1,0,0:0:0:0:
160,168,19722,1,0,0:0:0:0:
129,93,19937,5,4,0:3:0:0:
129,93,20365,2,0,L|208:40,1,90
276,4,20794,1,4,0:3:0:0:
352,28,21008,1,0,0:0:0:0:
412,84,21222,1,0,0:0:0:0:
444,160,21437,1,0,0:0:0:0:
448,240,21651,53,4,0:3:0:0:
448,240,22080,2,0,P|396:200|348:208,1,90
292,200,22508,1,4,0:3:0:0:
211,199,22722,1,0,0:0:0:0:
210,280,22937,1,0,0:0:0:0:
291,281,23151,1,0,0:0:0:0:
292,200,23365,5,4,0:3:0:0:
292,200,23794,2,0,P|260:136|216:120,1,90
180,80,24222,1,4,0:3:0:0:
92,220,24437,1,0,0:0:0:0:
140,152,24651,2,0,L|63:105,2,90,0|4|4,0:0|0:3|0:3,0:0:0:0:
140,152,25508,54,0,P|123:197|91:221,1,90
140,152,25937,2,0,P|157:107|189:83,1,90,4|0,0:3|0:0,0:0:0:0:
68,112,26365,1,0,0:0:0:0:
140,152,26580,1,0,0:0:0:0:
212,192,26794,5,4,0:3:0:0:
212,192,27222,2,0,P|248:219|268:259,1,90
182,267,27651,2,0,P|202:307|238:334,1,90,4|0,0:3|0:0,0:0:0:0:
320,320,28080,1,0,0:0:0:0:
268,259,28294,1,0,0:0:0:0:
238,334,28508,53,4,0:3:0:0:
238,334,28937,2,0,P|197:354|153:348,1,90
70,334,29365,2,0,P|109:353|153:349,1,90,4|0,0:3|0:0,0:0:0:0:
153,267,29794,1,0,0:0:0:0:
153,186,30008,1,0,0:0:0:0:
152,105,30222,5,4,0:3:0:0:
152,105,30651,2,0,P|183:72|227:60,1,90
272,124,31080,2,0,P|314:111|344:79,2,90,4|0|0,0:3|0:0|0:0,0:0:0:0:
152,105,31722,1,4,0:3:0:0:
152,105,31937,54,0,P|136:149|153:187,2,90,4|0|0,0:3|0:0|0:0,0:0:0:0:
224,144,32580,2,0,P|240:100|223:62,2,90,4|0|0,0:3|0:0|0:0,0:0:0:0:
152,105,33222,2,0,B|76:132|108:208|42:239,1,180,2|4,0:0|0:3,0:0:0:0:
42,239,33865,6,0,P|85:230|125:248,1,90
76,308,34294,2,0,P|133:326|183:298,2,90,4|0|0,0:3|0:0|0:0,0:0:0:0:
42,239,34937,2,0,B|108:208|76:132|152:105,1,180,2|4,0:0|0:3,0:0:0:0:
152,105,35580,54,0,B|116:88|100:64|100:32,1,90
176,32,36008,2,0,P|228:99|187:174,1,180,4|0,0:3|0:0,0:0:0:0:
187,174,36651,2,0,P|228:192|246:232,1,90,2|0,0:0|0:0,0:0:0:0:
316,288,37080,5,4,0:3:0:0:
339,201,37294,1,0,0:0:0:0:
269,144,37508,1,0,0:0:0:0:
246,231,37722,2,0,B|218:315|106:311|106:311|186:363,1,270,4|2,0:3|0:0,0:0:0:0:
292,368,38580,1,4,0:3:0:0:
292,368,38794,54,0,B|324:380|324:380|336:356|336:356|368:368,2,90,4|0|0,0:3|0:0|0:0,0:0:0:0:
208,328,39437,2,0,B|176:340|176:340|164:316|164:316|132:328,2,90,4|0|0,0:3|0:0|0:0,0:0:0:0:
257,250,40080,2,0,B|257:163|257:163|185:211|184:168,1,180,2|4,0:0|0:3,0:0:0:0:
184,168,40722,6,0,P|139:191|95:155,1,90
257,163,41151,2,0,P|301:186|345:150,2,90,4|0|0,0:3|0:0|0:0,0:0:0:0:
184,168,41794,2,0,B|132:224|72:140|72:140|30:140,1,180,2|4,0:0|0:3,0:0:0:0:
30,140,42437,54,0,P|16:88|48:48,1,90
144,24,42865,2,0,P|161:64|145:105,2,90,4|0|0,0:3|0:0|0:0,0:0:0:0:
145,105,43508,2,0,P|196:84|248:104,1,90,2|0,0:0|0:0,0:0:0:0:
296,136,43937,6,0,P|339:142|379:121,1,90,4|0,0:3|0:0,0:0:0:0:
424,56,44365,1,0,0:0:0:0:
430,207,44580,2,0,P|457:172|459:127,1,90,4|0,0:3|0:0,0:0:0:0:
424,56,45008,1,0,0:0:0:0:
376,121,45222,1,2,0:0:0:0:
376,121,45437,1,4,0:3:0:0:
296,136,45651,54,0,B|268:148|244:132|244:132|210:149,1,90,4|0,0:3|0:0,0:0:0:0:
124,208,46080,1,0,0:0:0:0:
36,272,46294,2,0,B|64:281|71:309|71:309|112:318,1,90,4|0,0:3|0:0,0:0:0:0:
124,208,46722,1,0,0:0:0:0:
137,99,46937,2,0,P|209:147|216:234,1,180,2|4,0:0|0:3,0:0:0:0:
216,234,47580,6,0,P|256:221|316:253,1,90
404,320,48008,2,0,P|445:334|487:320,1,90,4|0,0:3|0:0,0:0:0:0:
504,184,48437,2,0,P|462:169|420:183,1,90,0|2,0:0|0:0,0:0:0:0:
336,320,48865,1,0,0:0:0:0:
213,222,49080,54,0,B|157:158|120:264|60:192|12:144|60:64,1,270,4|4,0:3|0:3,0:0:0:0:
128,120,50151,1,0,0:0:0:0:
128,344,50365,1,2,0:0:0:0:
213,222,50580,1,0,0:0:0:0:
213,222,50794,6,0,B|269:158|306:264|366:192|414:144|366:64,1,270,4|4,0:3|0:3,0:0:0:0:
373,78,51651,2,0,P|320:81|288:49,1,90
252,136,52080,1,2,0:0:0:0:
252,136,52294,1,4,0:3:0:0:
212,220,52508,54,0,B|204:248|204:248|156:244|160:304,2,90,4|0|0,0:3|0:0|0:0,0:0:0:0:
292,220,53151,2,0,B|300:248|300:248|348:244|344:304,2,90,4|0|0,0:3|0:0|0:0,0:0:0:0:
252,136,53794,2,0,B|228:136|199:120|181:102|170:77|168:48|168:48|108:48,1,180,2|4,0:0|0:3,0:0:0:0:
252,50,54437,6,0,P|292:66|333:48,1,90
404,4,54865,2,0,P|412:40|396:92,2,90,4|0|0,0:3|0:0|0:0,0:0:0:0:
332,48,55508,2,0,P|330:132|407:168,1,180,2|4,0:0|0:3,0:0:0:0:
488,168,56151,53,0,0:0:0:0:
488,248,56365,1,0,0:0:0:0:
408,248,56580,1,4,0:3:0:0:
408,168,56794,2,0,P|410:113|434:85,1,90,2|2,0:0|0:0,0:0:0:0:
408,168,57222,2,0,P|353:170|325:194,1,90,4|0,0:3|0:0,0:0:0:0:
280,256,57651,5,4,0:3:0:0:
220,312,57865,1,0,0:0:0:0:
140,336,58080,1,0,0:0:0:0:
72,292,58294,1,4,0:3:0:0:
72,212,58508,2,0,P|114:221|143:254,1,90,2|2,0:0|0:0,0:0:0:0:
212,196,58937,53,4,0:3:0:0:
212,196,59151,1,4,0:3:0:0:
276,260,59365,22,0,P|336:316|396:300,1,125.999996154785,4|0,0:3|0:0,0:0:0:0:
512,272,59794,2,0,P|452:216|392:232,1,125.999996154785,8|0,0:0|0:0,0:0:0:0:
276,260,60222,1,4,0:3:0:0:
72,328,60437,1,0,0:0:0:0:
252,212,60651,1,8,0:0:0:0:
104,368,60865,1,0,0:0:0:0:
208,180,61080,6,0,P|212:128|264:80,1,125.999996154785,4|0,0:3|0:0,0:0:0:0:
380,120,61508,2,0,P|391:55|364:0,1,125.999996154785,8|0,0:0|0:0,0:0:0:0:
264,80,61937,1,4,0:3:0:0:
300,304,62151,1,0,0:0:0:0:
380,120,62365,1,8,0:0:0:0:
300,304,62580,1,0,0:0:0:0:
172,116,62794,6,0,B|146:79|146:79|94:99|76:62,1,125.999996154785,4|0,0:3|0:0,0:0:0:0:
172,252,63222,2,0,B|146:290|146:290|94:270|76:306,1,125.999996154785,8|0,0:0|0:0,0:0:0:0:
76,63,63651,1,4,0:3:0:0:
172,252,63865,1,0,0:0:0:0:
76,306,64080,1,8,0:0:0:0:
172,116,64294,1,0,0:0:0:0:
212,344,64508,38,0,B|256:336|256:336|292:368|336:344,1,125.999996154785,4|0,0:3|0:0,0:0:0:0:
244,224,64937,2,0,B|283:202|319:234|319:234|363:226,1,125.999996154785,8|0,0:0|0:0,0:0:0:0:
172,116,65365,1,4,0:3:0:0:
362,226,65580,1,0,0:0:0:0:
324,64,65794,5,8,0:0:0:0:
304,104,65901,1,4,0:3:0:0:
284,144,66008,1,4,0:3:0:0:
264,184,66115,1,8,0:0:0:0:
244,224,66222,5,4,0:3:0:0:
244,224,66651,2,0,B|257:287|316:273|325:315,1,125.999996154785,8|0,0:0|0:0,0:0:0:0:
480,224,67080,2,0,B|466:287|407:273|398:315,1,125.999996154785,4|0,0:3|0:0,0:0:0:0:
362,166,67508,1,8,0:0:0:0:
224,32,67722,1,0,0:0:0:0:
244,224,67937,1,4,0:3:0:0:
244,224,68365,38,0,B|231:287|172:273|163:315,1,125.999996154785,8|0,0:0|0:0,0:0:0:0:
8,224,68794,2,0,B|22:287|81:273|90:315,1,125.999996154785,4|0,0:3|0:0,0:0:0:0:
126,166,69222,1,8,0:0:0:0:
264,32,69437,1,0,0:0:0:0:
244,224,69651,1,4,0:3:0:0:
244,224,70080,6,0,B|380:224,1,125.999996154785,8|0,0:0|0:0,0:0:0:0:
508,224,70508,1,4,0:3:0:0:
314,161,70722,1,0,0:0:0:0:
434,326,70937,1,8,0:0:0:0:
434,122,71151,1,0,0:0:0:0:
314,287,71365,5,4,0:3:0:0:
314,287,71794,2,0,P|256:336|204:332,1,125.999996154785,8|0,0:0|0:0,0:0:0:0:
4,160,72222,1,4,0:3:0:0:
48,316,72437,1,0,0:0:0:0:
168,208,72651,38,0,L|220:148,1,62.9999980773926,8|4,0:0|0:3,0:0:0:0:
168,72,72865,2,0,L|248:44,1,62.9999980773926,4|8,0:3|0:0,0:0:0:0:
308,92,73080,6,0,B|404:108|412:44|512:72|536:212|384:192|444:288|536:356,1,405.000015449525,4|8,0:3|0:0,0:0:0:0:
364,316,74794,2,0,B|268:300|260:364|160:336|136:196|288:216|228:120|136:52,1,405.000015449525,4|8,0:3|0:0,0:0:0:0:
56,96,76508,6,4,B|36:168|0:219|112:355|228:265|8:191|0:304|38:359,1,337.500012874604,4|0,0:3|0:0,0:0:0:0:
146,352,77794,1,8,0:0:0:0:
252,332,78008,1,0,0:0:0:0:
355,297,78222,2,0,B|434:284|496:172|496:172|344:176|352:60,1,405.000015449525,4|8,0:3|0:0,0:0:0:0:
452,68,79722,1,4,0:3:0:0:
352,64,79937,38,0,B|250:58|222:178|98:134|50:54|50:54|-6:130,1,405.000015449525,4|8,0:3|0:0,0:0:0:0:
16,300,81651,2,0,B|54:351|54:351|102:271|226:227|254:347|356:341,1,405.000015449525,4|8,0:3|0:0,0:0:0:0:
408,212,83365,6,0,B|352:168|352:168|352:268|352:268|268:200|176:212,1,337.500012874604,4|0,0:3|0:0,0:0:0:0:
98,210,84651,1,8,0:0:0:0:
12,156,84865,1,0,0:0:0:0:
60,64,85080,2,0,B|156:84|208:24|208:24|304:112|432:24|432:144,1,405.000015449525,4|8,0:3|0:0,0:0:0:0:
472,180,86580,1,4,0:3:0:0:
388,180,86794,6,0,B|320:278|414:346|414:346|320:377,2,270,4|4|8,0:3|0:3|0:0,0:0:0:0:
288,240,88294,1,4,0:3:0:0:
188,296,88508,2,0,B|255:197|162:129|162:129|255:98,2,270,4|4|8,0:3|0:3|0:0,0:0:0:0:
288,240,90008,1,4,0:3:0:0:
388,180,90222,38,0,P|472:176|452:28,1,270,4|4,0:3|0:3,0:0:0:0:
244,160,91294,1,0,0:0:0:0:
424,104,91508,1,8,0:0:0:0:
380,288,91722,1,0,0:0:0:0:
204,232,91937,6,0,B|177:210|177:210|134:221|134:169,2,90,4|0|0,0:3|0:0|0:0,0:0:0:0:
176,128,92580,2,0,B|199:104|199:104|244:112|240:60,2,90,4|0|0,0:3|0:0|0:0,0:0:0:0:
276,164,93222,2,0,B|309:161|309:161|338:195|368:153,1,90,8|4,0:0|0:3,0:0:0:0:
464,168,93651,6,0,P|452:224|392:268,1,90,4|0,0:3|0:0,0:0:0:0:
324,260,94080,1,0,0:0:0:0:
276,164,94294,2,0,P|288:108|348:64,1,90,4|0,0:3|0:0,0:0:0:0:
416,72,94722,1,0,0:0:0:0:
464,168,94937,2,0,B|464:240|408:264|408:264|408:336,1,180,8|4,0:0|0:3,0:0:0:0:
379,184,95580,38,0,P|341:205|325:246,1,90
328,356,96008,1,4,0:3:0:0:
220,356,96222,1,0,0:0:0:0:
220,247,96437,1,0,0:0:0:0:
326,247,96651,2,0,B|326:185|326:185|382:161|382:89,1,180,8|4,0:0|0:3,0:0:0:0:
381,89,97294,5,0,0:0:0:0:
296,24,97508,1,0,0:0:0:0:
296,24,97722,1,4,0:3:0:0:
272,136,97937,2,0,P|254:177|230:214,1,90,8|8,0:0|0:0,0:0:0:0:
124,240,98365,2,0,P|141:281|180:312,1,90,4|0,0:3|0:0,0:0:0:0:
400,348,98794,5,4,0:3:0:0:
400,348,99008,1,0,0:0:0:0:
232,216,99222,1,0,0:0:0:0:
232,216,99437,1,4,0:3:0:0:
445,178,99651,2,0,P|470:140|469:86,1,90,8|8,0:0|0:0,0:0:0:0:
384,44,100080,2,0,P|364:96|332:120,1,90,4|4,0:3|0:3,0:0:0:0:
239,160,100508,38,0,P|189:195|173:255,1,125.999996154785,4|0,0:3|0:0,0:0:0:0:
304,352,100937,2,0,P|354:316|370:256,1,125.999996154785,8|0,0:0|0:0,0:0:0:0:
383,100,101365,1,4,0:3:0:0:
476,265,101580,1,0,0:0:0:0:
304,352,101794,1,8,0:0:0:0:
210,186,102008,1,0,0:0:0:0:
168,368,102222,6,0,P|116:364|36:312,1,125.999996154785,4|0,0:3|0:0,0:0:0:0:
20,192,102651,2,0,P|72:196|152:248,1,125.999996154785,8|0,0:0|0:0,0:0:0:0:
304,348,103080,1,4,0:3:0:0:
502,383,103294,1,0,0:0:0:0:
433,193,103508,1,8,0:0:0:0:
304,348,103722,1,0,0:0:0:0:
106,384,103937,5,4,0:3:0:0:
175,194,104151,1,0,0:0:0:0:
304,348,104365,1,8,0:0:0:0:
502,383,104580,1,0,0:0:0:0:
433,193,104794,2,0,P|432:124|472:72,1,125.999996154785,4|0,0:3|0:0,0:0:0:0:
232,64,105222,2,0,P|266:124|327:149,1,125.999996154785,8|0,0:0|0:0,0:0:0:0:
175,194,105651,38,0,P|106:193|54:233,1,125.999996154785,4|0,0:3|0:0,0:0:0:0:
156,344,106080,1,8,0:0:0:0:
175,194,106294,1,0,0:0:0:0:
312,96,106508,1,4,0:3:0:0:
433,193,106722,1,0,0:0:0:0:
419,347,106937,5,8,0:0:0:0:
375,340,107044,1,4,0:3:0:0:
334,323,107151,1,4,0:3:0:0:
301,293,107258,1,8,0:0:0:0:
276,256,107365,5,4,0:3:0:0:
276,256,107794,2,0,P|336:184|328:148,1,125.999996154785,8|0,0:0|0:0,0:0:0:0:
192,212,108222,2,0,P|132:284|140:320,1,125.999996154785,4|0,0:3|0:0,0:0:0:0:
276,256,108651,1,8,0:0:0:0:
428,196,108865,1,0,0:0:0:0:
300,92,109080,37,4,0:3:0:0:
300,92,109508,2,0,P|228:72|176:16,1,125.999996154785,8|0,0:0|0:0,0:0:0:0:
82,265,109937,2,0,P|143:251|192:212,1,125.999996154785,4|0,0:3|0:0,0:0:0:0:
300,92,110365,1,8,0:0:0:0:
428,196,110580,1,0,0:0:0:0:
276,256,110794,5,4,0:3:0:0:
276,256,111222,2,0,P|208:316|200:356,1,125.999996154785,8|0,0:0|0:0,0:0:0:0:
120,212,111651,1,4,0:3:0:0:
50,20,111865,1,0,0:0:0:0:
219,134,112080,1,8,0:0:0:0:
16,142,112294,1,0,0:0:0:0:
176,16,112508,5,4,0:3:0:0:
176,16,112937,2,0,P|240:48|304:48,1,125.999996154785,8|0,0:0|0:0,0:0:0:0:
264,224,113365,2,0,P|323:184|355:129,1,125.999996154785,4|0,0:3|0:0,0:0:0:0:
456,208,113794,38,0,L|416:280,1,62.9999980773926,8|4,0:0|0:3,0:0:0:0:
459,71,114008,2,0,L|488:128,1,62.9999980773926,4|8,0:3|0:0,0:0:0:0:
360,32,114222,5,4,0:3:0:0:
252,20,114437,1,0,0:0:0:0:
148,48,114651,1,4,0:3:0:0:
72,124,114865,1,0,0:0:0:0:
28,224,115080,2,0,P|24:272|72:332,2,90,4|0|4,0:3|0:0|0:3,0:0:0:0:
28,224,115722,1,0,0:0:0:0:
116,160,115937,5,4,0:3:0:0:
220,128,116151,1,0,0:0:0:0:
328,144,116365,1,4,0:3:0:0:
416,208,116580,1,0,0:0:0:0:
496,280,116794,2,0,P|500:340|468:380,2,90,4|0|4,0:3|0:0|0:3,0:0:0:0:
496,280,117437,1,0,0:0:0:0:
396,324,117651,37,4,0:3:0:0:
296,364,117865,1,0,0:0:0:0:
188,364,118080,1,4,0:3:0:0:
88,324,118294,1,0,0:0:0:0:
32,232,118508,2,0,P|28:172|56:128,2,90,4|0|4,0:3|0:0|0:3,0:0:0:0:
32,232,119151,1,0,0:0:0:0:
132,276,119365,5,4,0:3:0:0:
240,284,119580,1,0,0:0:0:0:
344,252,119794,1,4,0:3:0:0:
428,184,120008,1,0,0:0:0:0:
448,292,120222,1,4,0:3:0:0:
344,252,120437,1,0,0:0:0:0:
268,176,120651,1,4,0:3:0:0:
268,176,120865,1,4,0:3:0:0:
268,176,121080,6,0,P|255:134|267:92,1,90,4|0,0:3|0:0,0:0:0:0:
268,176,121508,2,0,P|310:163|352:175,1,90,4|0,0:3|0:0,0:0:0:0:
268,176,121937,2,0,P|281:218|269:260,1,90,4|0,0:3|0:0,0:0:0:0:
268,176,122365,2,0,P|225:189|183:177,1,90,4|0,0:3|0:0,0:0:0:0:
267,90,122794,38,0,P|279:48|265:6,1,90,4|0,0:3|0:0,0:0:0:0:
183,177,123222,2,0,P|141:164|99:179,1,90,4|0,0:3|0:0,0:0:0:0:
269,260,123651,2,0,P|255:302|270:345,1,90,4|0,0:3|0:0,0:0:0:0:
352,174,124080,2,0,P|394:187|437:173,1,90,4|0,0:3|0:0,0:0:0:0:
140,56,124508,6,0,L|203:120,1,90,4|0,0:3|0:0,0:0:0:0:
140,307,124937,2,0,L|204:244,1,90,4|0,0:3|0:0,0:0:0:0:
392,308,125365,2,0,L|324:239,1,90,4|0,0:3|0:0,0:0:0:0:
392,56,125794,2,0,L|319:127,1,90,4|0,0:3|0:0,0:0:0:0:
193,109,126222,5,4,0:3:0:0:
197,253,126437,1,0,0:0:0:0:
340,249,126651,1,4,0:3:0:0:
337,106,126865,1,0,0:0:0:0:
145,182,127080,37,4,0:3:0:0:
270,301,127294,1,0,0:0:0:0:
389,176,127508,1,4,0:3:0:0:
264,57,127722,1,4,0:3:0:0:
460,88,127937,6,0,L|496:0,1,90,4|0,0:3|0:0,0:0:0:0:
374,91,128365,2,0,L|381:-5,1,90,4|0,0:3|0:0,0:0:0:0:
290,120,128794,2,0,L|266:34,1,90,4|0,0:3|0:0,0:0:0:0:
224,176,129222,2,0,L|171:102,1,90,4|0,0:3|0:0,0:0:0:0:
172,252,129651,5,4,0:3:0:0:
148,332,129865,1,0,0:0:0:0:
228,312,130080,2,0,L|328:336,1,90,4|0,0:3|0:0,0:0:0:0:
148,332,130508,1,4,0:3:0:0:
172,252,130722,1,0,0:0:0:0:
92,272,130937,2,0,L|-8:248,1,90,4|0,0:3|0:0,0:0:0:0:
120,188,131365,37,4,0:3:0:0:
172,252,131580,1,0,0:0:0:0:
232,200,131794,1,4,0:3:0:0:
180,136,132008,1,0,0:0:0:0:
124,76,132222,2,0,L|51:2,1,90,4|0,0:3|0:0,0:0:0:0:
124,76,132651,2,0,L|196:3,1,90,4|0,0:3|0:0,0:0:0:0:
268,12,133080,6,0,P|304:36|316:92,1,90,4|0,0:3|0:0,0:0:0:0:
328,156,133508,2,0,P|341:198|379:220,1,90,4|0,0:3|0:0,0:0:0:0:
456,224,133937,2,0,P|442:266|404:288,1,90,4|0,0:3|0:0,0:0:0:0:
327,300,134365,1,4,0:3:0:0:
327,300,134580,1,4,0:3:0:0:
248,304,134794,22,0,P|188:284|160:256,3,90,4|0|0|0,0:3|0:0|0:0|0:0,0:0:0:0:
116,328,135651,2,0,P|88:272|104:224,3,90,4|0|0|0,0:3|0:0|0:0|0:0,0:0:0:0:
12,252,136508,2,0,P|52:176|92:168,3,90,4|0|0|0,0:3|0:0|0:0|0:0,0:0:0:0:
0,112,137365,2,0,P|72:96|116:124,3,90,4|0|0|0,0:3|0:0|0:0|0:0,0:0:0:0:
120,24,138222,6,0,B|155:21|175:57|205:40,1,90,4|0,0:3|0:0,0:0:0:0:
160,120,138651,2,0,B|195:117|215:153|245:136,1,90
200,216,139080,2,0,B|234:212|254:248|285:231,1,90,4|0,0:3|0:0,0:0:0:0:
240,312,139508,2,0,B|274:308|294:344|325:327,1,90
411,311,139937,54,0,B|376:307|356:343|326:327,1,90,4|0,0:3|0:0,0:0:0:0:
371,215,140365,2,0,B|336:211|316:247|286:231,1,90
331,119,140794,2,0,B|296:115|276:151|246:135,1,90,4|0,0:3|0:0,0:0:0:0:
292,24,141222,2,0,B|257:20|237:56|207:40,1,90
