osu file format v13

[General]
AudioFilename: 08 Crystalis Fantasia.mp3
AudioLeadIn: 2000
PreviewTime: 28935
Countdown: 0
SampleSet: Normal
StackLeniency: 0.3
Mode: 0
LetterboxInBreaks: 1
WidescreenStoryboard: 1

[Editor]
Bookmarks: 1072,7929,14786,18214,31929,45649,52506,59363
DistanceSpacing: 1.2
BeatDivisor: 2
GridSize: 4
TimelineZoom: 1

[Metadata]
Title:Crystalis Fantasia
TitleUnicode:Crystalis Fantasia
Artist:Halcyonic Falcon X
ArtistUnicode:Halcyonic Falcon X
Creator:DarkVortex
Version:Easy
Source:Epic Battle Fantasy 4
Tags:Matt likes swords Newgrounds ebf ebf4
BeatmapID:267919
BeatmapSetID:99653

[Difficulty]
HPDrainRate:3
CircleSize:2
OverallDifficulty:2
ApproachRate:2
SliderMultiplier:0.859999904632566
SliderTickRate:1

[Events]
//Background and Video events
0,0,"crystal_cave (grey).jpg",0,0
//Break Periods
//Storyboard Layer 0 (Background)
//Storyboard Layer 1 (Fail)
//Storyboard Layer 2 (Pass)
//Storyboard Layer 3 (Foreground)
//Storyboard Sound Samples
//Background Colour Transformations
3,100,163,162,255

[TimingPoints]
1080,428.571428571429,4,2,1,80,1,0
1080,-105.263157894737,4,2,1,80,0,0
59365,-100,4,1,1,75,0,1
73080,-105.263157894737,4,1,1,75,0,0
100508,-100,4,1,1,75,0,1
114222,-105.263157894737,4,1,1,65,0,0
127937,-105.263157894737,4,2,1,85,0,0
134794,-105.263157894737,4,2,1,80,0,0
136508,-105.263157894737,4,2,1,60,0,0
138222,-105.263157894737,4,2,1,40,0,0
139937,-105.263157894737,4,2,1,20,0,0

[Colours]
Combo1 : 120,60,220
Combo2 : 130,130,130
Combo3 : 230,230,230
Combo4 : 45,0,215
Combo5 : 164,0,148

[HitObjects]
160,128,7937,6,0,B|192:56|192:56|300:32,1,163.199986900329,4|4,0:3|0:3,0:0:0:0:
468,56,9651,2,0,B|436:128|436:128|328:152,1,163.199986900329,4|4,0:3|0:3,0:0:0:0:
160,128,11365,6,0,L|83:190,1,81.5999934501645,4|4,0:3|0:3,0:0:0:0:
176,232,12222,2,0,L|176:336,1,81.5999934501645,4|4,0:3|0:3,0:0:0:0:
272,312,13080,2,0,L|272:216,1,81.5999934501645,4|4,0:3|0:3,0:0:0:0:
350,178,13937,2,0,L|288:124,1,81.5999934501645,4|4,0:3|0:3,0:0:0:0:
256,192,14794,12,4,18222,0:3:0:0:
256,192,19080,53,4,0:3:0:0:
160,24,19937,1,4,0:3:0:0:
328,120,20794,2,0,P|359:193|329:266,1,163.199986900329,4|4,0:3|0:3,0:0:0:0:
152,196,22508,6,0,P|78:222|58:297,1,163.199986900329,4|4,0:3|0:3,0:0:0:0:
236,342,24222,1,4,0:3:0:0:
330,342,24651,2,0,L|396:292,1,81.5999934501645,4|4,0:3|0:3,0:0:0:0:
308,116,25937,54,0,B|345:44|345:44|424:23,1,163.199986900329,4|4,0:3|0:3,0:0:0:0:
492,212,27651,2,0,B|454:283|454:283|368:305,1,163.199986900329,4|4,0:3|0:3,0:0:0:0:
308,116,29365,2,0,B|227:136|227:136|190:208,1,163.199986900329,4|4,0:3|0:3,0:0:0:0:
68,356,31080,2,0,B|107:368|107:368|146:356,1,81.6999887584687,4|4,0:3|0:3,0:0:0:0:
236,320,31937,6,0,P|306:282|327:226,2,122.399990175247,4|4|2,0:3|0:3|0:0,0:0:0:0:
232,223,33651,2,0,P|264:173|324:152,2,122.549983137703,4|4|2,0:3|0:3|0:0,0:0:0:0:
232,320,35365,54,0,P|160:288|132:228,1,122.399990175247,4|4,0:3|0:3,0:0:0:0:
84,116,36651,1,2,0:0:0:0:
164,172,37080,6,0,B|192:129|176:84|176:84|201:67,1,122.549983137703,4|4,0:3|0:3,0:0:0:0:
304,160,38365,2,0,L|340:137,2,40.8499943792344,2|4|4,0:0|0:3|0:3,0:0:0:0:
180,236,39437,53,4,0:3:0:0:
300,320,40080,2,0,P|320:284|327:244,1,81.6999887584687,2|4,0:0|0:3,0:0:0:0:
264,116,41151,5,4,0:3:0:0:
120,156,41794,2,0,P|112:115|120:75,1,81.6999887584687,2|4,0:0|0:3,0:0:0:0:
264,116,42865,53,4,0:3:0:0:
408,76,43508,2,0,P|415:116|407:156,1,81.6999887584687,2|4,0:0|0:3,0:0:0:0:
308,264,44580,5,4,0:3:0:0:
168,308,45222,2,0,L|108:328,2,40.7999967250822,2|4|4,0:0|0:3|0:3,0:0:0:0:
308,264,46294,53,4,0:3:0:0:
200,164,46937,2,0,B|175:139|175:139|138:138|123:100,1,81.5999934501645,2|4,0:0|0:3,0:0:0:0:
0,60,48008,5,4,0:3:0:0:
68,192,48651,2,0,B|92:216|92:216|129:217|144:255,1,81.5999934501645,2|4,0:0|0:3,0:0:0:0:
244,332,49722,54,0,P|316:336|356:280,1,122.549983137703,4|2,0:3|0:0,0:0:0:0:
408,224,50794,2,0,B|444:183|444:183|512:197,2,122.549983137703,4|4|2,0:3|0:3|0:0,0:0:0:0:
308,220,52508,5,4,0:3:0:0:
184,300,53151,2,0,B|132:276|132:276|124:208,1,122.399990175247,4|2,0:3|0:0,0:0:0:0:
188,136,54222,53,4,0:3:0:0:
308,220,54865,2,0,B|360:244|360:244|368:312,1,122.399990175247,4|2,0:3|0:0,0:0:0:0:
268,312,55937,6,0,P|220:308|180:280,2,81.5999934501645,4|0|2,0:3|0:0|0:0,0:0:0:0:
268,120,57651,2,0,P|316:116|356:88,2,81.5999934501645,4|0|2,0:3|0:0|0:0,0:0:0:0:
62,95,59365,6,0,B|104:76|145:95,2,85.9999904632566,4|8|4,0:3|0:0|0:3,0:0:0:0:
103,195,60651,1,8,0:0:0:0:
144,292,61080,2,0,B|104:312|61:294,2,85.9999904632566,4|8|4,0:3|0:0|0:3,0:0:0:0:
229,236,62365,1,8,0:0:0:0:
308,162,62794,6,0,B|326:143|326:143|326:109|326:109|352:92,1,85.9999904632566,4|8,0:3|0:0,0:0:0:0:
452,84,63651,2,0,B|433:103|433:103|433:137|433:137|411:157,1,85.9999904632566,4|8,0:3|0:0,0:0:0:0:
352,236,64508,2,0,B|341:262|341:262|300:255|276:276,1,85.9999904632566,4|8,0:3|0:0,0:0:0:0:
184,252,65365,1,4,0:3:0:0:
258,177,65794,2,0,L|298:137,2,42.9999952316283,8|4|4,0:0|0:3|0:0,0:0:0:0:
184,252,66651,5,8,0:0:0:0:
109,330,67080,2,0,P|67:328|32:303,2,85.9999904632566,4|8|4,0:3|0:0|0:3,0:0:0:0:
184,252,68365,37,8,0:0:0:0:
258,330,68794,2,0,P|301:328|338:305,2,85.9999904632566,4|8|4,0:3|0:0|0:3,0:0:0:0:
184,252,70080,5,8,0:0:0:0:
184,144,70508,2,0,L|184:59,2,85.9999904632566,4|8|4,0:3|0:0|0:3,0:0:0:0:
184,252,71794,5,8,0:0:0:0:
281,207,72222,1,4,0:3:0:0:
348,288,72651,1,8,0:0:0:0:
412,368,73080,38,0,B|472:288|412:212|412:212|496:212,1,244.799980350493,4|8,0:3|0:0,0:0:0:0:
486,113,74794,2,0,B|486:43|486:43|410:103|326:41,1,245.099966275406,4|8,0:3|0:0,0:0:0:0:
248,100,76508,6,0,B|176:172|96:44|20:120,1,245.099966275406,4|8,0:3|0:0,0:0:0:0:
23,212,78222,2,0,B|95:284|175:156|252:232,1,245.099966275406,4|8,0:3|0:0,0:0:0:0:
312,308,79937,6,0,B|348:256|404:232|404:232|348:208|312:152,1,244.799980350493,4|8,0:3|0:0,0:0:0:0:
252,232,81651,2,0,B|216:180|160:156|160:156|216:132|252:76,1,245.099966275406,4|8,0:3|0:0,0:0:0:0:
348,56,83365,38,0,B|348:84|348:84|376:152|348:232|348:232|348:300,1,245.099966275406,4|8,0:3|0:0,0:0:0:0:
248,292,85080,2,0,B|248:216|248:216|280:156|248:104|248:104|248:52,1,244.799980350493,4|8,0:3|0:0,0:0:0:0:
152,40,86794,6,0,P|132:97|132:158,2,122.549983137703,4|4|8,0:3|0:3|0:0,0:0:0:0:
244,72,88508,2,0,P|301:92|362:92,2,122.549983137703,4|4|8,0:3|0:3|0:0,0:0:0:0:
224,168,90222,6,0,B|184:220|120:208|128:264,1,122.399990175247,4|4,0:3|0:3,0:0:0:0:
192,380,91508,1,8,0:0:0:0:
228,288,91937,38,0,B|268:340|332:328|324:384,2,122.399990175247,4|4|8,0:3|0:3|0:0,0:0:0:0:
192,380,93651,2,0,P|148:340|132:280,2,122.549983137703,4|4|8,0:3|0:3|0:0,0:0:0:0:
228,288,95365,2,0,P|272:248|286:188,2,122.549983137703,4|4|8,0:3|0:3|0:0,0:0:0:0:
188,200,97080,6,0,B|160:188|168:160|132:144,1,81.5999934501645,4|0,0:3|0:0,0:0:0:0:
84,228,97937,1,8,0:0:0:0:
208,76,98794,6,0,B|236:88|228:116|264:132,1,81.5999934501645,4|0,0:3|0:0,0:0:0:0:
336,200,99651,1,8,0:0:0:0:
412,264,100080,1,4,0:3:0:0:
436,164,100508,37,4,0:3:0:0:
336,200,100937,1,8,0:0:0:0:
372,96,101365,2,0,B|384:68|384:68|417:60|417:60|424:40,2,85.9999904632566,4|8|4,0:3|0:0|0:3,0:0:0:0:
336,200,102651,5,8,0:0:0:0:
440,236,103080,2,0,B|468:248|468:248|476:281|476:281|496:288,2,85.9999904632566,4|8|4,0:3|0:0|0:3,0:0:0:0:
336,200,104365,1,8,0:0:0:0:
232,164,104794,2,0,B|187:151|187:151|148:178,2,85.9999904632566,4|8|4,0:3|0:0|0:3,0:0:0:0:
336,200,106080,5,8,0:0:0:0:
428,256,106508,1,4,0:3:0:0:
336,308,106937,2,0,L|308:348,2,42.9999952316283,8|4|4,0:0|0:3|0:0,0:0:0:0:
336,200,107794,38,0,L|336:112,1,85.9999904632566,8|4,0:0|0:3,0:0:0:0:
240,76,108651,1,8,0:0:0:0:
140,108,109080,1,4,0:3:0:0:
100,204,109508,2,0,P|116:248|148:276,1,86.3999887802125,8|4,0:0|0:3,0:0:0:0:
236,320,110365,1,8,0:0:0:0:
340,308,110794,5,4,0:3:0:0:
424,248,111222,2,0,P|444:192|436:144,1,86.3999887802125,8|4,0:0|0:3,0:0:0:0:
408,68,112080,1,8,0:0:0:0:
304,64,112508,5,4,0:3:0:0:
364,157,112937,1,8,0:0:0:0:
424,248,113365,1,4,0:3:0:0:
340,308,113794,2,0,L|304:336,2,42.9999952316283,8|4|4,0:0|0:3|0:0,0:0:0:0:
424,248,114651,37,4,0:3:0:0:
484,172,115080,1,4,0:3:0:0:
384,160,115508,1,4,0:3:0:0:
444,80,115937,2,0,B|427:50|427:50|382:36,1,81.5999934501645,4|4,0:3|0:3,0:0:0:0:
284,36,116794,2,0,B|239:50|239:50|222:79,1,81.5999934501645,4|4,0:3|0:3,0:0:0:0:
280,156,117651,5,4,0:3:0:0:
184,172,118080,1,4,0:3:0:0:
140,260,118508,2,0,B|175:279|175:279|214:268,1,81.6999887584687,4|4,0:3|0:3,0:0:0:0:
308,240,119365,1,4,0:3:0:0:
400,212,119794,1,4,0:3:0:0:
376,308,120222,2,0,B|415:318|415:318|450:299,1,81.6999887584687,4|4,0:3|0:3,0:0:0:0:
496,212,121080,6,0,B|496:152|496:152|456:128|456:128|456:71,1,163.399977516937,4|4,0:3|0:3,0:0:0:0:
357,60,122365,1,4,0:3:0:0:
282,127,122794,2,0,P|261:92|256:50,1,81.6999887584687,4|4,0:3|0:3,0:0:0:0:
160,28,123651,2,0,P|119:34|85:56,1,81.6999887584687,4|4,0:3|0:3,0:0:0:0:
76,152,124508,38,0,P|20:180|12:216,2,81.5999934501645,4|4|4,0:3|0:3|0:3,0:0:0:0:
172,152,125794,1,4,0:3:0:0:
172,248,126222,2,0,P|196:279|240:288,2,81.6999887584687,4|4|4,0:3|0:3|0:3,0:0:0:0:
172,152,127508,1,4,0:3:0:0:
268,152,127937,5,4,0:3:0:0:
328,228,128365,1,4,0:3:0:0:
416,188,128794,1,4,0:3:0:0:
472,112,129222,2,0,P|493:79|492:36,1,81.5999934501645,4|4,0:3|0:3,0:0:0:0:
400,28,130080,2,0,P|378:60|376:104,1,81.5999934501645,4|4,0:3|0:3,0:3:0:0:
416,188,130937,1,4,0:3:0:0:
480,264,131365,6,0,P|444:282|400:284,1,81.5999934501645,4|4,0:3|0:3,0:3:0:0:
308,284,132222,1,4,0:3:0:0:
212,284,132651,2,0,L|124:284,2,81.5999934501645,4|4|4,0:3|0:3|0:3,0:3:0:0:
212,184,133937,2,4,L|296:184,1,81.5999934501645,4|4,0:3|0:3,0:3:0:0:
388,184,134794,6,0,B|420:112|420:112|528:88,1,163.199986900329,4|4,0:3|0:3,0:3:0:0:
499,286,136508,2,0,B|467:358|467:358|384:376,1,163.199986900329,4|4,0:3|0:3,0:3:0:0:
195,375,138222,2,0,B|149:312|149:312|174:230,1,163.399977516937,4|4,0:3|0:3,0:3:0:0:
344,136,139937,2,0,B|369:217|369:217|323:280,1,163.399977516937,4|4,0:3|0:3,0:3:0:0:
