osu file format v14

[General]
AudioFilename: Star Fox Command Soundtrack- The Loner, Falco Lombardi (1080p).mp3
AudioLeadIn: 0
PreviewTime: 21491
Countdown: 1
SampleSet: Normal
StackLeniency: 0.7
Mode: 0
LetterboxInBreaks: 1
WidescreenStoryboard: 1

[Editor]
DistanceSpacing: 0.8
BeatDivisor: 4
GridSize: 4
TimelineZoom: 1

[Metadata]
Title:The Loner, Falco Lombardi
TitleUnicode:The Loner, Falco Lombardi
Artist:Hajime Wakai
ArtistUnicode:Hajime Wakai
Creator:kiwibikercookie
Version:Normal
Source:Star Fox Command
Tags:game vgm
BeatmapID:699393
BeatmapSetID:313283

[Difficulty]
HPDrainRate:5
CircleSize:5
OverallDifficulty:5
ApproachRate:5
SliderMultiplier:1.39999990463257
SliderTickRate:2

[Events]
//Background and Video events
0,0,"boy i shit!!!.png",0,0
//Break Periods
//Storyboard Layer 0 (Background)
//Storyboard Layer 1 (Fail)
//Storyboard Layer 2 (Pass)
//Storyboard Layer 3 (Foreground)
//Storyboard Sound Samples

[TimingPoints]
-258.654446422203,750,4,1,0,100,1,0

[Colours]
Combo1 : 187,0,0
Combo2 : 18,124,255
Combo3 : 255,17,23
Combo4 : 46,46,46

[HitObjects]
48,48,3491,5,0,0:0:0:0:
48,128,4053,1,0,0:0:0:0:
48,208,4616,1,0,0:0:0:0:
48,320,5366,1,0,0:0:0:0:
96,320,5741,1,0,0:0:0:0:
144,320,6116,1,0,0:0:0:0:
144,272,6491,1,0,0:0:0:0:
304,272,7616,1,0,0:0:0:0:
304,160,8366,1,0,0:0:0:0:
352,160,8741,1,0,0:0:0:0:
400,160,9116,1,0,0:0:0:0:
400,208,9491,6,0,B|416:256|384:288|320:288|304:256,1,139.999990463257
256,240,10616,1,0,0:0:0:0:
256,192,10991,2,0,L|288:160,1,34.9999976158143
304,144,11366,2,0,L|352:96,1,34.9999976158143
352,96,11741,2,0,L|384:64,1,34.9999976158143
400,48,12116,2,0,L|432:16,1,34.9999976158143
448,16,12491,2,0,L|448:176,2,139.999990463257
400,48,14366,2,0,L|320:112,2,69.9999952316285
288,160,15491,6,0,P|240:208|192:160,1,139.999990463257
240,160,16616,1,0,0:0:0:0:
192,160,16991,2,0,L|144:160,1,34.9999976158143
128,160,17366,2,0,L|128:224,1,34.9999976158143
128,224,17741,2,0,L|128:288,1,34.9999976158143
128,288,18116,2,0,L|176:320,1,34.9999976158143
192,304,18491,2,0,L|336:304,2,139.999990463257
144,288,20366,1,0,0:0:0:0:
144,240,20741,1,0,0:0:0:0:
144,192,21116,1,0,0:0:0:0:
144,144,21491,6,0,B|192:96|240:96|288:96|336:144,2,209.999985694886
144,144,24116,2,0,L|144:224,1,69.9999952316285
144,272,24866,1,0,0:0:0:0:
192,272,25241,2,0,L|288:272,1,69.9999952316285
320,272,25991,2,0,L|464:272,1,139.999990463257
352,272,27491,2,0,B|288:256|224:224|192:160|160:128|144:64,1,279.999980926514
48,48,29741,1,0,0:0:0:0:
48,160,30491,6,0,B|48:208|80:208|80:160|112:160|112:208|144:208|144:160,1,139.999990463257
144,112,31616,1,0,0:0:0:0:
192,112,31991,2,0,L|192:176|192:192,2,69.9999952316285
240,112,33116,1,0,0:0:0:0:
296,108,33491,2,0,B|296:144|296:144|304:144|304:144|304:152|304:152|296:152|296:152|296:160|296:160|304:160|304:160|304:168|304:168|296:168|296:168|296:176|296:176|304:176|304:176|304:184|304:184|296:184|296:184|296:192|296:192|304:192|304:192|304:200|304:200|296:200|296:200|296:208|296:208|304:208,2,139.999990463257
256,192,35741,1,0,0:0:0:0:
256,192,36491,12,0,37241,0:0:0:0:
204,136,37991,6,0,B|324:160|356:88|284:16|220:88|256:156|388:136,1,279.999980926514
384,192,39866,1,0,0:0:0:0:
432,192,40241,2,0,L|432:288,1,69.9999952316285
376,252,40991,2,0,B|376:316|376:316|300:320|300:320|300:240|300:240|216:240,1,279.999980926514
236,324,43053,1,0,0:0:0:0:
152,324,43616,1,0,0:0:0:0:
40,328,44366,1,0,0:0:0:0:
40,272,44741,1,0,0:0:0:0:
40,216,45116,1,0,0:0:0:0:
44,160,45491,1,0,0:0:0:0:
48,76,46053,1,0,0:0:0:0:
132,76,46616,1,0,0:0:0:0:
244,72,47366,1,0,0:0:0:0:
300,72,47741,1,0,0:0:0:0:
356,72,48116,1,0,0:0:0:0:
256,192,48491,12,0,51491,0:0:0:0:
208,192,52241,5,0,0:0:0:0:
304,192,52991,1,0,0:0:0:0:
112,208,54491,6,0,B|96:256|128:288|192:288|208:256,1,139.999990463257
304,272,55616,1,0,0:0:0:0:
374,250,55991,2,0,L|422:282,2,34.9999976158143
304,272,56553,2,0,L|256:240,2,34.9999976158143
208,274,57116,2,0,L|160:242,1,34.9999976158143
96,224,57491,2,0,L|96:80,2,139.999990463257
112,64,59366,1,0,0:0:0:0:
128,80,59553,1,0,0:0:0:0:
144,96,59741,1,0,0:0:0:0:
160,112,59928,1,0,0:0:0:0:
176,128,60116,1,0,0:0:0:0:
192,144,60303,1,0,0:0:0:0:
208,160,60491,2,0,B|208:208|224:224|272:224|272:208|272:160,1,139.999990463257
271,164,61616,1,0,0:0:0:0:
320,160,61991,2,0,L|368:160,7,34.9999976158143
352,192,63491,2,0,L|352:336,1,139.999990463257
304,336,64616,1,0,0:0:0:0:
304,288,64991,1,0,0:0:0:0:
352,288,65366,2,0,L|416:144,1,139.999990463257
352,192,66491,6,0,B|352:48|240:48|240:192|144:192|144:48|48:48|48:192,1,419.999971389771
96,192,69116,2,0,L|96:272,1,69.9999952316285
144,272,69866,1,0,0:0:0:0:
128,224,70241,2,0,L|224:224,1,69.9999952316285
224,272,70991,2,0,L|368:272,1,139.999990463257
160,272,72491,2,0,B|224:256|288:224|320:160|352:128|368:64,1,279.999980926514
464,48,74741,1,0,0:0:0:0:
352,44,75491,6,0,B|288:108|288:108|240:80,1,139.999990463257
260,28,76616,1,0,0:0:0:0:
216,68,76991,2,0,B|184:88|184:88|208:116,1,69.9999952316285
260,116,77741,2,0,B|292:92|292:92|260:60,1,69.9999952316285
304,116,78491,2,0,B|304:176|340:176|340:112|376:108|368:176,2,139.999990463257
264,76,80366,1,0,0:0:0:0:
236,76,80553,1,0,0:0:0:0:
208,76,80741,1,0,0:0:0:0:
256,192,81491,12,0,82241,0:0:0:0:
112,192,82991,6,0,B|132:148|132:148|160:148|160:148|168:232|200:228|196:148|196:148|220:148|220:148|248:188,1,279.999980926514
244,128,84866,1,0,0:0:0:0:
300,124,85241,2,0,L|300:220,1,69.9999952316285
316,248,85991,2,0,P|204:248|92:120,1,279.999980926514
180,132,88053,1,0,0:0:0:0:
264,132,88616,1,0,0:0:0:0:
128,128,89366,1,0,0:0:0:0:
128,176,89741,1,0,0:0:0:0:
128,224,90116,1,0,0:0:0:0:
128,272,90491,1,0,0:0:0:0:
208,272,91053,1,0,0:0:0:0:
288,272,91616,1,0,0:0:0:0:
400,272,92366,1,0,0:0:0:0:
400,224,92741,1,0,0:0:0:0:
400,176,93116,1,0,0:0:0:0:
256,192,93491,12,0,96491,0:0:0:0:
304,192,97241,5,0,0:0:0:0:
208,192,97991,1,0,0:0:0:0:
