osu file format v5

[General]
AudioFilename: Pikmin - World Map.mp3
AudioLeadIn: 0
PreviewTime: -1
Countdown: 2
SampleSet: Normal
StackLeniency: 0.7
Mode: 0
LetterboxInBreaks: 1
EditorBookmarks: 14905,41994,64606,111397,139270,163785
EditorDistanceSpacing: 0.800000011920929

[Metadata]
Title:Pikmin: World Map
Artist:Hajime Wakai
Creator:Home32
Version:Easy
Source:Super Smash Brothers Brawl
Tags:Pikmin World Map Brawl Nintendo

[Difficulty]
HPDrainRate:2
CircleSize:3
OverallDifficulty:2
SliderMultiplier:1.4
SliderTickRate:3

[Events]
//Background and Video events
0,0,"pikmin-2-wallpaper-big.jpg"
//Break Periods
2,29433,42001
2,96038,110621
2,143836,164464
//Storyboard Layer 0 (Background)
//Storyboard Layer 1 (Failing)
//Storyboard Layer 2 (Passing)
//Storyboard Layer 3 (Foreground)
//Storyboard Sound Samples
//Background Colour Transformations
3,100,111,0,111

[TimingPoints]
14905.2388059701,447.761194029851,4,1,0,100,1,0

[Colours]
Combo1 : 89,0,179
Combo2 : 255,0,0
Combo3 : 30,74,253
Combo4 : 255,255,0
Combo5 : 255,255,255

[HitObjects]
256,208,14905,1,0
256,208,15800,1,0
336,208,16696,1,2
336,208,17591,1,2
256,208,18487,5,2
256,208,19382,1,2
192,320,20278,2,2,B|368:320,2,140
256,208,22069,5,0
256,208,22964,1,0
320,336,23860,2,2,B|160:336,2,140
256,192,25651,12,0,29233
256,208,43673,5,4
256,208,45465,1,4
256,208,47256,1,4
256,208,49047,1,4
256,112,50838,5,4
256,208,52629,1,4
256,304,54420,1,4
384,304,56211,2,0,B|384:256|352:240|304:224|368:208|464:160|368:96|288:96,2,280
256,208,59905,5,0
256,208,61696,1,0
256,208,63487,1,0
256,208,65278,5,0
256,320,67069,2,0,B|256:272|288:240|272:208|224:208|256:176,2,140
400,96,68860,6,0,B|96:96,2,280
256,208,72442,5,4
256,208,74234,1,4
256,208,76025,1,4
256,208,77816,1,4
256,208,79606,1,0
256,208,81397,1,0
256,208,83300,5,0
256,208,84196,1,0
256,208,85091,1,0
336,208,86882,5,0
336,208,87778,1,0
336,208,88673,1,0
256,208,90464,5,2
256,208,91360,1,2
256,208,92255,1,2
208,208,94047,5,0
208,208,94942,1,0
208,208,95838,1,0
256,208,112069,5,0
256,208,113860,1,2
256,208,115651,1,2
256,208,117442,1,2
256,208,119233,5,2
256,208,121024,1,2
112,320,122815,2,0,B|416:320,2,280
256,208,126508,5,4
256,208,128300,1,4
256,208,130091,1,4
400,208,131882,5,0
400,208,132778,1,0
256,208,133673,5,4
256,208,135465,1,4
256,208,137256,1,4
144,208,140838,5,0
144,208,141061,1,0
256,208,141845,1,0
256,208,142069,1,0
400,208,142741,1,0
400,208,142965,1,0
400,208,143636,1,0
48,208,166024,6,0,B|336:208,2,280
256,288,169047,5,0
480,208,169606,6,0,B|192:208,2,280
256,128,172629,5,0
