osu file format v7

[General]
AudioFilename: Virtual love.mp3
AudioLeadIn: 3000
PreviewTime: 62130
Countdown: 0
SampleSet: Normal
StackLeniency: 0.7
Mode: 0
LetterboxInBreaks: 1

[Editor]
DistanceSpacing: 0.800000011920929
BeatDivisor: 2
GridSize: 16

[Metadata]
Title:Virtual love
Artist:Hajime Hyakkoku
Creator:LKs
Version:Normal
Source:K-ON!
Tags:original sound track h-boy

[Difficulty]
HPDrainRate:3
CircleSize:4
OverallDifficulty:3
SliderMultiplier:1.6
SliderTickRate:1

[Events]
//Background and Video events
0,0,"BG.png"
//Break Periods
//Storyboard Layer 0 (Background)
//Storyboard Layer 1 (Fail)
//Storyboard Layer 2 (Pass)
//Storyboard Layer 3 (Foreground)
//Storyboard Sound Samples
//Background Colour Transformations
3,100,163,162,255

[TimingPoints]
445,483.870967741935,4,2,1,40,1,0
13751,-100,4,2,2,40,0,0
14235,-100,4,2,1,40,0,0
15686,-100,4,2,2,40,0,0
16170,-100,4,2,1,40,0,0
17622,-100,4,2,2,40,0,0
18106,-100,4,2,1,40,0,0
18711,-100,4,2,2,40,0,0
19074,-100,4,2,1,40,0,0
19678,-100,4,2,2,40,0,0
20041,-100,4,2,1,40,0,0
21493,-100,4,2,2,40,0,0
21977,-100,4,2,1,40,0,0
23428,-100,4,2,2,40,0,0
23912,-100,4,2,1,40,0,0
25364,-100,4,2,2,40,0,0
25848,-100,4,2,1,40,0,0
30807,-100,4,2,1,35,0,0
31049,-100,4,2,1,30,0,0
31291,-100,4,2,1,40,0,0
62259,-100,4,2,2,40,0,0
69638,-100,4,1,1,30,0,0
77380,-100,4,2,1,40,0,0
84759,-100,4,2,1,30,0,0
85001,-100,4,2,1,35,0,0
85243,-100,4,2,1,40,0,0
85485,-100,4,1,1,35,0,0

[Colours]
Combo1 : 106,106,255
Combo2 : 255,255,0
Combo3 : 240,230,230

[HitObjects]
103,18,445,1,2
70,142,928,1,2
194,175,1412,1,2
227,51,1896,1,2
350,84,2380,1,2
317,208,2864,1,2
441,241,3348,1,2
408,365,3832,2,0,B|320:336,1,80,2|0
266,337,4315,6,0,B|170:337|170:337|122:337|58:321|58:241,1,240,8|0
26,209,5283,2,0,B|26:33,1,160,8|4
160,32,6251,6,0,B|160:128|160:128|160:160|160:208|224:256,1,240,8|0
272,288,7219,2,0,B|464:288,1,160,8|4
480,176,8186,6,0,B|480:96|432:32|320:32,1,240,8|0
269,65,9154,2,0,B|93:65,1,160,8|4
176,176,10122,6,0,B|256:176|320:224|320:336,1,240,8|0
384,336,11090,2,0,B|384:240|448:192,1,160,8|4
484,143,11815,1,4
480,80,12057,5,8
352,80,12541,1,0
240,128,13025,2,0,B|240:224,2,80,0|0|4
128,176,13993,1,4
32,352,14719,6,0,B|128:352,1,80,0|0
240,352,15444,2,0,B|240:288|272:240|368:240,1,160,4|4
256,64,16654,6,0,B|256:160,1,80
352,64,17380,2,0,B|416:64|464:96|464:176,1,160,4|4
480,352,18590,6,0,B|384:352,1,80
304,272,19315,2,0,B|400:272,2,80,4|4|4
208,192,20283,5,0
304,112,20767,2,0,B|400:112,2,80,0|0|4
208,32,21735,1,4
32,112,22461,6,0,B|32:208,1,80
32,320,23186,2,0,B|112:304|112:384|192:368,1,160,4|4
368,352,24396,6,0,B|464:352,1,80
384,240,25122,2,0,B|368:176|464:144|448:80,1,160,4|4
256,64,26332,6,0,B|160:64,1,80
176,192,27057,2,0,B|80:192,2,80,4|4|8
160,320,28025,5,4
352,336,28751,1,0
352,272,28993,1,4
464,224,29477,1,8
400,112,29961,1,4
208,64,30686,1,4
208,128,30928,1,4
208,192,31170,1,4
208,256,31412,5,8
80,256,31896,1,4
320,336,32864,5,4
368,224,33348,1,8
416,112,33832,1,4
288,112,34315,6,0,B|224:48|128:48,2,160,8|4|8
192,192,35767,1,4
400,48,36735,5,4
432,176,37219,1,8
464,304,37703,1,4
352,256,38186,1,8
240,208,38670,1,4
240,208,38912,1,4
240,272,39154,6,0,B|64:272,1,160,8|4
272,112,40606,2,0,B|448:112,2,160,4|8|4
352,352,42541,2,0,B|176:352,2,160,4|8|4
464,288,43993,5,8
352,240,44477,1,4
240,176,44961,2,0,B|64:176,1,160,8|4
80,48,45928,2,0,B|256:48,1,160,8|4
256,112,46654,1,4
320,112,46896,6,0,B|464:0,1,160,0|4
384,256,48348,2,0,B|240:368,2,160,4|8|4
160,128,50283,2,0,B|16:16,2,160,4|8|4
256,208,51735,5,8
256,80,52219,1,4
352,176,52703,2,0,B|352:352,1,160,8|4
224,336,53670,2,0,B|224:160,1,160,8|4
160,160,54396,1,4
96,176,54638,6,0,B|96:352,1,160,8|4
336,256,56090,2,0,B|336:80,2,160,4|8|4
96,176,58025,2,0,B|96:352,2,160,4|8|4
192,256,59477,2,0,B|192:80,1,160,8|4
288,192,60444,2,0,B|288:368,1,160,8|4
480,176,61896,1,4
496,112,62138,1,4
480,48,62380,5,4
352,80,62864,1,0
224,112,63348,1,0
256,240,63832,1,0
384,208,64315,1,0
352,80,64799,1,0
224,112,65283,1,0
96,144,65767,1,0
64,16,66251,5,4
96,144,66735,1,0
128,272,67219,1,0
256,240,67703,1,0
384,272,68186,1,4
416,144,68670,1,4
448,16,69154,1,4
256,192,70122,5,4
240,64,70606,1,8
112,80,71090,1,0
128,208,71574,1,8
256,192,72057,1,4
272,64,72541,1,8
400,80,73025,1,0
384,208,73509,1,8
400,336,73993,5,4
272,304,74477,1,8
144,272,74961,1,0
240,176,75444,1,8
112,144,75928,1,4
80,16,76412,1,4
208,48,76896,1,4
464,80,77864,5,8
336,96,78348,1,0
384,224,78832,1,0
288,296,79315,1,0
224,296,79557,1,0
168,264,79799,1,8
256,96,80525,6,0,B|256:192,1,80
144,112,81251,2,0,B|144:288,1,160,0|8
256,320,82219,5,0
368,272,82703,1,0
480,224,83186,1,0
464,160,83428,1,0
448,96,83670,1,8
256,80,84396,6,0,B|160:80,1,80
128,128,84880,1,4
104,192,85122,1,4
128,256,85364,1,4
176,304,85606,5,4
288,352,86090,2,0,B|448:304,2,160,8|0|8
336,240,87541,2,0,B|336:64,3,160,0|8|0|8
208,48,89477,5,4
128,144,89961,2,0,B|16:288,2,160,8|0|8
240,192,91412,2,0,B|240:304|368:304,3,160,0|8|0|8
400,304,93106,1,8
400,240,93348,5,4
336,128,93832,2,0,B|512:128,2,160,8|0|8
224,80,95283,2,0,B|48:80,3,160,0|8|0|8
48,208,97219,5,4
144,288,97703,1,8
256,336,98186,1,0
368,288,98670,1,8
464,208,99154,1,4
256,64,100122,6,0,B|256:240,2,160,4|4|4
