osu file format v12

[General]
AudioFilename: YuimaruWarudo TV-Size.MP3
AudioLeadIn: 0
PreviewTime: 21972
Countdown: 1
SampleSet: Soft
StackLeniency: 0.4
Mode: 0
LetterboxInBreaks: 1
WidescreenStoryboard: 1

[Editor]
DistanceSpacing: 1.7
BeatDivisor: 4
GridSize: 4

[Metadata]
Title:YuimaruWorld TV-Size
TitleUnicode:ゆいまーる☆わーるど TV-Size
Artist:Haitai Nanafa
ArtistUnicode:はいたい七葉
Creator:ts8zs
Version:yf's Hard
Source:Haitai Nanafa
Tags:Hentai 7
BeatmapID:308240
BeatmapSetID:112779

[Difficulty]
HPDrainRate:6
CircleSize:4
OverallDifficulty:6
ApproachRate:8
SliderMultiplier:1.5
SliderTickRate:1

[Events]
//Background and Video events
0,0,"112624930[00_02_44][20130821-195050-0].jpg",0,0
//Break Periods
//Storyboard Layer 0 (Background)
//Storyboard Layer 1 (Fail)
//Storyboard Layer 2 (Pass)
//Storyboard Layer 3 (Foreground)
//Storyboard Sound Samples
//Background Colour Transformations
3,100,163,162,255

[TimingPoints]
723,333.333333333333,4,2,1,80,1,0
3056,-90.9090909090909,4,2,1,80,0,0
3389,-100,4,2,0,80,0,0
5722,-90.9090909090909,4,2,0,80,0,0
6389,-100,4,2,0,80,0,0
11389,-133.333333333333,4,2,1,50,0,0
16722,-100,4,2,1,70,0,0
19389,-111.111111111111,4,2,1,55,0,0
19722,-100,4,2,1,60,0,0
20056,-90.9090909090909,4,2,1,65,0,0
20389,-83.3333333333333,4,2,1,70,0,0
20889,-100,4,2,1,70,0,0
22056,-100,4,2,1,80,0,1
32556,-100,4,2,1,80,0,0
32722,-100,4,2,1,80,0,1
42389,-100,4,2,1,60,0,1
42722,-100,4,2,1,80,0,0

[HitObjects]
116,328,723,1,4,0:0:0:0:
72,260,889,2,0,L|76:180,1,75,4|0,0:0|0:0,0:0:0:0:
116,328,1889,1,4,0:0:0:0:
75,185,2222,1,4,0:0:0:0:
75,185,3056,6,0,P|144:192|184:160,1,123.75000377655,8|0,0:0|0:0,0:0:0:0:
216,92,3389,6,0,L|296:84,1,75,4|4,0:0|0:0,0:0:0:0:
216,92,4556,1,4,0:0:0:0:
364,120,4889,2,0,L|444:112,1,75,4|4,0:0|0:0,0:0:0:0:
436,188,5222,2,0,L|356:196,1,75,2|4,0:0|0:0,0:0:0:0:
312,252,5556,1,0,0:0:0:0:
244,288,5722,6,0,P|164:284|132:212,1,165.000005035401,8|4,0:0|0:0,0:0:0:0:
64,80,6389,6,0,L|76:160,1,75,8|0,0:0|0:0,0:0:0:0:
131,214,6722,1,0,0:0:0:0:
68,308,6889,2,0,L|56:228,1,75,0|8,1:0|0:0,0:0:0:0:
131,214,7222,1,4,1:2:0:0:
196,176,7389,6,0,P|216:148|220:100,1,75,0|4,0:0|0:0,0:0:0:0:
108,104,7722,1,8,0:0:0:0:
131,214,7889,1,0,0:0:0:0:
240,240,8056,2,0,P|312:240|376:192,1,150,0|8,1:0|0:0,0:0:0:0:
373,195,8556,1,0,0:0:0:0:
456,148,8722,6,0,P|460:188|460:228,1,75,4|0,0:0|0:0,0:0:0:0:
384,120,9056,2,0,P|380:82|379:45,1,75,8|0,0:0|0:0,0:0:0:0:
288,136,9389,2,0,P|292:176|292:216,1,75,0|0,1:0|1:0,0:0:0:0:
200,300,9722,2,0,P|196:262|195:225,1,75,8|4,0:0|0:0,0:0:0:0:
204,96,10056,6,0,B|200:80|208:56|208:56|148:88|104:44,1,150,0|8,0:0|0:0,0:0:0:0:
36,20,10556,2,0,P|32:64|48:96,1,75,0|4,0:0|0:0,0:0:0:0:
76,160,10889,2,0,P|84:192|76:236,1,75,0|2,0:0|0:0,0:0:0:0:
77,232,11389,6,0,P|140:288|224:264,1,168.750006437302,2|0,0:0|0:0,0:0:0:0:
264,208,12056,2,0,P|292:256|280:316,1,112.500004291535,2|8,0:0|0:0,0:0:0:0:
184,188,12722,2,0,P|156:140|168:80,1,112.500004291535,2|2,0:0|0:0,0:0:0:0:
180,64,13222,1,0,0:0:0:0:
200,44,13389,1,2,0:0:0:0:
228,40,13556,1,0,0:0:0:0:
256,48,13722,1,8,0:0:0:0:
280,64,13889,1,0,0:0:0:0:
308,72,14056,6,0,P|368:72|412:36,1,112.500004291535,2|0,0:0|0:0,0:0:0:0:
504,152,14722,2,0,P|448:150|403:182,1,112.500004291535,2|8,0:0|0:0,0:0:0:0:
216,308,15389,2,0,P|244:308|276:288,1,56.2500021457673,2|0,0:0|0:0,0:0:0:0:
320,240,15722,2,0,P|328:220|328:180,1,56.2500021457673,0|2,0:0|0:0,0:0:0:0:
316,112,16056,2,0,P|300:84|272:64,1,56.2500021457673,0|8,0:0|0:0,0:0:0:0:
212,48,16389,2,0,P|192:48|176:52,3,28.1250010728836,8|8|8|8,0:0|0:0|0:0|0:0,0:0:0:0:
148,64,16722,6,0,P|108:72|68:60,1,75,4|0,0:0|0:0,0:0:0:0:
28,124,17056,2,0,P|12:156|16:200,1,75,8|0,0:0|0:0,0:0:0:0:
52,260,17389,2,0,P|124:236|192:260,1,150,0|8,0:0|0:0,0:0:0:0:
244,312,17889,1,0,0:0:0:0:
316,300,18056,6,0,P|352:240|324:168,1,150,0|8,0:0|0:0,0:0:0:0:
196,84,18722,2,0,P|160:144|188:216,1,150,0|8,0:0|0:0,0:0:0:0:
248,256,19222,1,0,0:0:0:0:
348,312,19389,6,0,L|428:316,1,67.4999979400635,4|0,0:0|0:0,0:0:0:0:
352,236,19722,6,0,L|428:240,1,75,8|0,0:0|0:0,0:0:0:0:
356,160,20056,6,0,L|440:164,1,82.5000025177003,8|0,0:0|0:0,0:0:0:0:
360,84,20389,6,0,L|456:88,1,89.9999972534181,8|4,0:0|0:0,0:0:0:0:
296,28,20889,6,0,P|280:60|280:108,2,75,4|8|8,0:0|0:0|0:0,0:0:0:0:
204,56,21389,2,0,P|136:72|72:24,1,150,4|2,0:0|0:0,0:0:0:0:
74,28,22056,6,0,L|64:104,1,75,4|0,0:0|0:0,0:0:0:0:
112,160,22389,2,0,P|144:232|100:292,1,150,8|2,0:0|0:0,0:0:0:0:
68,224,22889,1,0,0:0:0:0:
109,286,23056,2,0,P|140:308|184:308,1,75,10|0,0:0|0:0,0:0:0:0:
244,276,23389,6,0,P|308:244|380:268,1,150,2|8,0:0|0:0,0:0:0:0:
344,332,23889,2,0,P|304:264|344:200,1,150,2|0,0:0|0:0,0:0:0:0:
396,164,24389,2,0,P|412:132|408:92,1,75,8|2,0:0|0:0,0:0:0:0:
324,20,24722,6,0,L|248:32,1,75,4|0,0:0|0:0,0:0:0:0:
200,88,25056,2,0,P|132:116|72:76,1,150,8|2,0:0|0:0,0:0:0:0:
140,40,25556,1,0,0:0:0:0:
72,77,25722,2,0,P|44:108|36:144,1,75,10|0,0:0|0:0,0:0:0:0:
48,216,26056,6,0,P|104:276|176:268,1,150,2|8,0:0|0:0,0:0:0:0:
148,200,26556,2,0,P|92:256|116:332,1,150,2|8,0:0|0:0,0:0:0:0:
156,376,27056,1,8,0:0:0:0:
224,344,27222,1,10,0:0:0:0:
224,344,27306,1,8,0:0:0:0:
224,344,27389,6,0,P|260:332|296:336,1,75,4|0,0:0|0:0,0:0:0:0:
368,356,27722,1,8,0:0:0:0:
468,304,27889,2,0,P|496:236|472:160,1,150,4|0,0:0|0:0,0:0:0:0:
444,96,28389,2,0,P|444:76|440:58,2,37.5,10|0|2,0:0|0:0|0:0,0:0:0:0:
376,128,28722,6,0,P|336:132|300:120,1,75,4|0,0:0|0:0,0:0:0:0:
236,84,29056,1,8,0:0:0:0:
140,144,29222,2,0,P|104:220|140:284,1,150,4|0,0:0|0:0,0:0:0:0:
92,340,29722,2,0,P|72:348|52:348,2,37.5,10|0|2,0:0|0:0|0:0,0:0:0:0:
200,300,30056,6,0,B|256:276|292:312|348:288,1,150,4|10,0:0|0:0,0:0:0:0:
347,288,30556,1,0,0:0:0:0:
404,240,30723,2,0,P|416:208|412:164,1,75,4|0,0:0|0:0,0:0:0:0:
384,100,31056,1,10,0:0:0:0:
292,36,31222,6,0,P|216:64|152:44,1,150,4|0,0:0|0:0,0:0:0:0:
100,96,31722,6,0,P|84:128|84:172,1,75,14|0,0:0|0:0,0:0:0:0:
208,196,32056,2,0,P|188:166|150:144,1,75,10|0,0:0|0:0,0:0:0:0:
68,240,32389,2,0,P|103:237|141:215,1,75,10|0,0:0|0:0,0:0:0:0:
236,112,32722,6,0,L|240:32,1,75,4|0,0:0|0:0,0:0:0:0:
312,64,33056,2,0,P|384:75|441:30,1,150,8|2,0:0|0:0,0:0:0:0:
408,96,33556,2,0,P|400:132|408:172,1,75,0|10,0:0|0:0,0:0:0:0:
452,228,33889,1,0,0:0:0:0:
480,160,34056,6,0,B|420:136|392:200|332:176,1,150,2|8,0:0|0:0,0:0:0:0:
280,128,34556,2,0,P|264:192|328:252,1,150,2|0,0:0|0:0,0:0:0:0:
368,304,35056,2,0,P|368:344|348:376,1,75,8|2,0:0|0:0,0:0:0:0:
236,380,35389,6,0,L|160:364,1,75,4|0,0:0|0:0,0:0:0:0:
104,316,35722,2,0,P|80:244|128:188,1,150,8|2,0:0|0:0,0:0:0:0:
156,260,36222,1,0,0:0:0:0:
104,316,36389,2,0,P|67:321|31:311,1,75,10|0,0:0|0:0,0:0:0:0:
4,200,36722,6,0,L|0:44,1,150,2|8,0:0|0:0,0:0:0:0:
108,20,37222,2,0,L|112:176,1,150,2|8,0:0|0:0,0:0:0:0:
156,260,37722,1,8,0:0:0:0:
248,292,37889,1,8,0:0:0:0:
248,292,37972,1,8,0:0:0:0:
248,292,38056,6,0,P|292:296|324:284,1,75,4|0,0:0|0:0,0:0:0:0:
380,240,38389,1,8,0:0:0:0:
390,374,38556,2,0,P|414:302|378:238,1,150,4|0,0:0|0:0,0:0:0:0:
336,180,39056,2,0,P|340:164|336:136,2,37.5,10|0|2,0:0|0:0|0:0,0:0:0:0:
228,216,39389,6,0,P|184:220|152:208,1,75,4|0,0:0|0:0,0:0:0:0:
96,164,39722,1,8,0:0:0:0:
86,298,39889,2,0,P|62:226|98:162,1,150,4|0,0:0|0:0,0:0:0:0:
140,104,40389,2,0,P|136:88|140:60,2,37.5,10|0|2,0:0|0:0|0:0,0:0:0:0:
196,204,40722,6,0,P|220:232|260:244,1,75,4|0,0:0|0:0,0:0:0:0:
328,136,41056,2,0,P|291:142|261:171,1,75,10|0,0:0|0:0,0:0:0:0:
320,284,41389,2,0,P|332:249|322:208,2,75,4|2|8,0:0|0:0|0:0,0:0:0:0:
372,340,41889,6,0,P|404:284|400:192,1,150,4|2,0:0|0:0,0:0:0:0:
372,92,42389,2,0,P|372:110|376:129,4,37.5,8|8|8|8|4,0:0|0:0|0:0|0:0|0:0,0:0:0:0:
