osu file format v12

[General]
AudioFilename: YuimaruWarudo TV-Size.MP3
AudioLeadIn: 0
PreviewTime: 21972
Countdown: 1
SampleSet: Normal
StackLeniency: 0.7
Mode: 1
LetterboxInBreaks: 1
WidescreenStoryboard: 1

[Editor]
DistanceSpacing: 1
BeatDivisor: 2
GridSize: 32

[Metadata]
Title:YuimaruWorld TV-Size
TitleUnicode:ゆいまーる☆わーるど TV-Size
Artist:Haitai Nanafa
ArtistUnicode:はいたい七葉
Creator:ts8zs
Version:Taiko Muzukashii
Source:Haitai Nanafa
Tags:Hentai 7
BeatmapID:292851
BeatmapSetID:112779

[Difficulty]
HPDrainRate:4
CircleSize:4
OverallDifficulty:4
ApproachRate:4
SliderMultiplier:1.4
SliderTickRate:1

[Events]
//Background and Video events
0,0,"112624930[00_02_44][20130821-195050-0].jpg",0,0
//Break Periods
//Storyboard Layer 0 (Background)
//Storyboard Layer 1 (Fail)
//Storyboard Layer 2 (Pass)
//Storyboard Layer 3 (Foreground)
//Storyboard Sound Samples
//Background Colour Transformations
3,100,163,162,255

[TimingPoints]
723,333.333333333333,4,1,0,80,1,0
22056,-100,4,1,0,80,0,1
22556,-100,4,1,0,80,0,0
22722,-100,4,1,0,80,0,1
24556,-100,4,1,0,80,0,0
24722,-100,4,1,0,80,0,1
25222,-100,4,1,0,80,0,0
25389,-100,4,1,0,80,0,1
32556,-100,4,1,0,80,0,0
32722,-100,4,1,0,80,0,1
33222,-100,4,1,0,80,0,0
33389,-100,4,1,0,80,0,1
35222,-100,4,1,0,80,0,0
35389,-100,4,1,0,80,0,1
35889,-100,4,1,0,80,0,0
36056,-100,4,1,0,80,0,1
42722,-100,4,1,0,80,0,0

[HitObjects]
160,32,723,5,0,0:0:0:0:
160,32,889,5,0,0:0:0:0:
160,32,1389,5,8,0:0:0:0:
160,32,1889,5,0,0:0:0:0:
160,32,2222,5,0,0:0:0:0:
160,32,2389,5,0,0:0:0:0:
160,32,2722,5,8,0:0:0:0:
160,32,3056,5,4,0:0:0:0:
160,32,3389,5,0,0:0:0:0:
160,32,3555,5,0,0:0:0:0:
160,32,4056,5,8,0:0:0:0:
160,32,4555,5,0,0:0:0:0:
160,32,4888,5,0,0:0:0:0:
160,32,5055,5,0,0:0:0:0:
160,32,5388,5,0,0:0:0:0:
160,32,5722,5,12,0:0:0:0:
160,32,6056,5,0,0:0:0:0:
160,32,6222,5,0,0:0:0:0:
160,32,6722,5,8,0:0:0:0:
160,32,6889,5,0,0:0:0:0:
160,32,7222,5,0,0:0:0:0:
160,32,7555,5,0,0:0:0:0:
160,32,7722,5,0,0:0:0:0:
160,32,8055,5,8,0:0:0:0:
160,32,8389,5,4,0:0:0:0:
160,32,8723,5,0,0:0:0:0:
160,32,8889,5,0,0:0:0:0:
160,32,9389,5,8,0:0:0:0:
160,32,9556,5,8,0:0:0:0:
160,32,9889,5,0,0:0:0:0:
160,32,10222,5,0,0:0:0:0:
160,32,10389,5,0,0:0:0:0:
160,32,10722,5,0,0:0:0:0:
160,32,11056,5,12,0:0:0:0:
160,32,11389,5,0,0:0:0:0:
160,32,11722,5,0,0:0:0:0:
160,32,11889,5,0,0:0:0:0:
160,32,12056,5,8,0:0:0:0:
160,32,12389,5,8,0:0:0:0:
160,32,12722,5,0,0:0:0:0:
160,32,13056,5,0,0:0:0:0:
160,32,13222,5,8,0:0:0:0:
160,32,13389,5,0,0:0:0:0:
160,32,13722,5,8,0:0:0:0:
160,32,14056,5,0,0:0:0:0:
160,32,14389,5,8,0:0:0:0:
160,32,14556,5,0,0:0:0:0:
160,32,14722,5,0,0:0:0:0:
160,32,15056,5,8,0:0:0:0:
160,32,15389,5,0,0:0:0:0:
160,32,15556,5,8,0:0:0:0:
160,32,15722,5,8,0:0:0:0:
160,32,15889,5,0,0:0:0:0:
160,32,16056,5,8,0:0:0:0:
160,32,16222,5,0,0:0:0:0:
160,32,16389,1,0,0:0:0:0:
160,32,16722,1,0,0:0:0:0:
160,32,17056,1,0,0:0:0:0:
160,32,17389,1,8,0:0:0:0:
160,32,17722,1,8,0:0:0:0:
160,32,18056,1,0,0:0:0:0:
160,32,18389,1,0,0:0:0:0:
160,32,18722,1,8,0:0:0:0:
160,32,19056,1,8,0:0:0:0:
160,32,19389,1,0,0:0:0:0:
160,32,19556,1,0,0:0:0:0:
160,32,19722,1,8,0:0:0:0:
160,32,19889,1,8,0:0:0:0:
160,32,20056,1,0,0:0:0:0:
160,32,20222,1,0,0:0:0:0:
160,32,20389,1,8,0:0:0:0:
160,32,20556,1,8,0:0:0:0:
160,32,20889,1,8,0:0:0:0:
160,32,21056,1,8,0:0:0:0:
160,32,21222,1,0,0:0:0:0:
160,32,21389,1,8,0:0:0:0:
160,32,21722,1,12,0:0:0:0:
160,32,22056,1,0,0:0:0:0:
160,32,22389,1,8,0:0:0:0:
160,32,22722,1,0,0:0:0:0:
160,32,23056,1,8,0:0:0:0:
160,32,23389,1,0,0:0:0:0:
160,32,23722,1,0,0:0:0:0:
160,32,23889,1,8,0:0:0:0:
160,32,24222,1,8,0:0:0:0:
160,32,24389,1,0,0:0:0:0:
160,32,24722,1,0,0:0:0:0:
160,32,25056,1,8,0:0:0:0:
160,32,25389,1,0,0:0:0:0:
160,32,25722,1,8,0:0:0:0:
160,32,26056,1,0,0:0:0:0:
160,32,26389,1,0,0:0:0:0:
160,32,26556,1,8,0:0:0:0:
160,32,26889,1,8,0:0:0:0:
160,32,27056,1,0,0:0:0:0:
160,32,27389,1,4,0:0:0:0:
160,32,27889,1,4,0:0:0:0:
160,32,28389,1,8,0:0:0:0:
160,32,28722,1,4,0:0:0:0:
160,32,29222,1,4,0:0:0:0:
160,32,29722,1,8,0:0:0:0:
160,32,30056,1,0,0:0:0:0:
160,32,30389,1,8,0:0:0:0:
160,32,30722,1,0,0:0:0:0:
160,32,30889,1,8,0:0:0:0:
160,32,31222,1,0,0:0:0:0:
160,32,31722,1,12,0:0:0:0:
160,32,32056,1,12,0:0:0:0:
160,32,32389,1,12,0:0:0:0:
160,32,32722,1,0,0:0:0:0:
160,32,33056,1,8,0:0:0:0:
160,32,33389,1,0,0:0:0:0:
160,32,33722,1,8,0:0:0:0:
160,32,34056,1,0,0:0:0:0:
160,32,34389,1,0,0:0:0:0:
160,32,34556,1,8,0:0:0:0:
160,32,34889,1,8,0:0:0:0:
160,32,35056,1,0,0:0:0:0:
160,32,35389,1,0,0:0:0:0:
160,32,35722,1,8,0:0:0:0:
160,32,36056,1,0,0:0:0:0:
160,32,36389,1,8,0:0:0:0:
160,32,36722,1,0,0:0:0:0:
160,32,37056,1,0,0:0:0:0:
160,32,37222,1,8,0:0:0:0:
160,32,37556,1,8,0:0:0:0:
160,32,37722,1,0,0:0:0:0:
160,32,38056,1,4,0:0:0:0:
160,32,38556,1,4,0:0:0:0:
160,32,39056,1,8,0:0:0:0:
160,32,39389,1,4,0:0:0:0:
160,32,39889,1,4,0:0:0:0:
160,32,40389,1,8,0:0:0:0:
160,32,40722,1,8,0:0:0:0:
160,32,40889,1,0,0:0:0:0:
160,32,41056,1,0,0:0:0:0:
160,32,41389,1,8,0:0:0:0:
160,32,41722,1,8,0:0:0:0:
160,32,41889,1,0,0:0:0:0:
160,32,42222,1,0,0:0:0:0:
160,32,42389,1,8,0:0:0:0:
160,32,42722,1,0,0:0:0:0:
