osu file format v12

[General]
AudioFilename: Ailala.mp3
AudioLeadIn: 2000
PreviewTime: 48980
Countdown: 0
SampleSet: Soft
StackLeniency: 0.7
Mode: 0
LetterboxInBreaks: 0
EpilepsyWarning: 1
WidescreenStoryboard: 1

[Editor]
Bookmarks: 64980,110980
DistanceSpacing: 0.7
BeatDivisor: 4
GridSize: 4
TimelineZoom: 2.2

[Metadata]
Title:Ai La La
TitleUnicode:爱啦啦
Artist:Hai Nan
ArtistUnicode:海楠
Creator:moonlightleaf
Version:Insane
Source:
Tags:cRyo[iceeicee] lZenxl
BeatmapID:374835
BeatmapSetID:118459

[Difficulty]
HPDrainRate:7
CircleSize:4
OverallDifficulty:7
ApproachRate:8
SliderMultiplier:1.6
SliderTickRate:2

[Events]
//Background and Video events
0,0,"BG.jpg",0,0
//Break Periods
2,57180,64230
//Storyboard Layer 0 (Background)
//Storyboard Layer 1 (Fail)
//Storyboard Layer 2 (Pass)
//Storyboard Layer 3 (Foreground)
//Storyboard Sound Samples
//Background Colour Transformations
3,100,163,162,255

[TimingPoints]
-1020,500,4,2,1,80,1,0
3980,-100,4,2,1,70,0,0
4480,-100,4,2,1,90,0,0
4980,-100,4,2,1,79,0,0
6980,-100,4,2,1,70,0,0
8980,-100,4,2,1,90,0,0
12980,-66.6666666666667,4,2,1,70,0,0
13480,-100,4,2,1,70,0,0
13980,-66.6666666666667,4,2,1,70,0,0
14480,-100,4,2,1,70,0,0
14980,-66.6666666666667,4,2,1,70,0,0
15480,-100,4,2,1,70,0,0
16980,-100,4,2,1,60,0,0
25980,-133.333333333333,4,2,1,90,0,0
26480,-100,4,2,1,90,0,0
26980,-100,4,2,1,60,0,0
40980,-100,4,2,1,70,0,0
41480,-100,4,2,1,60,0,0
41980,-100,4,2,1,70,0,0
42480,-100,4,2,1,60,0,0
45980,-100,4,2,1,70,0,0
46480,-100,4,2,1,60,0,0
48980,-100,4,2,1,60,0,1
56980,-100,4,2,1,60,0,0
73980,-133.333333333333,4,2,1,70,0,0
74480,-100,4,2,1,60,0,0
88980,-100,4,2,1,70,0,0
89480,-100,4,2,1,60,0,0
89980,-133.333333333333,4,2,1,70,0,0
90480,-100,4,2,1,60,0,0
93980,-100,4,2,1,70,0,0
94480,-100,4,2,1,60,0,0
96980,-100,4,2,1,50,0,0
120980,-100,4,2,1,60,0,0
130480,-100,4,2,1,50,0,0
136980,-100,4,2,1,70,0,0
137230,-100,4,2,1,40,0,0
144980,-100,4,2,1,50,0,1
170855,-66.6666666666667,4,2,1,30,0,0

[Colours]
Combo1 : 134,255,134
Combo2 : 0,255,255
Combo3 : 255,117,255
Combo4 : 146,146,201

[HitObjects]
80,188,980,5,4,0:0:0:0:
152,112,1230,1,0,0:0:0:0:
180,212,1480,1,8,0:0:0:0:
252,288,1730,1,0,0:0:0:0:
280,188,1980,2,0,L|344:132,1,80
340,32,2480,2,0,P|416:68|444:136,1,160,8|4,0:0|0:0,0:0:0:0:
424,236,3230,5,0,0:0:0:0:
252,336,3480,1,8,0:0:0:0:
352,312,3730,1,0,0:0:0:0:
152,304,3980,2,0,P|92:240|96:168,2,160,0|8|4,0:0|0:0|0:0,0:0:0:0:
192,208,5230,5,0,0:0:0:0:
64,105,5480,2,0,P|103:100|140:116,1,80,8|0,0:0|0:0,0:0:0:0:
164,128,5855,1,0,0:0:0:0:
192,136,5980,1,0,0:0:0:0:
292,104,6230,1,0,0:0:0:0:
408,219,6480,2,0,P|370:206|345:176,1,80,8|0,0:0|0:0,0:0:0:0:
432,120,6980,1,4,0:0:0:0:
408,220,7230,6,0,L|428:264,1,40
349,278,7480,2,0,L|344:326,1,40,8|0,0:0|0:0,0:0:0:0:
268,298,7730,2,0,L|239:337,1,40
188,274,7980,2,0,L|144:294,3,40,8|0|8|0,0:0|0:0|0:0|0:0,0:0:0:0:
134,215,8480,5,8,0:0:0:0:
112,197,8605,1,0,0:0:0:0:
91,177,8730,1,8,0:0:0:0:
204,64,8980,5,4,0:0:0:0:
296,112,9230,1,0,0:0:0:0:
364,192,9480,1,8,0:0:0:0:
401,293,9730,5,0,0:0:0:0:
383,315,9855,1,0,0:0:0:0:
360,331,9980,1,0,0:0:0:0:
333,339,10105,1,0,0:0:0:0:
306,338,10230,1,0,0:0:0:0:
279,329,10355,1,0,0:0:0:0:
257,313,10480,2,0,L|229:285,3,40,8|0|0|0,0:0|0:0|0:0|0:0,0:0:0:0:
172,228,10980,6,0,L|143:199,1,40,4|0,0:0|0:0,0:0:0:0:
229,172,11230,2,0,L|257:200,1,40
282,111,11480,2,0,L|254:83,1,40,8|0,0:0|0:0,0:0:0:0:
340,56,11730,2,0,L|372:88,1,40
428,144,11980,5,0,0:0:0:0:
476,236,12230,1,0,0:0:0:0:
372,236,12480,1,8,0:0:0:0:
428,324,12730,1,0,0:0:0:0:
272,320,12980,6,0,P|208:304|164:260,1,120.000004577637,4|0,0:0|0:0,0:0:0:0:
260,212,13480,2,0,L|292:180,1,40,8|0,0:0|0:0,0:0:0:0:
268,105,13730,2,0,L|231:121,1,40
96,256,13980,6,0,L|151:149,1,120.000004577637
68,84,14480,2,0,L|40:44,1,40,8|0,0:0|0:0,0:0:0:0:
132,28,14730,2,0,L|160:68,1,40
292,36,14980,6,0,P|234:52|189:90,1,120.000004577637,4|0,0:0|0:0,0:0:0:0:
280,144,15480,2,0,L|328:136,1,40,8|0,0:0|0:0,0:0:0:0:
404,124,15730,2,0,L|424:188,1,40
424,212,15980,1,0,0:0:0:0:
356,292,16230,1,8,0:0:0:0:
332,308,16355,1,0,0:0:0:0:
304,316,16480,1,8,0:0:0:0:
132,188,16980,5,4,0:0:0:0:
273,301,17230,1,0,0:0:0:0:
98,261,17480,1,8,0:0:0:0:
273,221,17730,1,0,0:0:0:0:
132,333,17980,1,0,0:0:0:0:
210,171,18230,1,0,0:0:0:0:
210,350,18480,1,8,0:0:0:0:
132,188,18730,1,0,0:0:0:0:
273,301,18980,6,0,P|316:308|360:336,1,80,4|0,0:0|0:0,0:0:0:0:
456,172,19480,2,0,P|464:212|460:256,1,80,8|0,0:0|0:0,0:0:0:0:
280,152,19980,2,0,P|256:116|208:100,1,80
44,44,20480,2,8,P|68:80|116:96,1,80,8|8,0:0|0:0,0:0:0:0:
284,48,20980,5,4,0:0:0:0:
320,204,21230,1,0,0:0:0:0:
432,80,21480,1,8,0:0:0:0:
280,128,21730,1,0,0:0:0:0:
392,244,21980,1,0,0:0:0:0:
352,88,22230,1,0,0:0:0:0:
240,204,22480,1,8,0:0:0:0:
320,344,22730,1,0,0:0:0:0:
152,312,22980,6,0,L|76:336,1,80,4|0,0:0|0:0,0:0:0:0:
80,128,23480,2,0,L|144:174,1,80,8|0,0:0|0:0,0:0:0:0:
297,62,23980,2,0,L|220:44,1,80,0|8,0:0|0:0,0:0:0:0:
328,248,24480,2,0,L|352:156,1,80,8|0,0:0|0:0,0:0:0:0:
152,116,24980,5,4,0:0:0:0:
80,252,25230,1,0,0:0:0:0:
191,180,25480,2,0,B|168:198|140:210|120:186|96:162|64:174|40:188,2,160,8|0|8,0:0|0:0|0:0,0:0:0:0:
348,44,26980,5,4,0:0:0:0:
252,152,27230,1,0,0:0:0:0:
396,132,27480,1,8,0:0:0:0:
392,280,27730,1,0,0:0:0:0:
332,164,27980,2,0,B|342:191|361:215|390:204|423:195|444:222|458:246,1,160,0|8,0:0|0:0,0:0:0:0:
428,372,28730,1,8,0:0:0:0:
428,372,28980,6,0,P|384:368|344:348,1,80,4|0,0:0|0:0,0:0:0:0:
204,312,29480,2,0,L|264:248,1,80,8|0,0:0|0:0,0:0:0:0:
336,72,29980,2,0,P|296:72|252:92,1,80
80,240,30480,2,0,P|85:200|105:166,1,80,8|0,0:0|0:0,0:0:0:0:
232,71,30980,5,4,0:0:0:0:
388,161,31230,1,0,0:0:0:0:
232,252,31480,1,8,0:0:0:0:
336,71,31730,1,0,0:0:0:0:
180,161,31980,5,0,0:0:0:0:
336,252,32230,1,8,0:0:0:0:
160,296,32480,1,0,0:0:0:0:
176,316,32605,1,0,0:0:0:0:
192,336,32730,1,8,0:0:0:0:
156,92,32980,6,0,L|60:116,1,80,4|0,0:0|0:0,0:0:0:0:
124,204,33480,1,8,0:0:0:0:
256,172,33730,1,0,0:0:0:0:
356,92,33980,2,0,L|452:116,1,80
496,244,34480,1,8,0:0:0:0:
388,340,34730,1,0,0:0:0:0:
256,356,34980,6,0,L|256:264,1,80,4|0,0:0|0:0,0:0:0:0:
256,172,35480,1,8,0:0:0:0:
124,204,35730,1,0,0:0:0:0:
104,320,35980,2,0,P|136:296|160:264,1,80
408,320,36480,2,0,P|376:296|352:264,1,80,8|0,0:0|0:0,0:0:0:0:
256,172,36980,5,4,0:0:0:0:
256,68,37230,1,0,0:0:0:0:
292,172,37480,1,8,0:0:0:0:
364,244,37730,1,0,0:0:0:0:
220,172,37980,1,0,0:0:0:0:
148,244,38230,1,0,0:0:0:0:
256,316,38480,1,8,0:0:0:0:
256,216,38730,1,0,0:0:0:0:
104,64,38980,6,0,P|135:87|159:119,1,80,4|0,0:0|0:0,0:0:0:0:
407,64,39480,2,0,P|376:87|352:120,1,80,8|0,0:0|0:0,0:0:0:0:
256,216,39980,1,0,0:0:0:0:
156,308,40230,1,0,0:0:0:0:
116,180,40480,1,8,0:0:0:0:
256,300,40730,1,0,0:0:0:0:
376,248,40980,6,0,P|424:192|424:104,2,160,4|8|0,0:0|0:0|0:0,0:0:0:0:
376,248,42480,1,8,0:0:0:0:
136,136,42980,2,0,P|88:192|88:280,2,160,4|8|0,0:0|0:0|0:0,0:0:0:0:
256,76,44230,1,0,0:0:0:0:
432,152,44480,1,8,0:0:0:0:
368,344,44730,1,0,0:0:0:0:
176,272,44980,5,4,0:0:0:0:
176,112,45230,1,0,0:0:0:0:
337,110,45480,1,8,0:0:0:0:
337,273,45730,1,8,0:0:0:0:
176,272,45980,2,0,B|171:244|162:211|128:208|96:207|87:178|87:150,1,160,0|8,0:0|0:0,0:0:0:0:
404,96,46980,6,0,L|440:180,1,80,4|0,0:0|0:0,0:0:0:0:
396,324,47480,2,0,L|336:272,1,80,8|0,0:0|0:0,0:0:0:0:
176,272,47980,2,0,L|108:328,1,80
48,176,48480,1,12,0:0:0:0:
64,196,48605,1,0,0:0:0:0:
76,172,48730,1,0,0:0:0:0:
140,88,48980,5,4,0:0:0:0:
420,200,49480,1,8,0:0:0:0:
279,167,49730,1,0,0:0:0:0:
342,38,49980,1,0,0:0:0:0:
454,127,50230,1,0,0:0:0:0:
342,217,50480,1,8,0:0:0:0:
279,87,50730,1,0,0:0:0:0:
420,55,50980,5,4,0:0:0:0:
420,200,51230,1,0,0:0:0:0:
279,167,51480,1,8,0:0:0:0:
176,265,51730,1,0,2:0:0:0:
297,345,51980,1,0,2:0:0:0:
342,217,52230,1,0,0:0:0:0:
212,340,52480,1,8,2:0:0:0:
205,189,52730,5,0,0:0:0:0:
188,168,52855,1,0,0:0:0:0:
172,144,52980,1,4,0:0:0:0:
156,124,53105,1,0,0:0:0:0:
140,104,53230,1,0,0:0:0:0:
96,240,53480,6,0,L|84:328,1,80,8|0,0:0|0:0,0:0:0:0:
304,288,53980,2,0,L|228:264,1,80
404,104,54480,2,0,L|352:168,1,80,8|0,0:0|0:0,0:0:0:0:
97,44,54980,6,0,B|121:30|153:18|177:42|197:66|225:54|248:36,1,160,4|8,0:0|0:0,0:0:0:0:
188,168,55730,1,0,0:0:0:0:
340,320,55980,1,0,0:0:0:0:
304,96,56230,1,0,0:0:0:0:
204,296,56480,1,8,0:0:0:0:
400,200,56730,2,0,P|428:168|444:128,1,80,0|4,0:0|0:0,0:0:0:0:
256,48,64980,6,0,B|268:80|248:100|256:132,1,80,4|0,0:0|0:0,0:0:0:0:
172,192,65480,1,8,0:0:0:0:
340,192,65730,1,0,0:0:0:0:
256,336,65980,2,0,B|244:304|264:284|256:252,1,80
340,116,66480,1,8,0:0:0:0:
172,116,66730,1,0,0:0:0:0:
344,264,66980,6,0,L|380:304,2,40,4|0|0,0:0|0:0|0:0,0:0:0:0:
168,264,67480,2,0,L|132:304,2,40,8|0|0,0:0|0:0|0:0,0:0:0:0:
260,192,67980,2,0,B|242:169|230:141|254:121|278:97|266:65|252:41,2,160,0|8|4,0:0|0:0|0:0,0:0:0:0:
188,80,69230,5,0,0:0:0:0:
324,156,69480,1,8,0:0:0:0:
188,156,69730,1,0,0:0:0:0:
324,80,69980,1,0,0:0:0:0:
120,116,70230,1,0,0:0:0:0:
392,116,70480,1,8,0:0:0:0:
256,228,70730,1,0,0:0:0:0:
100,312,70980,6,0,P|132:272|176:252,1,80,4|0,0:0|0:0,0:0:0:0:
412,312,71480,2,0,P|380:272|336:252,1,80,8|0,0:0|0:0,0:0:0:0:
140,192,71980,1,8,0:0:0:0:
256,304,72230,1,8,0:0:0:0:
256,80,72480,1,8,0:0:0:0:
368,192,72730,1,0,0:0:0:0:
392,348,72980,5,4,0:0:0:0:
256,304,73230,1,0,0:0:0:0:
256,304,73480,2,0,B|228:313|198:315|186:286|172:256|137:256|110:262,2,160,8|0|8,0:0|0:0|0:0,0:0:0:0:
400,68,74980,5,0,0:0:0:0:
468,212,75230,1,0,0:0:0:0:
320,272,75480,1,8,0:0:0:0:
416,144,75730,1,0,0:0:0:0:
256,124,75980,2,0,P|192:128|164:148,1,80,0|8,0:0|0:0,0:0:0:0:
72,252,76480,2,0,P|136:248|164:228,1,80,8|0,0:0|0:0,0:0:0:0:
300,292,76980,5,4,0:0:0:0:
441,179,77230,1,0,0:0:0:0:
266,219,77480,1,8,0:0:0:0:
441,259,77730,1,0,0:0:0:0:
378,130,77980,2,0,L|356:216,1,80
378,309,78480,1,8,0:0:0:0:
300,147,78730,1,0,0:0:0:0:
128,32,78980,6,0,B|104:47|80:70|91:103|103:131|80:151|54:164,2,160,4|8|0,0:0|0:0|0:0,0:0:0:0:
54,163,80230,1,0,0:0:0:0:
164,92,80480,1,8,0:0:0:0:
192,92,80605,1,0,0:0:0:0:
220,92,80730,1,0,0:0:0:0:
324,96,80980,5,4,0:0:0:0:
404,164,81230,1,0,0:0:0:0:
428,264,81480,2,0,L|372:328,1,80,8|0,0:0|0:0,0:0:0:0:
272,320,81980,1,0,0:0:0:0:
192,252,82230,1,0,0:0:0:0:
168,152,82480,2,0,L|224:88,1,80,8|0,0:0|0:0,0:0:0:0:
387,47,82980,6,0,L|324:96,1,80,4|0,0:0|0:0,0:0:0:0:
192,252,83480,2,0,L|255:203,1,80,8|0,0:0|0:0,0:0:0:0:
459,170,83980,1,0,0:0:0:0:
301,261,84230,1,0,0:0:0:0:
482,280,84480,1,8,0:0:0:0:
348,160,84730,1,0,0:0:0:0:
385,336,84980,5,4,0:0:0:0:
385,336,85230,1,0,0:0:0:0:
220,340,85480,1,8,0:0:0:0:
220,340,85730,1,0,0:0:0:0:
84,248,85980,1,0,0:0:0:0:
84,248,86230,1,0,0:0:0:0:
56,148,86480,2,0,P|66:98|82:61,1,80,8|0,0:0|0:0,0:0:0:0:
244,58,86980,5,4,0:0:0:0:
397,126,87230,1,0,0:0:0:0:
233,161,87480,1,8,0:0:0:0:
345,36,87730,1,0,0:0:0:0:
328,204,87980,2,0,P|312:244|264:276,1,80,0|8,0:0|0:0,0:0:0:0:
128,320,88480,2,0,P|144:280|192:248,1,80,8|0,0:0|0:0,0:0:0:0:
232,184,88980,5,4,0:0:0:0:
312,264,89230,1,0,0:0:0:0:
416,104,89480,2,0,P|412:148|384:200,1,80,8|0,0:0|0:0,0:0:0:0:
232,184,89980,1,0,0:0:0:0:
152,264,90230,1,0,0:0:0:0:
48,104,90480,2,0,P|52:148|80:200,1,80,8|0,0:0|0:0,0:0:0:0:
198,277,90980,6,0,L|180:200,1,80,4|0,0:0|0:0,0:0:0:0:
354,194,91480,2,0,L|336:272,1,80,8|0,0:0|0:0,0:0:0:0:
268,144,91980,2,0,L|268:64,2,80,0|0|8,0:0|0:0|0:0,0:0:0:0:
268,248,92730,1,0,0:0:0:0:
104,164,92980,5,4,0:0:0:0:
164,248,93230,1,0,0:0:0:0:
92,60,93480,2,0,P|132:60|180:96,1,80,8|0,0:0|0:0,0:0:0:0:
369,222,93980,2,0,P|343:151|268:144,1,160,0|8,0:0|0:0,0:0:0:0:
191,328,94980,6,0,B|164:348|140:316|114:337,1,80,4|0,0:0|0:0,0:0:0:0:
320,328,95480,2,0,B|348:348|372:316|397:337,1,80,8|0,0:0|0:0,0:0:0:0:
256,288,95980,1,0,0:0:0:0:
256,184,96230,1,8,0:0:0:0:
256,80,96480,1,8,0:0:0:0:
256,52,96605,1,0,0:0:0:0:
256,24,96730,1,0,0:0:0:0:
256,184,96980,5,4,0:0:0:0:
72,284,97480,1,8,0:0:0:0:
48,184,97730,1,0,0:0:0:0:
152,184,97980,1,0,0:0:0:0:
256,184,98230,1,0,0:0:0:0:
360,184,98480,1,8,0:0:0:0:
416,96,98730,1,0,0:0:0:0:
360,184,98980,6,0,L|300:268,1,80,4|0,0:0|0:0,0:0:0:0:
152,184,99480,2,0,L|212:100,1,80,8|0,0:0|0:0,0:0:0:0:
360,184,99980,2,0,L|406:249,1,80
184,232,100480,5,0,0:0:0:0:
168,208,100605,1,0,0:0:0:0:
152,184,100730,1,4,0:0:0:0:
136,160,100855,1,0,0:0:0:0:
120,136,100981,2,0,L|74:71,1,80,8|0,0:0|0:0,0:0:0:0:
136,160,101480,5,8,0:0:0:0:
196,248,101730,1,0,0:0:0:0:
256,332,101980,1,0,0:0:0:0:
348,284,102230,1,0,0:0:0:0:
440,240,102480,1,8,0:0:0:0:
384,152,102730,1,0,0:0:0:0:
324,68,102980,6,0,L|252:112,1,80,4|0,0:0|0:0,0:0:0:0:
196,248,103480,2,0,L|272:208,1,80,8|0,0:0|0:0,0:0:0:0:
440,240,103980,2,0,L|384:160,1,80,0|0,0:0|0:0,0:0:0:0:
255,109,104480,2,0,L|300:176,1,80,8|0,0:0|0:0,0:0:0:0:
376,292,104980,5,6,0:0:0:0:
248,340,105230,1,0,0:0:0:0:
116,308,105480,1,10,0:0:0:0:
60,184,105730,1,0,0:0:0:0:
68,156,105855,1,0,0:0:0:0:
80,132,105980,1,2,0:0:0:0:
200,72,106230,1,0,0:0:0:0:
332,48,106480,2,0,P|376:52|424:64,1,80,10|0,0:0|0:0,0:0:0:0:
344,212,106980,5,6,0:0:0:0:
388,334,107230,1,0,0:0:0:0:
424,209,107480,1,10,0:0:0:0:
452,284,107730,1,0,0:0:0:0:
452,284,107855,1,0,0:0:0:0:
452,284,107980,1,2,0:0:0:0:
322,289,108230,2,0,L|268:320,1,40
192,352,108480,2,0,L|152:332,1,40,10|0,0:0|0:0,0:0:0:0:
64,304,108730,2,0,L|40:252,1,40
32,172,108980,6,0,L|96:112,1,80,6|0,0:0|0:0,0:0:0:0:
188,24,109480,2,0,L|188:108,1,80,10|0,0:0|0:0,0:0:0:0:
196,132,109855,1,0,0:0:0:0:
216,152,109980,2,0,L|276:208,1,80,2|0,0:0|0:0,0:0:0:0:
451,90,110480,2,0,L|400:152,1,80,10|0,0:0|0:0,0:0:0:0:
265,296,110980,6,0,B|289:282|321:270|345:294|365:318|393:306|416:288,1,160,6|10,0:0|0:0,0:0:0:0:
376,220,111730,1,0,0:0:0:0:
360,196,111855,1,0,0:0:0:0:
344,172,111980,1,2,0:0:0:0:
276,52,112230,1,0,0:0:0:0:
144,76,112480,1,10,0:0:0:0:
128,100,112605,1,0,0:0:0:0:
112,124,112730,1,0,0:0:0:0:
92,260,112980,5,6,0:0:0:0:
96,288,113105,1,0,0:0:0:0:
108,312,113230,1,0,0:0:0:0:
128,332,113355,1,0,0:0:0:0:
156,340,113480,1,10,0:0:0:0:
184,344,113605,1,0,0:0:0:0:
212,340,113730,1,0,0:0:0:0:
240,332,113855,1,0,0:0:0:0:
268,324,113980,6,0,L|328:300,1,40,2|0,0:0|0:0,0:0:0:0:
384,296,114230,2,0,L|432:308,1,40
448,228,114480,2,0,L|420:196,1,40,10|0,0:0|0:0,0:0:0:0:
356,152,114730,2,0,L|296:128,2,40,0|0|6,0:0|0:0|0:0,0:0:0:0:
200,244,115230,5,0,0:0:0:0:
304,63,115480,1,10,0:0:0:0:
148,153,115730,1,0,0:0:0:0:
128,172,115855,1,0,0:0:0:0:
108,192,115980,1,2,0:0:0:0:
200,63,116230,1,0,0:0:0:0:
356,152,116480,1,10,0:0:0:0:
200,244,116730,1,0,0:0:0:0:
84,312,116980,5,6,0:0:0:0:
52,180,117230,1,0,0:0:0:0:
144,80,117480,5,10,0:0:0:0:
172,72,117605,1,0,0:0:0:0:
200,64,117730,1,0,0:0:0:0:
200,244,117980,5,2,0:0:0:0:
204,272,118105,1,0,0:0:0:0:
208,300,118230,1,0,0:0:0:0:
312,152,118480,5,10,0:0:0:0:
332,132,118605,1,0,0:0:0:0:
352,112,118730,1,0,0:0:0:0:
160,184,118980,5,6,0:0:0:0:
273,70,119230,1,0,0:0:0:0:
314,225,119480,1,10,0:0:0:0:
160,184,119730,5,0,0:0:0:0:
180,164,119855,1,0,0:0:0:0:
200,144,119980,1,2,0:0:0:0:
220,124,120105,1,0,0:0:0:0:
240,104,120230,1,0,0:0:0:0:
396,60,120480,5,10,0:0:0:0:
420,76,120605,1,0,0:0:0:0:
440,96,120730,1,0,0:0:0:0:
456,120,120855,1,0,0:0:0:0:
468,144,120980,6,0,P|476:188|480:236,1,80,4|0,0:0|0:0,0:0:0:0:
444,196,121480,2,0,P|452:240|456:288,1,80,8|0,0:0|0:0,0:0:0:0:
416,236,121980,2,0,P|424:280|428:328,1,80
392,268,122480,2,0,P|400:312|404:360,1,80,8|0,0:0|0:0,0:0:0:0:
268,340,122980,1,4,0:0:0:0:
176,214,123230,1,0,0:0:0:0:
324,262,123480,1,8,0:0:0:0:
176,310,123730,1,0,0:0:0:0:
268,184,123980,5,0,0:0:0:0:
364,88,124230,1,0,0:0:0:0:
236,40,124480,1,8,0:0:0:0:
128,124,124730,1,0,0:0:0:0:
64,244,124980,6,0,L|160:216,1,80,4|0,0:0|0:0,0:0:0:0:
268,184,125480,2,0,L|296:272,1,80,8|0,0:0|0:0,0:0:0:0:
364,88,125980,2,0,L|280:56,1,80
135,44,126480,2,0,L|128:124,1,80,8|0,0:0|0:0,0:0:0:0:
184,296,126980,1,4,0:0:0:0:
232,188,127230,1,0,0:0:0:0:
344,216,127480,1,8,0:0:0:0:
288,312,127730,1,0,0:0:0:0:
328,128,127980,5,0,0:0:0:0:
456,172,128230,1,0,0:0:0:0:
404,296,128480,1,8,0:0:0:0:
276,248,128730,1,0,0:0:0:0:
236,120,128980,6,0,P|276:52|360:40,1,160,4|8,0:0|0:0,0:0:0:0:
456,172,129730,1,0,0:0:0:0:
276,248,129980,2,0,P|199:262|138:214,1,160,0|8,0:0|0:0,0:0:0:0:
350,37,130980,1,4,0:0:0:0:
468,104,131230,1,0,0:0:0:0:
460,240,131480,2,0,L|404:296,1,80,8|0,0:0|0:0,0:0:0:0:
276,248,131980,5,0,0:0:0:0:
138,214,132230,1,0,0:0:0:0:
252,128,132480,1,8,0:0:0:0:
184,320,132730,1,0,0:0:0:0:
56,276,132980,5,4,0:0:0:0:
60,140,133230,1,0,0:0:0:0:
188,100,133480,1,8,0:0:0:0:
268,212,133730,1,0,0:0:0:0:
184,320,133980,2,0,B|207:338|235:350|255:326|279:302|311:314|335:328,1,160,0|8,0:0|0:0,0:0:0:0:
356,56,134980,6,0,L|336:148,1,80,4|0,0:0|0:0,0:0:0:0:
208,176,135480,2,0,L|188:96,1,80,8|0,0:0|0:0,0:0:0:0:
52,112,135980,1,0,0:0:0:0:
48,248,136230,1,0,0:0:0:0:
160,328,136480,1,8,0:0:0:0:
184,340,136605,1,0,0:0:0:0:
208,352,136730,1,0,0:0:0:0:
208,352,136980,5,6,0:0:0:0:
308,100,137480,1,10,0:0:0:0:
472,178,137730,1,0,0:0:0:0:
394,279,137980,1,2,0:0:0:0:
270,180,138230,1,0,0:0:0:0:
347,80,138480,1,10,0:0:0:0:
463,136,138730,1,0,0:0:0:0:
204,100,138980,5,6,0:0:0:0:
39,178,139230,1,0,0:0:0:0:
118,279,139480,1,10,0:0:0:0:
242,180,139730,1,0,0:0:0:0:
164,80,139980,1,2,0:0:0:0:
49,248,140230,1,0,0:0:0:0:
180,284,140480,2,0,L|208:284,6,20,10|0|0|0|0|0|0,0:0|0:0|0:0|0:0|0:0|0:0|0:0,0:0:0:0:
244,284,140980,5,6,0:0:0:0:
328,220,141230,1,0,0:0:0:0:
444,96,141480,2,0,L|388:164,1,80,10|0,0:0|0:0,0:0:0:0:
264,200,141980,2,0,L|320:132,1,80,2|0,0:0|0:0,0:0:0:0:
396,248,142480,2,0,L|452:316,1,80,10|0,0:0|0:0,0:0:0:0:
316,272,142980,5,6,0:0:0:0:
162,206,143230,1,0,0:0:0:0:
295,106,143480,1,10,0:0:0:0:
220,283,143730,1,0,0:0:0:0:
200,117,143980,5,2,0:0:0:0:
353,182,144230,1,0,0:0:0:0:
162,206,144480,1,10,0:0:0:0:
316,272,144730,1,0,0:0:0:0:
316,272,144980,5,4,0:0:0:0:
446,112,145480,1,8,0:0:0:0:
244,201,145730,1,0,0:0:0:0:
459,247,145980,1,0,0:0:0:0:
312,83,146230,1,0,0:0:0:0:
336,304,146480,1,8,0:0:0:0:
324,168,146730,1,0,0:0:0:0:
122,257,146980,5,4,0:0:0:0:
337,303,147230,1,0,0:0:0:0:
190,139,147480,1,8,0:0:0:0:
214,360,147730,1,0,0:0:0:0:
122,257,147980,5,0,0:0:0:0:
324,168,148230,1,0,0:0:0:0:
107,125,148480,1,8,0:0:0:0:
254,289,148730,1,0,0:0:0:0:
280,296,148855,1,0,0:0:0:0:
308,304,148980,5,4,0:0:0:0:
464,80,149480,2,0,P|476:128|472:160,1,80,8|0,0:0|0:0,0:0:0:0:
340,124,149980,2,0,P|307:101|268:92,1,80
132,100,150480,2,0,P|138:139|159:173,1,80,8|8,0:0|0:0,0:0:0:0:
256,272,150980,5,4,0:0:0:0:
448,224,151230,1,0,0:0:0:0:
332,156,151480,1,8,0:0:0:0:
376,340,151730,1,0,0:0:0:0:
180,156,151980,5,0,0:0:0:0:
136,340,152230,1,8,0:0:0:0:
64,224,152480,1,8,0:0:0:0:
256,272,152730,1,0,0:0:0:0:
256,272,152980,5,4,0:0:0:0:
428,60,153480,1,8,0:0:0:0:
428,60,153730,1,0,0:0:0:0:
428,196,153980,1,0,0:0:0:0:
428,196,154230,1,0,0:0:0:0:
292,188,154480,2,0,L|212:204,1,80,8|0,0:0|0:0,0:0:0:0:
92,124,154980,6,0,P|72:208|100:296,1,160,4|8,0:0|0:0,0:0:0:0:
204,204,155730,1,0,0:0:0:0:
422,277,155980,2,0,P|440:200|420:124,1,160,0|8,0:0|0:0,0:0:0:0:
308,204,156730,1,0,0:0:0:0:
256,332,156980,5,4,0:0:0:0:
140,84,157480,2,0,L|192:144,1,80,8|0,0:0|0:0,0:0:0:0:
278,266,157980,2,0,L|200:280,1,80
310,163,158480,2,0,L|388:184,1,80,8|0,0:0|0:0,0:0:0:0:
415,44,158980,6,0,B|391:30|359:18|335:42|315:66|287:54|264:36,1,160,4|8,0:0|0:0,0:0:0:0:
310,163,159730,1,0,0:0:0:0:
172,320,159980,1,0,0:0:0:0:
208,96,160230,1,8,0:0:0:0:
308,296,160480,1,8,0:0:0:0:
112,200,160730,2,0,P|84:168|68:128,1,80,0|4,0:0|0:0,0:0:0:0:
336,84,161480,5,8,0:0:0:0:
432,180,161730,1,0,0:0:0:0:
432,208,161855,1,0,0:0:0:0:
428,236,161980,1,0,0:0:0:0:
420,264,162105,1,0,0:0:0:0:
408,288,162230,1,0,0:0:0:0:
284,340,162480,1,8,0:0:0:0:
148,328,162730,5,0,0:0:0:0:
120,320,162855,1,0,0:0:0:0:
96,304,162980,1,4,0:0:0:0:
80,284,163105,1,0,0:0:0:0:
60,264,163230,1,0,0:0:0:0:
44,240,163355,1,0,0:0:0:0:
40,212,163480,6,0,L|36:160,1,40,8|8,0:0|0:0,0:0:0:0:
76,100,163730,2,0,L|120:64,1,40
180,40,163980,2,0,L|224:52,1,40
288,92,164230,2,0,L|336:64,1,40
412,112,164480,1,8,0:0:0:0:
376,316,164980,5,4,0:0:0:0:
376,316,165230,1,0,0:0:0:0:
216,316,165480,1,8,0:0:0:0:
216,316,165730,1,0,0:0:0:0:
104,204,165980,1,0,0:0:0:0:
104,204,166230,1,0,0:0:0:0:
244,124,166480,2,0,L|336:96,1,80,8|0,0:0|0:0,0:0:0:0:
452,192,166980,6,0,L|372:195,1,80,4|0,0:0|0:0,0:0:0:0:
216,228,167480,2,0,L|300:264,1,80,8|0,0:0|0:0,0:0:0:0:
440,312,167980,1,0,0:0:0:0:
424,152,168230,1,8,0:0:0:0:
284,72,168480,1,8,0:0:0:0:
124,96,168730,1,0,0:0:0:0:
256,192,169480,12,0,170980,0:0:0:0:
