osu file format v12

[General]
AudioFilename: Ailala.mp3
AudioLeadIn: 2000
PreviewTime: 48980
Countdown: 0
SampleSet: Soft
StackLeniency: 0.7
Mode: 0
LetterboxInBreaks: 0
EpilepsyWarning: 1
WidescreenStoryboard: 1

[Editor]
Bookmarks: 31730
DistanceSpacing: 1
BeatDivisor: 4
GridSize: 4
TimelineZoom: 2.3

[Metadata]
Title:Ai La La
TitleUnicode:爱啦啦
Artist:Hai Nan
ArtistUnicode:海楠
Creator:moonlightleaf
Version:Hard
Source:
Tags:cRyo[iceeicee] lZenxl
BeatmapID:374831
BeatmapSetID:118459

[Difficulty]
HPDrainRate:5
CircleSize:4
OverallDifficulty:5
ApproachRate:7
SliderMultiplier:1.6
SliderTickRate:2

[Events]
//Background and Video events
0,0,"BG.jpg",0,0
//Break Periods
//Storyboard Layer 0 (Background)
//Storyboard Layer 1 (Fail)
//Storyboard Layer 2 (Pass)
//Storyboard Layer 3 (Foreground)
//Storyboard Sound Samples
//Background Colour Transformations
3,100,163,162,255

[TimingPoints]
-1020,500,4,2,1,80,1,0
3980,-100,4,2,1,70,0,0
4480,-100,4,2,1,90,0,0
4980,-100,4,2,1,79,0,0
6980,-100,4,2,1,70,0,0
8980,-100,4,2,1,90,0,0
12980,-100,4,2,1,70,0,0
16980,-100,4,2,1,60,0,0
25980,-133.333333333333,4,2,1,90,0,0
26480,-100,4,2,1,90,0,0
26980,-100,4,2,1,60,0,0
40980,-100,4,2,1,70,0,0
41480,-100,4,2,1,60,0,0
41980,-100,4,2,1,70,0,0
42480,-100,4,2,1,60,0,0
45980,-100,4,2,1,70,0,0
46480,-100,4,2,1,60,0,0
48980,-100,4,2,1,60,0,1
56980,-100,4,2,1,60,0,0
73980,-133.333333333333,4,2,1,70,0,0
74480,-100,4,2,1,60,0,0
88980,-100,4,2,1,70,0,0
89480,-100,4,2,1,60,0,0
89980,-133.333333333333,4,2,1,70,0,0
90480,-100,4,2,1,60,0,0
93980,-133.333333333333,4,2,1,70,0,0
94480,-100,4,2,1,60,0,0
96980,-100,4,2,1,50,0,0
120980,-100,4,2,1,60,0,0
127980,-133.333333333333,4,2,1,60,0,0
128730,-100,4,2,1,60,0,0
129980,-133.333333333333,4,2,1,60,0,0
130480,-100,4,2,1,50,0,0
133980,-133.333333333333,4,2,1,50,0,0
134480,-100,4,2,1,50,0,0
136980,-100,4,2,1,40,0,0
144980,-100,4,2,1,50,0,1
160980,-100,4,2,1,50,0,0
170355,-100,4,2,1,5,0,0
170855,-100,4,2,1,30,0,0

[Colours]
Combo1 : 134,255,134
Combo2 : 0,255,255
Combo3 : 255,117,255
Combo4 : 146,146,201

[HitObjects]
52,112,980,6,0,P|68:152|100:192,1,80
140,244,1480,1,8,0:0:0:0:
208,288,1730,1,0,0:0:0:0:
224,296,1855,1,0,0:0:0:0:
240,304,1980,1,0,0:0:0:0:
312,336,2230,1,0,0:0:0:0:
384,304,2480,2,0,P|420:287|451:262,1,80,8|0,0:0|0:0,0:0:0:0:
496,200,2980,5,0,0:0:0:0:
496,120,3230,2,0,P|464:95|428:78,1,80,0|8,0:0|0:0,0:0:0:0:
352,56,3730,1,0,0:0:0:0:
336,48,3855,1,0,0:0:0:0:
320,48,3980,1,0,0:0:0:0:
168,88,4480,2,0,B|136:124|52:124|32:168,1,160,0|2,0:0|0:0,0:0:0:0:
36,248,5230,5,0,0:0:0:0:
72,320,5480,2,0,L|152:320,1,80,8|0,0:0|0:0,0:0:0:0:
232,320,5980,1,0,0:0:0:0:
288,264,6230,1,0,0:0:0:0:
308,340,6480,1,8,0:0:0:0:
364,284,6730,1,2,0:0:0:0:
288,264,6980,6,0,P|272:227|240:204,1,80
160,192,7480,2,0,P|175:155|207:132,1,80,8|0,0:0|0:0,0:0:0:0:
272,80,7980,1,0,0:0:0:0:
352,64,8230,1,0,0:0:0:0:
416,112,8480,1,10,0:0:0:0:
424,128,8605,1,0,0:0:0:0:
432,144,8730,1,8,0:0:0:0:
464,216,8980,5,4,0:2:0:0:
424,288,9230,2,0,P|360:328|272:328,1,160,0|8,0:0|0:0,0:0:0:0:
208,296,9980,1,0,0:0:0:0:
144,344,10230,2,0,P|82:294|54:220,1,160,0|8,0:0|0:0,0:0:0:0:
128,192,10980,6,0,P|164:176|187:144,1,80
224,72,11480,2,0,P|254:97|267:134,1,80,8|0,0:0|0:0,0:0:0:0:
248,216,11980,1,0,0:0:0:0:
272,296,12230,1,0,0:0:0:0:
344,328,12480,1,8,0:0:0:0:
416,288,12730,1,0,0:0:0:0:
456,216,12980,6,0,L|456:128,1,80,4|0,0:0|0:0,0:0:0:0:
384,96,13480,2,0,L|384:176,1,80,8|0,0:0|0:0,0:0:0:0:
384,256,13980,2,0,L|327:312,1,80,0|0,0:0|0:0,0:0:0:0:
248,288,14480,2,0,L|304:231,1,80,8|0,0:0|0:0,0:0:0:0:
360,176,14980,5,0,0:0:0:0:
440,200,15230,1,0,0:0:0:0:
496,256,15480,2,0,P|477:290|443:310,1,80,8|0,0:0|0:0,0:0:0:0:
384,256,15980,1,0,0:0:0:0:
304,248,16230,1,8,0:0:0:0:
248,304,16480,1,8,0:0:0:0:
88,312,16980,5,4,0:0:0:0:
56,240,17230,1,0,0:0:0:0:
72,160,17480,1,8,0:0:0:0:
144,136,17730,1,0,0:0:0:0:
224,144,17980,2,0,P|209:180|178:204,1,80,0|0,0:0|0:0,0:0:0:0:
144,136,18480,2,0,P|158:99|189:75,1,80,8|0,0:0|0:0,0:0:0:0:
264,48,18980,5,0,0:0:0:0:
344,48,19230,1,0,0:0:0:0:
416,88,19480,1,8,0:0:0:0:
448,160,19730,1,0,0:0:0:0:
472,240,19980,2,0,P|457:276|426:300,1,80,0|0,0:0|0:0,0:0:0:0:
352,320,20480,2,0,P|315:304|276:309,1,80,8|0,0:0|0:0,0:0:0:0:
200,336,20980,5,0,0:0:0:0:
144,280,21230,1,0,0:0:0:0:
109,203,21480,2,0,P|78:227|64:264,1,80,8|0,0:0|0:0,0:0:0:0:
144,280,21980,1,0,0:0:0:0:
192,216,22230,1,0,0:0:0:0:
224,144,22480,2,0,P|255:167|269:204,1,80,8|0,0:0|0:0,0:0:0:0:
256,288,22980,5,0,0:0:0:0:
312,344,23230,1,0,0:0:0:0:
392,328,23480,1,8,0:0:0:0:
432,256,23730,1,0,0:0:0:0:
456,176,23980,2,0,P|441:139|410:115,1,80,0|8,0:0|0:0,0:0:0:0:
376,40,24480,2,0,P|344:63|330:100,1,80,8|0,0:0|0:0,0:0:0:0:
340,244,24980,6,0,P|371:220|385:183,1,80,4|0,0:0|0:0,0:0:0:0:
304,176,25480,2,0,P|272:199|258:236,1,80,8|0,0:0|0:0,0:0:0:0:
176,176,25980,6,0,P|162:118|125:72,1,120.000004577637,0|8,0:0|0:0,0:0:0:0:
24,196,26980,5,4,0:0:0:0:
36,276,27230,1,0,0:0:0:0:
92,332,27480,1,8,0:0:0:0:
172,340,27730,1,0,0:0:0:0:
248,312,27980,2,0,P|281:274|301:237,1,80
268,172,28480,2,0,P|241:200|220:234,1,80,8|0,0:0|0:0,0:0:0:0:
248,312,28980,5,4,0:0:0:0:
320,344,29230,1,0,0:0:0:0:
376,288,29480,1,8,0:0:0:0:
376,208,29730,1,0,0:0:0:0:
428,148,29980,2,0,P|397:175|377:208,1,80,0|0,0:0|0:0,0:0:0:0:
456,224,30480,2,0,P|487:199|508:165,1,80,8|0,0:0|0:0,0:0:0:0:
476,92,30980,5,4,0:0:0:0:
404,56,31230,1,0,0:0:0:0:
336,96,31480,1,8,0:0:0:0:
328,172,31730,1,0,0:0:0:0:
400,212,31980,2,0,P|378:245|348:271,1,80,0|8,0:0|0:0,0:0:0:0:
272,300,32480,1,8,0:0:0:0:
252,308,32605,1,0,0:0:0:0:
232,312,32730,1,0,0:0:0:0:
156,332,32980,5,4,0:0:0:0:
84,296,33230,1,0,0:0:0:0:
56,220,33480,1,8,0:0:0:0:
64,140,33730,1,0,0:0:0:0:
104,68,33980,2,0,P|136:96|148:144,1,80
132,208,34480,2,0,P|162:233|201:240,1,80
272,204,34980,5,4,0:0:0:0:
344,240,35230,1,0,0:0:0:0:
416,204,35480,1,8,0:0:0:0:
488,240,35730,1,0,0:0:0:0:
476,320,35980,2,0,P|436:303|410:261,1,80
416,204,36480,2,0,P|402:166|372:141,1,80,0|8,0:0|0:0,0:0:0:0:
296,116,36980,5,4,0:0:0:0:
220,92,37230,1,0,0:0:0:0:
284,144,37480,1,8,0:0:0:0:
206,170,37730,1,0,0:0:0:0:
284,180,37980,1,0,0:0:0:0:
229,241,38230,1,0,0:0:0:0:
304,212,38480,1,8,0:0:0:0:
287,292,38730,1,0,0:0:0:0:
336,228,38980,5,4,0:0:0:0:
362,306,39230,1,0,0:0:0:0:
372,228,39480,1,8,0:0:0:0:
436,279,39730,1,0,0:0:0:0:
484,212,39980,2,0,P|452:184|420:164,1,80,0|8,0:0|0:0,0:0:0:0:
352,124,40480,2,0,P|388:140|432:176,1,80,8|0,0:0|0:0,0:0:0:0:
372,228,40980,6,0,P|344:199|304:188,1,80,4|0,0:0|0:0,0:0:0:0:
236,152,41480,2,0,P|208:181|168:204,1,80,8|0,0:0|0:0,0:0:0:0:
100,176,41980,2,0,P|129:103|200:71,1,160,0|8,0:0|0:0,0:0:0:0:
356,28,42980,5,4,0:0:0:0:
408,88,43230,1,0,0:0:0:0:
400,168,43480,1,8,0:0:0:0:
448,228,43730,1,0,0:0:0:0:
416,304,43980,2,0,P|378:269|364:234,1,80,0|0,0:0|0:0,2:0:0:0:
400,168,44480,2,0,P|437:202|452:252,1,80,8|0,0:0|0:0,0:0:0:0:
416,304,44980,5,4,0:0:0:0:
336,316,45230,1,0,0:0:0:0:
256,304,45480,1,8,0:0:0:0:
176,316,45730,1,8,0:0:0:0:
96,340,45980,2,0,P|64:268|80:192,1,160,0|8,0:0|0:0,0:0:0:0:
256,304,46980,5,4,0:0:0:0:
353,234,47230,1,0,0:0:0:0:
343,115,47480,1,8,0:0:0:0:
234,64,47730,1,0,0:0:0:0:
136,133,47980,1,0,0:0:0:0:
147,252,48230,1,12,0:0:0:0:
256,304,48480,1,8,0:0:0:0:
274,311,48605,1,0,0:0:0:0:
292,319,48730,1,0,0:0:0:0:
448,320,48980,6,0,P|476:284|484:244,1,80,4|0,0:0|0:0,0:0:0:0:
444,184,49480,2,0,P|415:219|407:259,1,80,8|0,0:0|0:0,0:0:0:0:
228,172,49980,2,0,P|266:179|305:170,1,80,0|0,0:0|0:0,0:0:0:0:
343,99,50480,2,0,P|304:92|266:102,1,80,8|8,0:0|0:0,0:0:0:0:
188,104,50980,5,4,0:0:0:0:
188,240,51230,1,0,0:0:0:0:
265,102,51480,1,8,0:0:0:0:
148,172,51730,1,8,0:0:0:0:
268,240,51980,2,0,P|302:221|326:189,1,80,0|0,0:0|0:0,0:0:0:0:
372,124,52480,2,0,P|408:136|438:163,1,80,8|0,0:0|0:0,2:0:0:0:
448,180,52855,1,0,0:0:0:0:
456,196,52980,5,4,0:0:0:0:
379,336,53480,2,0,P|414:315|438:284,1,80,8|0,0:0|0:0,0:0:0:0:
328,228,53980,2,0,P|293:247|270:279,1,80,0|0,0:0|0:0,0:0:0:0:
260,356,54480,2,0,P|224:340|197:310,1,80,8|0,0:0|0:0,0:0:0:0:
92,304,54980,6,0,P|125:281|150:251,1,80,4|0,0:0|2:0,0:0:0:0:
76,224,55480,2,0,P|42:246|17:276,1,80,8|0,0:0|2:0,0:0:0:0:
92,304,55980,1,0,0:0:0:0:
172,296,56230,1,0,0:0:0:0:
236,248,56480,1,8,0:0:0:0:
312,268,56730,1,0,0:0:0:0:
252,320,56980,6,0,P|320:344|388:292,1,160,0|8,0:0|0:0,0:0:0:0:
437,232,57730,1,0,0:0:0:0:
484,168,57980,2,0,P|465:202|438:232,1,80,0|0,0:0|0:0,0:0:0:0:
364,220,58480,2,0,P|383:185|410:155,1,80,8|0,0:0|0:0,0:0:0:0:
436,80,58980,6,0,P|359:61|294:104,1,160,4|8,0:0|0:0,2:0:0:0:
272,180,59730,1,0,0:0:0:0:
252,256,59980,2,0,P|216:232|196:200,1,80
216,124,60480,2,0,P|252:148|272:180,1,80,8|8,0:0|0:0,0:0:0:0:
332,232,60980,6,0,P|353:265|387:286,1,80,4|0,0:0|0:0,0:0:0:0:
460,324,61480,1,8,0:0:0:0:
460,324,61730,1,0,0:0:0:0:
484,248,61980,2,0,P|462:214|428:193,1,80,0|0,0:0|0:0,0:0:0:0:
356,160,62480,1,8,0:0:0:0:
356,160,62730,1,0,0:0:0:0:
280,184,62980,6,0,P|301:217|335:238,1,80,4|0,0:0|0:0,0:0:0:0:
416,236,63480,1,8,0:0:0:0:
484,192,63730,1,0,0:0:0:0:
504,116,63980,2,0,P|468:97|429:94,1,80,0|8,0:0|0:0,0:0:0:0:
372,40,64480,2,0,P|354:75|353:115,1,80,8|0,0:0|0:0,0:0:0:0:
328,192,64980,5,4,0:0:0:0:
288,260,65230,1,0,0:0:0:0:
212,228,65480,2,0,P|190:261|156:282,1,80,8|0,0:0|0:0,0:0:0:0:
136,204,65980,1,0,0:0:0:0:
184,140,66230,1,0,0:0:0:0:
260,160,66480,2,0,P|287:131|324:116,1,80,8|0,0:0|0:0,0:0:0:0:
400,96,66980,5,4,0:0:0:0:
460,152,67230,1,0,0:0:0:0:
468,232,67480,1,8,0:0:0:0:
400,276,67730,1,0,0:0:0:0:
320,264,67980,2,0,P|313:303|292:337,1,80
236,280,68480,2,0,P|242:240|263:206,1,80,8|8,0:0|0:0,0:0:0:0:
252,128,68980,5,4,0:0:0:0:
176,108,69230,1,0,0:0:0:0:
124,168,69480,2,0,P|156:191|175:226,1,80,8|0,0:0|0:0,0:0:0:0:
236,280,69980,1,0,0:0:0:0:
156,296,70230,1,0,0:0:0:0:
96,244,70480,2,0,P|63:220|44:185,1,80,8|0,0:0|0:0,0:0:0:0:
56,108,70980,5,4,0:0:0:0:
132,132,71230,2,0,P|165:156|184:191,1,80,0|8,0:0|0:0,0:0:0:0:
224,260,71730,1,0,0:0:0:0:
304,256,71980,2,0,P|333:228|368:209,1,80,0|8,0:0|0:0,0:0:0:0:
440,240,72480,2,0,P|412:272|376:296,1,80,8|0,0:0|0:0,0:0:0:0:
305,319,72980,6,0,P|342:304|381:293,1,80,4|0,0:0|0:0,0:0:0:0:
305,319,73480,2,0,P|264:336|224:344,1,80,8|0,0:0|0:0,0:0:0:0:
188,248,73980,6,0,P|184:189|219:141,1,120.000004577637,0|8,0:0|0:0,0:0:0:0:
376,324,74980,5,4,0:0:0:0:
336,252,75230,1,0,0:0:0:0:
340,172,75480,1,8,0:0:0:0:
408,128,75730,1,0,0:0:0:0:
488,120,75980,2,0,P|483:159|463:202,1,80
428,264,76480,2,0,P|401:236|383:200,1,80,8|0,0:0|0:0,0:0:0:0:
372,120,76980,5,4,0:0:0:0:
408,48,77230,1,0,0:0:0:0:
356,108,77480,1,8,0:0:0:0:
336,32,77730,1,0,0:0:0:0:
336,112,77980,2,0,P|304:136|272:184,1,80
300,244,78480,2,0,P|336:220|364:176,1,80,8|0,0:0|0:0,0:0:0:0:
280,168,78980,5,4,0:0:0:0:
216,120,79230,1,0,0:0:0:0:
136,116,79480,1,8,0:0:0:0:
68,156,79730,1,0,0:0:0:0:
52,236,79980,2,0,P|64:273|91:302,1,80,0|8,0:0|0:0,0:0:0:0:
160,344,80480,1,8,0:0:0:0:
180,352,80605,1,0,0:0:0:0:
200,360,80730,1,0,0:0:0:0:
280,348,80980,5,4,0:0:0:0:
344,300,81230,2,0,L|416:248,1,80,0|8,0:0|0:0,0:0:0:0:
472,204,81730,1,0,0:0:0:0:
420,144,81980,1,0,0:0:0:0:
356,192,82230,2,0,L|288:244,1,80,0|8,0:0|0:0,0:0:0:0:
228,288,82730,1,0,0:0:0:0:
156,320,82980,6,0,P|156:280|164:240,1,80,4|0,0:0|0:0,0:0:0:0:
224,188,83480,2,0,P|224:148|216:108,1,80,8|0,0:0|0:0,0:0:0:0:
100,84,83980,2,0,P|71:112|49:146,1,80,8|8,0:0|0:0,0:0:0:0:
56,264,84480,2,0,P|84:235|106:201,1,80,8|0,0:0|0:0,0:0:0:0:
216,112,84980,5,4,0:0:0:0:
288,80,85230,1,0,0:0:0:0:
368,96,85480,2,0,L|448:132,1,80,8|0,0:0|0:0,0:0:0:0:
444,208,85980,1,0,0:0:0:0:
404,276,86230,1,0,0:0:0:0:
332,312,86480,2,0,L|248:292,1,80,8|0,0:0|0:0,0:0:0:0:
92,280,86980,5,4,0:0:0:0:
56,208,87230,1,0,0:0:0:0:
60,128,87480,1,8,0:0:0:0:
108,64,87730,1,0,0:0:0:0:
184,40,87980,2,0,B|276:28|316:124|401:127,1,240,0|8,0:0|0:0,0:0:0:0:
480,136,88980,6,0,P|468:172|424:204,1,80,4|0,0:0|0:0,0:0:0:0:
356,190,89480,2,0,P|371:154|401:127,1,80,8|0,0:0|0:0,0:0:0:0:
480,268,89980,6,0,P|471:298|405:359,1,120.000004577637,0|8,0:0|0:0,0:0:0:0:
208,336,90980,5,4,0:0:0:0:
132,308,91230,1,0,0:0:0:0:
72,256,91480,1,8,0:0:0:0:
36,184,91730,1,0,0:0:0:0:
48,104,91980,2,0,P|56:58|76:29,1,80,0|8,0:0|0:0,0:0:0:0:
156,20,92480,2,0,P|147:65|127:94,1,80,8|0,0:0|0:0,0:0:0:0:
116,172,92980,5,4,0:0:0:0:
164,236,93230,1,0,0:0:0:0:
240,264,93480,2,0,P|288:259|325:244,1,80,8|0,0:0|0:0,0:0:0:0:
324,160,93980,6,0,P|256:160|200:184,1,120,0|8,0:0|0:0,0:0:0:0:
48,344,94980,6,0,P|84:328|120:296,1,80,4|0,0:0|0:0,0:0:0:0:
156,232,95480,1,8,0:0:0:0:
192,160,95730,1,0,0:0:0:0:
216,84,95980,2,0,P|244:56|280:38,1,80,0|8,0:0|0:0,0:0:0:0:
360,36,96480,1,8,0:0:0:0:
380,44,96605,1,0,0:0:0:0:
396,52,96730,1,0,0:0:0:0:
444,116,96980,5,0,0:0:0:0:
452,276,97480,1,8,0:0:0:0:
376,300,97730,1,0,0:0:0:0:
300,276,97980,1,0,0:0:0:0:
224,300,98230,1,0,0:0:0:0:
152,264,98480,2,0,P|184:240|236:220,1,80,8|0,0:0|0:0,0:0:0:0:
196,148,98980,6,0,P|164:172|108:196,1,80,4|0,0:0|0:0,0:0:0:0:
64,140,99480,2,0,P|96:116|152:92,1,80,8|0,0:0|0:0,0:0:0:0:
208,72,99980,1,0,0:0:0:0:
288,76,100230,1,0,0:0:0:0:
360,112,100480,1,8,0:0:0:0:
408,176,100730,1,0,0:0:0:0:
424,256,100980,5,0,0:0:0:0:
380,324,101230,1,0,0:0:0:0:
300,332,101480,1,8,0:0:0:0:
224,300,101730,1,0,0:0:0:0:
176,236,101980,2,0,P|149:269|143:315,1,80
188,372,102480,1,8,0:0:0:0:
224,300,102730,1,0,0:0:0:0:
268,232,102980,6,0,P|294:265|300:311,1,80,4|0,0:0|0:0,0:0:0:0:
372,344,103480,1,8,0:0:0:0:
444,308,103730,1,0,0:0:0:0:
488,244,103980,2,0,L|488:156,1,80
444,96,104480,1,8,0:0:0:0:
372,60,104730,1,0,0:0:0:0:
352,136,104980,6,0,P|312:139|272:135,1,80,6|0,0:0|0:0,0:0:0:0:
208,92,105480,2,0,P|168:87|128:91,1,80,2|0,0:0|0:0,0:0:0:0:
108,131,105855,1,0,0:0:0:0:
128,164,105980,2,0,P|167:167|208:164,1,80,10|0,0:0|0:0,0:0:0:0:
212,244,106480,2,0,P|172:241|132:245,1,80,10|0,0:0|0:0,0:0:0:0:
68,292,106980,6,0,P|98:265|133:246,1,80,6|0,0:0|0:0,0:0:0:0:
192,300,107480,2,0,P|222:274|257:255,1,80,10|0,0:0|0:0,0:0:0:0:
276,260,107855,1,0,0:0:0:0:
296,264,107980,2,0,P|326:237|361:218,1,80,2|0,0:0|0:0,0:0:0:0:
408,152,108480,2,0,P|432:183|443:221,1,80,10|0,0:0|0:0,0:0:0:0:
396,288,108980,6,0,P|368:248|360:212,1,80,6|0,0:0|0:0,0:0:0:0:
356,140,109480,1,10,0:0:0:0:
292,92,109730,1,0,0:0:0:0:
276,104,109855,1,0,0:0:0:0:
264,120,109980,2,0,P|240:151|229:189,1,80,10|0,0:0|0:0,0:0:0:0:
232,272,110480,1,10,0:0:0:0:
284,332,110730,1,0,0:0:0:0:
360,300,110980,6,0,P|330:273|310:238,1,80,6|0,0:0|0:0,0:0:0:0:
276,168,111480,1,10,0:0:0:0:
292,88,111730,1,0,0:0:0:0:
312,80,111855,1,0,0:0:0:0:
332,76,111980,2,0,P|385:114|431:231,1,160,2|10,0:0|0:0,0:0:0:0:
432,216,112605,1,0,0:0:0:0:
436,236,112730,1,0,0:0:0:0:
436,316,112980,5,6,0:0:0:0:
356,320,113230,2,0,B|312:360|244:304|192:336,1,160
120,340,113980,2,0,B|63:321|77:235|24:205,1,160,2|8,0:0|0:0,0:0:0:0:
72,140,114730,1,0,0:0:0:0:
140,92,114980,5,2,0:0:0:0:
216,72,115230,1,0,0:0:0:0:
296,72,115480,1,10,0:0:0:0:
372,92,115730,1,0,0:0:0:0:
388,104,115855,1,0,0:0:0:0:
400,120,115980,1,2,0:0:0:0:
448,184,116230,2,0,P|424:268|384:332,1,160,0|8,0:0|0:0,0:0:0:0:
312,352,116980,5,6,0:0:0:0:
236,332,117230,1,0,0:0:0:0:
168,288,117480,2,0,L|112:264,2,40,10|0|8,0:0|0:0|0:0,0:0:0:0:
156,208,117980,2,0,L|208:164,2,40,2|0|0,0:0|0:0|0:0,0:0:0:0:
144,128,118480,2,0,L|88:100,2,40,10|0|8,0:0|0:0|0:0,0:0:0:0:
140,48,118980,5,6,0:0:0:0:
220,64,119230,1,0,0:0:0:0:
300,48,119480,1,10,0:0:0:0:
380,64,119730,2,0,L|432:36,2,40,0|0|2,0:0|0:0|0:0,0:0:0:0:
420,132,120230,1,8,0:0:0:0:
412,212,120480,2,0,B|404:280|324:280|316:336,1,160,2|4,0:0|0:0,0:0:0:0:
240,308,121230,5,0,0:0:0:0:
164,284,121480,2,0,P|133:260|94:255,1,80,8|0,0:0|0:0,0:0:0:0:
36,312,121980,2,0,P|82:340|122:337,1,80
164,284,122480,2,0,P|195:260|234:254,1,80,8|0,0:0|0:0,0:0:0:0:
312,276,122980,2,0,L|384:312,1,80,0|8,0:0|0:0,0:0:0:0:
456,276,123480,1,8,0:0:0:0:
456,196,123730,1,0,0:0:0:0:
384,152,123980,2,0,L|304:204,1,80,0|8,0:0|0:0,0:0:0:0:
312,276,124480,1,8,0:0:0:0:
384,312,124730,1,0,0:0:0:0:
456,276,124980,6,0,P|464:221|445:185,1,80,4|0,0:0|0:0,0:0:0:0:
416,132,125480,2,0,P|387:158|375:194,1,80,8|0,0:0|0:0,0:0:0:0:
348,272,125980,2,0,P|336:309|307:337,1,80
232,316,126480,2,0,P|243:278|272:250,1,80,8|0,0:0|0:0,0:0:0:0:
308,180,126980,2,0,P|336:152|348:114,1,80,4|0,0:0|0:0,0:0:0:0:
300,52,127480,2,0,P|271:79|259:117,1,80,8|0,0:0|0:0,0:0:0:0:
220,188,127980,6,0,B|176:232|228:328|188:368,1,180.000006866455,8|0,0:0|0:0,0:0:0:0:
116,344,128980,5,0,0:0:0:0:
56,292,129230,1,8,0:0:0:0:
36,216,129480,1,0,0:0:0:0:
36,136,129730,1,0,0:0:0:0:
72,64,129980,6,0,P|124:36|184:32,1,120.000004577637,0|8,0:0|0:0,0:0:0:0:
176,184,130980,5,4,0:0:0:0:
248,152,131230,1,0,0:0:0:0:
320,120,131480,1,8,0:0:0:0:
396,92,131730,1,0,0:0:0:0:
476,96,131980,2,0,P|467:139|440:180,1,80
372,192,132480,2,0,P|352:226|345:265,1,80,8|0,0:0|0:0,0:0:0:0:
320,340,132980,5,4,0:0:0:0:
320,340,133230,1,0,0:0:0:0:
240,324,133480,1,8,0:0:0:0:
240,324,133730,1,0,0:0:0:0:
152,324,133980,6,0,P|175:269|224:236,1,120.000004577637,0|8,0:0|0:0,0:0:0:0:
56,328,134980,5,4,0:0:0:0:
40,248,135230,1,0,0:0:0:0:
44,168,135480,1,8,0:0:0:0:
96,104,135730,1,0,0:0:0:0:
168,68,135980,2,0,P|205:80|235:107,1,80,0|8,0:0|0:0,0:0:0:0:
272,180,136480,1,8,0:0:0:0:
280,196,136605,1,0,0:0:0:0:
288,212,136730,1,0,0:0:0:0:
332,280,136980,6,0,P|350:315|374:347,1,80,0|0,0:0|0:0,0:3:0:0:
447,312,137480,2,0,P|428:276|404:244,1,80,8|0,0:0|0:0,0:0:0:0:
352,184,137980,1,0,0:0:0:0:
272,180,138230,1,0,0:0:0:0:
196,204,138480,2,0,P|168:236|156:272,1,80,8|0,0:0|0:0,0:0:0:0:
212,328,138980,5,0,0:0:0:0:
288,348,139230,1,0,0:0:0:0:
368,344,139480,2,0,P|404:328|431:299,1,80,8|0,0:0|0:0,0:0:0:0:
460,224,139980,1,0,0:0:0:0:
484,148,140230,1,0,0:0:0:0:
472,68,140480,2,0,P|435:83|411:115,1,80,8|0,0:0|0:0,0:0:0:0:
380,188,140980,6,0,P|308:228|232:220,1,160,0|8,0:0|0:0,0:0:0:0:
156,196,141730,1,0,0:0:0:0:
100,140,141980,2,0,P|172:100|248:108,1,160,0|8,0:0|0:0,0:0:0:0:
316,144,142730,1,0,0:0:0:0:
380,188,142980,1,4,0:0:0:0:
460,204,143230,1,0,0:0:0:0:
500,136,143480,2,0,P|460:120|416:112,1,80,8|0,0:0|0:0,0:0:0:0:
344,96,143980,6,0,B|292:164|292:216|292:216|232:224|200:272,1,240,0|0,0:0|0:0,0:0:0:0:
124,292,144980,5,4,0:2:0:0:
72,228,145230,1,0,0:0:0:0:
72,148,145480,1,8,0:0:0:0:
120,84,145730,1,0,0:0:0:0:
196,64,145980,2,0,L|240:136,1,80
296,184,146480,1,8,0:0:0:0:
376,184,146730,1,8,0:0:0:0:
448,220,146980,5,4,0:0:0:0:
460,300,147230,1,0,0:0:0:0:
392,344,147480,2,0,L|308:320,1,80,8|0,0:0|0:0,0:0:0:0:
272,260,147980,1,0,0:0:0:0:
296,184,148230,1,0,0:0:0:0:
272,108,148480,1,8,0:0:0:0:
212,56,148730,1,8,0:0:0:0:
132,40,148980,6,0,P|96:57|67:84,1,80,4|0,0:0|0:0,0:0:0:0:
48,164,149480,1,8,0:0:0:0:
52,244,149730,1,0,0:0:0:0:
104,304,149980,2,0,P|144:312|184:336,1,80
256,340,150480,1,8,0:0:0:0:
336,328,150730,1,8,0:0:0:0:
408,292,150980,5,4,0:0:0:0:
340,252,151230,1,0,0:0:0:0:
412,220,151480,1,8,0:0:0:0:
344,176,151730,1,0,0:0:0:0:
420,144,151980,2,0,P|504:232|456:344,1,240
392,352,152980,5,4,0:0:0:0:
232,336,153480,1,8,0:0:0:0:
160,300,153730,1,0,0:0:0:0:
224,252,153980,1,0,0:0:0:0:
152,216,154230,1,0,0:0:0:0:
80,248,154480,2,0,L|68:148,1,80,8|0,0:0|0:0,0:0:0:0:
68,88,154980,5,4,0:0:0:0:
136,44,155230,1,0,0:0:0:0:
204,88,155480,1,8,0:0:0:0:
216,168,155730,1,0,0:0:0:0:
152,216,155980,2,0,P|117:236|89:264,1,80
160,304,156480,2,0,P|194:283|222:255,1,80,8|0,0:0|0:0,0:0:0:0:
272,192,156980,5,4,0:0:0:0:
416,120,157480,1,8,0:0:0:0:
464,184,157730,1,0,0:0:0:0:
384,196,157980,1,0,0:0:0:0:
404,272,158230,1,0,0:0:0:0:
328,252,158480,2,0,L|304:340,1,80,8|0,0:0|0:0,0:0:0:0:
252,268,158980,5,4,0:0:0:0:
176,296,159230,1,0,0:0:0:0:
196,220,159480,1,8,0:0:0:0:
124,188,159730,1,0,0:0:0:0:
188,140,159980,2,0,L|144:64,1,80,8|0,0:0|0:0,0:0:0:0:
228,72,160480,1,8,0:0:0:0:
300,104,160730,1,0,0:0:0:0:
360,160,160980,5,4,0:0:0:0:
416,216,161230,1,0,0:0:0:0:
396,292,161480,1,8,0:0:0:0:
320,308,161730,1,0,0:0:0:0:
260,256,161980,2,0,L|268:168,1,80
216,116,162480,1,8,0:0:0:0:
136,124,162730,1,0,0:0:0:0:
96,192,162980,5,4,0:0:0:0:
124,268,163230,1,0,0:0:0:0:
196,304,163480,1,8,0:0:0:0:
260,256,163730,1,0,0:0:0:0:
268,176,163980,2,0,P|260:136|242:101,2,80,0|0|8,0:0|0:0|0:0,0:0:0:0:
384,284,164980,5,4,0:0:0:0:
312,320,165230,2,0,L|260:328,2,40,0|0|8,0:0|0:0|0:0,0:0:0:0:
380,176,165980,1,0,0:0:0:0:
416,104,166230,2,0,L|455:97,2,40,0|0|8,0:0|0:0|0:0,0:0:0:0:
260,80,166980,5,4,0:0:0:0:
180,96,167230,2,0,L|128:76,2,40,0|0|8,0:0|0:0|0:0,0:0:0:0:
252,236,167980,2,0,P|296:228|324:208,1,80,0|8,0:0|0:0,0:0:0:0:
264,156,168480,2,0,P|220:164|192:184,1,80,8|2,0:0|0:0,0:0:0:0:
256,192,169480,12,0,170980,0:0:0:0:
