osu file format v14

[General]
AudioFilename: Ailala.mp3
AudioLeadIn: 0
PreviewTime: -1
Countdown: 1
SampleSet: Soft
StackLeniency: 0.7
Mode: 3
LetterboxInBreaks: 1
SpecialStyle: 0
WidescreenStoryboard: 0

[Editor]
DistanceSpacing: 1
BeatDivisor: 4
GridSize: 4
TimelineZoom: 1

[Metadata]
Title:Ai La La
TitleUnicode:爱啦啦
Artist:Hai Nan
ArtistUnicode:海楠
Creator:Tyler_Chan
Version:4K EZ
Source:
Tags:
BeatmapID:690562
BeatmapSetID:308806

[Difficulty]
HPDrainRate:5
CircleSize:4
OverallDifficulty:5
ApproachRate:4
SliderMultiplier:1.2
SliderTickRate:1

[Events]
//Background and Video events
0,0,"BG.jpg",0,0
//Break Periods
//Storyboard Layer 0 (Background)
//Storyboard Layer 1 (Fail)
//Storyboard Layer 2 (Pass)
//Storyboard Layer 3 (Foreground)
//Storyboard Sound Samples

[TimingPoints]
-1020,500,4,2,1,80,1,0
3980,-100,4,2,1,70,0,0
4480,-100,4,2,1,90,0,0
4980,-100,4,2,1,79,0,0
6980,-100,4,2,1,70,0,0
8980,-100,4,2,1,90,0,0
12980,-100,4,2,1,70,0,0
16980,-100,4,2,1,60,0,0
25980,-100,4,2,1,70,0,0
26480,-100,4,2,1,90,0,0
26980,-100,4,2,1,60,0,0
40980,-100,4,2,1,70,0,0
41480,-100,4,2,1,60,0,0
41980,-100,4,2,1,70,0,0
42480,-100,4,2,1,60,0,0
45980,-100,4,2,1,70,0,0
46480,-100,4,2,1,60,0,0
48980,-100,4,2,1,60,0,1
56980,-100,4,2,1,60,0,0
73980,-100,4,2,1,70,0,0
74480,-100,4,2,1,60,0,0
88980,-100,4,2,1,70,0,0
89480,-100,4,2,1,60,0,0
89980,-100,4,2,1,70,0,0
90480,-100,4,2,1,60,0,0
93980,-100,4,2,1,70,0,0
94480,-100,4,2,1,60,0,0
129980,-100,4,2,1,70,0,0
130480,-100,4,2,1,60,0,0
144980,-100,4,2,1,60,0,1
160980,-100,4,2,1,60,0,0
170480,-100,4,2,1,50,0,0
170855,-100,4,2,1,30,0,0

[Colours]
Combo1 : 146,146,201
Combo2 : 0,255,255
Combo3 : 255,117,255

[HitObjects]
64,192,980,5,0,0:0:0:0:
192,192,1480,1,0,0:0:0:0:
320,192,1980,1,0,0:0:0:0:
192,192,2480,128,0,2980:0:0:0:0:
320,192,2980,1,0,0:0:0:0:
320,192,3480,1,0,0:0:0:0:
64,192,3980,128,0,4480:0:0:0:0:
448,192,4480,1,0,0:0:0:0:
192,192,4730,1,0,0:0:0:0:
320,192,4980,1,0,0:0:0:0:
192,192,5480,128,0,5980:0:0:0:0:
64,192,5980,1,0,0:0:0:0:
320,192,6480,1,0,0:0:0:0:
448,192,6980,128,0,7480:0:0:0:0:
320,192,7480,1,0,0:0:0:0:
192,192,7980,1,0,0:0:0:0:
64,192,8230,128,0,8730:0:0:0:0:
320,192,8980,1,0,0:0:0:0:
448,192,9480,1,0,0:0:0:0:
192,192,9980,128,0,10480:0:0:0:0:
64,192,10480,1,0,0:0:0:0:
448,192,10980,1,0,0:0:0:0:
320,192,11480,1,0,0:0:0:0:
192,192,11980,128,0,12480:0:0:0:0:
320,192,12980,1,0,0:0:0:0:
448,192,13480,1,0,0:0:0:0:
64,192,13980,1,0,0:0:0:0:
64,192,14480,1,0,0:0:0:0:
320,192,14980,128,0,15480:0:0:0:0:
192,192,15480,1,0,0:0:0:0:
448,192,15980,1,0,0:0:0:0:
320,192,16230,1,0,0:0:0:0:
320,192,16480,128,0,16980:0:0:0:0:
192,192,17480,1,0,0:0:0:0:
64,192,17980,1,0,0:0:0:0:
192,192,18480,1,0,0:0:0:0:
320,192,18980,128,0,19480:0:0:0:0:
448,192,19980,1,0,0:0:0:0:
192,192,20230,1,0,0:0:0:0:
64,192,20480,1,0,0:0:0:0:
320,192,20730,1,0,0:0:0:0:
64,192,20980,1,0,0:0:0:0:
192,192,21480,1,0,0:0:0:0:
192,192,21980,1,0,0:0:0:0:
320,192,22480,1,0,0:0:0:0:
320,192,22980,1,0,0:0:0:0:
192,192,23480,128,0,23980:0:0:0:0:
64,192,24230,1,0,0:0:0:0:
192,192,24480,1,0,0:0:0:0:
320,192,24730,1,0,0:0:0:0:
448,192,24980,1,0,0:0:0:0:
320,192,25480,1,0,0:0:0:0:
192,192,25980,1,0,0:0:0:0:
320,192,26480,1,0,0:0:0:0:
448,192,26980,128,0,27480:0:0:0:0:
192,192,27480,1,0,0:0:0:0:
64,192,27980,1,0,0:0:0:0:
448,192,28230,1,0,0:0:0:0:
320,192,28480,1,0,0:0:0:0:
192,192,28730,1,0,0:0:0:0:
64,192,28980,1,0,0:0:0:0:
192,192,29480,1,0,0:0:0:0:
64,192,29980,1,0,0:0:0:0:
320,192,30480,1,0,0:0:0:0:
64,192,30980,1,0,0:0:0:0:
448,192,31480,1,0,0:0:0:0:
448,192,31980,1,0,0:0:0:0:
192,192,32230,128,0,32730:0:0:0:0:
320,192,32980,1,0,0:0:0:0:
64,192,33480,1,0,0:0:0:0:
192,192,33980,1,0,0:0:0:0:
320,192,34480,1,0,0:0:0:0:
448,192,34980,1,0,0:0:0:0:
192,192,35480,128,0,35980:0:0:0:0:
448,192,35980,1,0,0:0:0:0:
320,192,36230,1,0,0:0:0:0:
448,192,36480,1,0,0:0:0:0:
192,192,36730,1,0,0:0:0:0:
320,192,36980,1,0,0:0:0:0:
64,192,37480,1,0,0:0:0:0:
192,192,37980,1,0,0:0:0:0:
448,192,38480,1,0,0:0:0:0:
320,192,38980,1,0,0:0:0:0:
192,192,39480,1,0,0:0:0:0:
192,192,39980,1,0,0:0:0:0:
64,192,40230,1,0,0:0:0:0:
448,192,40480,1,0,0:0:0:0:
320,192,40730,1,0,0:0:0:0:
192,192,40980,1,0,0:0:0:0:
448,192,41480,1,0,0:0:0:0:
320,192,41980,1,0,0:0:0:0:
192,192,42480,1,0,0:0:0:0:
64,192,42980,128,0,43480:0:0:0:0:
192,192,43480,1,0,0:0:0:0:
448,192,43980,1,0,0:0:0:0:
320,192,44230,1,0,0:0:0:0:
192,192,44480,1,0,0:0:0:0:
64,192,44730,1,0,0:0:0:0:
192,192,44980,1,0,0:0:0:0:
448,192,45480,1,0,0:0:0:0:
64,192,45980,1,0,0:0:0:0:
192,192,46480,1,0,0:0:0:0:
320,192,46980,1,0,0:0:0:0:
192,192,47230,1,0,0:0:0:0:
64,192,47480,1,0,0:0:0:0:
320,192,47730,1,0,0:0:0:0:
192,192,47980,1,0,0:0:0:0:
320,192,48230,128,0,48730:0:0:0:0:
448,192,48980,1,0,0:0:0:0:
192,192,49480,1,0,0:0:0:0:
192,192,49980,1,0,0:0:0:0:
320,192,50480,1,0,0:0:0:0:
448,192,50980,1,0,0:0:0:0:
320,192,51480,1,0,0:0:0:0:
64,192,51980,1,0,0:0:0:0:
64,192,52480,1,0,0:0:0:0:
192,192,52980,1,0,0:0:0:0:
320,192,53480,1,0,0:0:0:0:
320,192,53980,1,0,0:0:0:0:
192,192,54480,1,0,0:0:0:0:
448,192,54980,1,0,0:0:0:0:
64,192,55480,1,0,0:0:0:0:
192,192,55980,1,0,0:0:0:0:
192,192,56480,1,0,0:0:0:0:
192,192,56980,1,0,0:0:0:0:
320,192,57480,1,0,0:0:0:0:
64,192,57980,1,0,0:0:0:0:
192,192,58480,1,0,0:0:0:0:
448,192,58980,1,0,0:0:0:0:
320,192,59480,1,0,0:0:0:0:
192,192,59980,128,0,60480:0:0:0:0:
64,192,60480,1,0,0:0:0:0:
320,192,60980,1,0,0:0:0:0:
448,192,61480,1,0,0:0:0:0:
320,192,61980,1,0,0:0:0:0:
192,192,62480,1,0,0:0:0:0:
192,192,62980,1,0,0:0:0:0:
320,192,63480,1,0,0:0:0:0:
320,192,63980,128,0,64480:0:0:0:0:
64,192,64980,1,0,0:0:0:0:
192,192,65480,1,0,0:0:0:0:
320,192,65980,1,0,0:0:0:0:
448,192,66480,1,0,0:0:0:0:
64,192,66980,1,0,0:0:0:0:
192,192,67480,1,0,0:0:0:0:
320,192,67980,1,0,0:0:0:0:
192,192,68230,1,0,0:0:0:0:
320,192,68480,1,0,0:0:0:0:
448,192,68730,1,0,0:0:0:0:
320,192,68980,1,0,0:0:0:0:
192,192,69480,1,0,0:0:0:0:
320,192,69980,1,0,0:0:0:0:
64,192,70480,1,0,0:0:0:0:
448,192,70980,1,0,0:0:0:0:
192,192,71480,1,0,0:0:0:0:
192,192,71980,1,0,0:0:0:0:
320,192,72230,1,0,0:0:0:0:
448,192,72480,1,0,0:0:0:0:
320,192,72730,1,0,0:0:0:0:
192,192,72980,1,0,0:0:0:0:
448,192,73480,1,0,0:0:0:0:
320,192,73980,1,0,0:0:0:0:
64,192,74480,1,0,0:0:0:0:
192,192,74980,1,0,0:0:0:0:
320,192,75480,1,0,0:0:0:0:
448,192,75980,1,0,0:0:0:0:
320,192,76230,1,0,0:0:0:0:
192,192,76480,1,0,0:0:0:0:
320,192,76730,1,0,0:0:0:0:
64,192,76980,1,0,0:0:0:0:
64,192,77480,1,0,0:0:0:0:
448,192,77980,1,0,0:0:0:0:
320,192,78480,1,0,0:0:0:0:
64,192,78980,1,0,0:0:0:0:
192,192,79480,1,0,0:0:0:0:
448,192,79980,1,0,0:0:0:0:
192,192,80230,128,0,80730:0:0:0:0:
192,192,80980,1,0,0:0:0:0:
320,192,81480,1,0,0:0:0:0:
320,192,81980,1,0,0:0:0:0:
192,192,82480,1,0,0:0:0:0:
448,192,82980,1,0,0:0:0:0:
320,192,83480,1,0,0:0:0:0:
192,192,83980,1,0,0:0:0:0:
320,192,84230,1,0,0:0:0:0:
64,192,84480,1,0,0:0:0:0:
320,192,84730,1,0,0:0:0:0:
192,192,84980,1,0,0:0:0:0:
448,192,85480,1,0,0:0:0:0:
320,192,85980,1,0,0:0:0:0:
64,192,86480,128,0,86980:0:0:0:0:
192,192,86980,1,0,0:0:0:0:
320,192,87480,1,0,0:0:0:0:
320,192,87980,1,0,0:0:0:0:
448,192,88230,1,0,0:0:0:0:
192,192,88480,1,0,0:0:0:0:
448,192,88730,1,0,0:0:0:0:
64,192,88980,1,0,0:0:0:0:
320,192,89480,1,0,0:0:0:0:
448,192,89980,1,0,0:0:0:0:
320,192,90480,1,0,0:0:0:0:
192,192,90980,1,0,0:0:0:0:
64,192,91480,1,0,0:0:0:0:
64,192,91980,1,0,0:0:0:0:
192,192,92230,1,0,0:0:0:0:
448,192,92480,1,0,0:0:0:0:
320,192,92730,1,0,0:0:0:0:
192,192,92980,1,0,0:0:0:0:
320,192,93480,1,0,0:0:0:0:
64,192,93980,1,0,0:0:0:0:
448,192,94480,1,0,0:0:0:0:
192,192,94980,1,0,0:0:0:0:
64,192,95230,1,0,0:0:0:0:
320,192,95480,1,0,0:0:0:0:
64,192,95730,1,0,0:0:0:0:
192,192,95980,1,0,0:0:0:0:
448,192,96230,128,0,96730:0:0:0:0:
320,192,96980,1,0,0:0:0:0:
64,192,97480,1,0,0:0:0:0:
192,192,97980,1,0,0:0:0:0:
320,192,98480,1,0,0:0:0:0:
320,192,98980,1,0,0:0:0:0:
448,192,99480,1,0,0:0:0:0:
64,192,99980,1,0,0:0:0:0:
320,192,100480,1,0,0:0:0:0:
192,192,100980,1,0,0:0:0:0:
320,192,101480,1,0,0:0:0:0:
64,192,101980,1,0,0:0:0:0:
448,192,102480,1,0,0:0:0:0:
320,192,102980,1,0,0:0:0:0:
192,192,103480,1,0,0:0:0:0:
64,192,103980,1,0,0:0:0:0:
192,192,104480,1,0,0:0:0:0:
64,192,104980,1,0,0:0:0:0:
192,192,105480,1,0,0:0:0:0:
448,192,105980,1,0,0:0:0:0:
320,192,106480,1,0,0:0:0:0:
192,192,106980,1,0,0:0:0:0:
320,192,107480,1,0,0:0:0:0:
320,192,107980,1,0,0:0:0:0:
192,192,108230,1,0,0:0:0:0:
64,192,108480,1,0,0:0:0:0:
320,192,108730,1,0,0:0:0:0:
192,192,108980,1,0,0:0:0:0:
320,192,109480,1,0,0:0:0:0:
448,192,109980,1,0,0:0:0:0:
448,192,110480,1,0,0:0:0:0:
64,192,110980,1,0,0:0:0:0:
192,192,111480,1,0,0:0:0:0:
64,192,111980,1,0,0:0:0:0:
192,192,112230,1,0,0:0:0:0:
320,192,112480,1,0,0:0:0:0:
448,192,112730,1,0,0:0:0:0:
320,192,112980,1,0,0:0:0:0:
64,192,112980,1,0,0:0:0:0:
448,192,113230,1,0,0:0:0:0:
192,192,113480,1,0,0:0:0:0:
320,192,113730,1,0,0:0:0:0:
448,192,113980,1,0,0:0:0:0:
64,192,114230,1,0,0:0:0:0:
192,192,114480,1,0,0:0:0:0:
448,192,114730,1,0,0:0:0:0:
320,192,114980,1,0,0:0:0:0:
64,192,115480,1,0,0:0:0:0:
320,192,115980,128,0,116480:0:0:0:0:
64,192,116480,1,0,0:0:0:0:
192,192,116980,1,0,0:0:0:0:
448,192,117230,1,0,0:0:0:0:
64,192,117480,1,0,0:0:0:0:
320,192,117730,1,0,0:0:0:0:
64,192,117980,1,0,0:0:0:0:
192,192,118230,1,0,0:0:0:0:
320,192,118480,1,0,0:0:0:0:
64,192,118730,1,0,0:0:0:0:
320,192,118980,1,0,0:0:0:0:
192,192,119480,1,0,0:0:0:0:
192,192,119980,1,0,0:0:0:0:
64,192,120230,128,0,120730:0:0:0:0:
320,192,120230,1,0,0:0:0:0:
448,192,120480,1,0,0:0:0:0:
320,192,120730,1,0,0:0:0:0:
320,192,120980,1,0,0:0:0:0:
192,192,121480,1,0,0:0:0:0:
64,192,121980,1,0,0:0:0:0:
192,192,122480,1,0,0:0:0:0:
320,192,122980,1,0,0:0:0:0:
448,192,123480,128,0,123980:0:0:0:0:
320,192,124230,1,0,0:0:0:0:
448,192,124480,1,0,0:0:0:0:
320,192,124730,1,0,0:0:0:0:
192,192,124980,1,0,0:0:0:0:
64,192,125480,1,0,0:0:0:0:
320,192,125980,128,0,126480:0:0:0:0:
192,192,126980,1,0,0:0:0:0:
192,192,127480,1,0,0:0:0:0:
448,192,127980,1,0,0:0:0:0:
320,192,128230,1,0,0:0:0:0:
192,192,128480,1,0,0:0:0:0:
64,192,128730,1,0,0:0:0:0:
192,192,128980,1,0,0:0:0:0:
320,192,129480,1,0,0:0:0:0:
64,192,129980,1,0,0:0:0:0:
448,192,130480,1,0,0:0:0:0:
320,192,130980,1,0,0:0:0:0:
192,192,131480,1,0,0:0:0:0:
320,192,131980,1,0,0:0:0:0:
192,192,132230,1,0,0:0:0:0:
448,192,132480,1,0,0:0:0:0:
192,192,132730,1,0,0:0:0:0:
320,192,132980,1,0,0:0:0:0:
64,192,133480,1,0,0:0:0:0:
192,192,133980,1,0,0:0:0:0:
320,192,134480,1,0,0:0:0:0:
448,192,134980,128,0,135480:0:0:0:0:
64,192,135480,1,0,0:0:0:0:
192,192,135730,1,0,0:0:0:0:
320,192,135980,1,0,0:0:0:0:
192,192,136230,128,0,136730:0:0:0:0:
320,192,136980,1,0,0:0:0:0:
192,192,137480,1,0,0:0:0:0:
448,192,137730,1,0,0:0:0:0:
320,192,137980,1,0,0:0:0:0:
192,192,138230,1,0,0:0:0:0:
320,192,138480,1,0,0:0:0:0:
192,192,138730,1,0,0:0:0:0:
448,192,138980,1,0,0:0:0:0:
320,192,139230,1,0,0:0:0:0:
192,192,139480,1,0,0:0:0:0:
64,192,139730,1,0,0:0:0:0:
192,192,139980,1,0,0:0:0:0:
320,192,140230,1,0,0:0:0:0:
448,192,140480,1,0,0:0:0:0:
320,192,140730,1,0,0:0:0:0:
448,192,140980,128,0,141480:0:0:0:0:
64,192,141730,1,0,0:0:0:0:
192,192,141980,1,0,0:0:0:0:
320,192,142230,1,0,0:0:0:0:
448,192,142480,1,0,0:0:0:0:
320,192,142730,1,0,0:0:0:0:
192,192,142980,1,0,0:0:0:0:
448,192,143230,1,0,0:0:0:0:
320,192,143480,1,0,0:0:0:0:
192,192,143730,1,0,0:0:0:0:
64,192,143980,1,0,0:0:0:0:
448,192,144230,1,0,0:0:0:0:
192,192,144480,1,0,0:0:0:0:
320,192,144730,1,0,0:0:0:0:
448,192,144980,128,0,145480:0:0:0:0:
320,192,145730,1,0,0:0:0:0:
192,192,145980,1,0,0:0:0:0:
64,192,146230,1,0,0:0:0:0:
320,192,146480,1,0,0:0:0:0:
192,192,146730,1,0,0:0:0:0:
64,192,146980,1,0,0:0:0:0:
192,192,147230,1,0,0:0:0:0:
448,192,147480,1,0,0:0:0:0:
320,192,147730,1,0,0:0:0:0:
192,192,147980,1,0,0:0:0:0:
320,192,148230,1,0,0:0:0:0:
448,192,148480,1,0,0:0:0:0:
192,192,148730,1,0,0:0:0:0:
320,192,148980,1,0,0:0:0:0:
192,192,149480,1,0,0:0:0:0:
320,192,149730,1,0,0:0:0:0:
64,192,149980,1,0,0:0:0:0:
448,192,150230,1,0,0:0:0:0:
192,192,150480,1,0,0:0:0:0:
320,192,150730,1,0,0:0:0:0:
448,192,150980,1,0,0:0:0:0:
320,192,151230,1,0,0:0:0:0:
192,192,151480,1,0,0:0:0:0:
64,192,151730,1,0,0:0:0:0:
448,192,151980,1,0,0:0:0:0:
320,192,152230,1,0,0:0:0:0:
192,192,152480,1,0,0:0:0:0:
448,192,152730,1,0,0:0:0:0:
64,192,152980,128,0,153480:0:0:0:0:
192,192,153730,1,0,0:0:0:0:
320,192,153980,1,0,0:0:0:0:
192,192,154230,1,0,0:0:0:0:
448,192,154480,1,0,0:0:0:0:
64,192,154730,1,0,0:0:0:0:
192,192,154980,1,0,0:0:0:0:
320,192,155230,1,0,0:0:0:0:
192,192,155480,1,0,0:0:0:0:
320,192,155730,1,0,0:0:0:0:
64,192,155980,1,0,0:0:0:0:
192,192,156230,1,0,0:0:0:0:
320,192,156480,128,0,156730:0:0:0:0:
448,192,156980,128,0,157480:0:0:0:0:
320,192,157730,1,0,0:0:0:0:
192,192,157980,1,0,0:0:0:0:
320,192,158230,1,0,0:0:0:0:
448,192,158480,1,0,0:0:0:0:
64,192,158730,1,0,0:0:0:0:
192,192,158980,1,0,0:0:0:0:
320,192,159230,1,0,0:0:0:0:
448,192,159480,1,0,0:0:0:0:
320,192,159730,1,0,0:0:0:0:
448,192,159980,1,0,0:0:0:0:
320,192,160230,1,0,0:0:0:0:
192,192,160480,1,0,0:0:0:0:
448,192,160730,1,0,0:0:0:0:
192,192,160980,128,0,161480:0:0:0:0:
448,192,161730,1,0,0:0:0:0:
192,192,161980,1,0,0:0:0:0:
320,192,162230,1,0,0:0:0:0:
448,192,162480,1,0,0:0:0:0:
320,192,162730,1,0,0:0:0:0:
192,192,162980,1,0,0:0:0:0:
64,192,163230,1,0,0:0:0:0:
320,192,163480,1,0,0:0:0:0:
192,192,163730,1,0,0:0:0:0:
448,192,163980,1,0,0:0:0:0:
320,192,164230,1,0,0:0:0:0:
192,192,164480,1,0,0:0:0:0:
448,192,164980,128,0,165480:0:0:0:0:
192,192,165730,1,0,0:0:0:0:
320,192,165980,1,0,0:0:0:0:
64,192,166230,1,0,0:0:0:0:
448,192,166480,1,0,0:0:0:0:
192,192,166730,1,0,0:0:0:0:
320,192,166980,1,0,0:0:0:0:
192,192,167230,1,0,0:0:0:0:
448,192,167480,1,0,0:0:0:0:
64,192,167730,1,0,0:0:0:0:
192,192,167980,1,0,0:0:0:0:
64,192,168230,1,0,0:0:0:0:
320,192,168480,128,0,168730:0:0:0:0:
192,192,168980,128,0,170480:0:0:0:0:
448,192,170980,1,0,0:0:0:0:
64,192,170980,1,0,0:0:0:0:
