osu file format v14

[General]
AudioFilename: You Are A Pirate Techno Remix (Basshunter Style).mp3
AudioLeadIn: 0
PreviewTime: -1
Countdown: 1
SampleSet: None
StackLeniency: 0.7
Mode: 0
LetterboxInBreaks: 1
WidescreenStoryboard: 0

[Editor]
DistanceSpacing: 0.8
BeatDivisor: 3
GridSize: 4
TimelineZoom: 1

[Metadata]
Title:You are a pirate (Basshunter Remix)
TitleUnicode:You are a pirate (Basshunter Remix)
Artist:Haha idk
ArtistUnicode:Haha idk
Creator:KawaiiNoOne
Version:Insane
Source:
Tags:
BeatmapID:649837
BeatmapSetID:288106

[Difficulty]
HPDrainRate:5
CircleSize:5
OverallDifficulty:5
ApproachRate:5
SliderMultiplier:1.4
SliderTickRate:1

[Events]
//Background and Video events
0,0,"r169_457x256_15873_Pirate_Woman_2d_fantasy_illustration_pirate_girl_woman_portrait_picture_image_digital_art.jpg",0,0
//Break Periods
//Storyboard Layer 0 (Background)
//Storyboard Layer 1 (Fail)
//Storyboard Layer 2 (Pass)
//Storyboard Layer 3 (Foreground)
//Storyboard Sound Samples

[TimingPoints]
3835.96030934998,461.502961310668,4,1,0,100,1,0

[HitObjects]
112,104,3835,5,0,0:0:0:0:
352,104,5528,1,0,0:0:0:0:
360,272,7374,1,0,0:0:0:0:
124,284,9066,1,0,0:0:0:0:
120,200,9527,1,0,0:0:0:0:
152,132,10143,1,0,0:0:0:0:
56,92,11681,2,0,P|124:248|348:168,1,420
76,96,13681,2,0,P|280:44|440:252,1,466.666666666667
140,136,18296,2,0,L|160:208,9,46.6666666666667
160,100,20603,1,0,0:0:0:0:
172,100,21065,1,0,0:0:0:0:
200,100,21373,1,0,0:0:0:0:
220,104,21988,1,0,0:0:0:0:
256,104,22296,1,0,0:0:0:0:
324,124,22911,1,0,0:0:0:0:
372,156,23372,1,0,0:0:0:0:
364,200,23680,1,0,0:0:0:0:
292,240,24142,1,0,0:0:0:0:
236,212,24603,1,0,0:0:0:0:
204,168,25065,1,0,0:0:0:0:
132,140,25988,1,0,0:0:0:0:
224,136,26603,1,0,0:0:0:0:
332,128,26911,1,0,0:0:0:0:
368,128,27372,1,0,0:0:0:0:
384,208,27834,1,0,0:0:0:0:
280,236,28295,1,0,0:0:0:0:
184,240,28757,1,0,0:0:0:0:
164,172,29218,1,0,0:0:0:0:
296,120,29680,1,0,0:0:0:0:
420,108,30141,1,0,0:0:0:0:
424,200,30603,1,0,0:0:0:0:
324,256,31064,1,0,0:0:0:0:
208,248,31526,1,0,0:0:0:0:
196,172,32141,1,0,0:0:0:0:
264,104,32602,1,0,0:0:0:0:
84,104,33525,2,0,L|108:144,12,46.6666666666667
140,100,35679,2,0,L|176:156,9,46.6666666666667
172,164,38910,1,0,0:0:0:0:
212,164,39217,1,0,0:0:0:0:
260,164,39679,1,0,0:0:0:0:
328,176,40294,1,0,0:0:0:0:
248,236,40910,1,0,0:0:0:0:
128,244,41371,1,0,0:0:0:0:
92,164,41833,1,0,0:0:0:0:
264,132,41986,1,0,0:0:0:0:
264,132,42140,1,0,0:0:0:0:
304,128,42294,1,0,0:0:0:0:
360,152,42756,1,0,0:0:0:0:
352,236,43217,1,0,0:0:0:0:
220,232,43525,1,0,0:0:0:0:
220,232,43679,1,0,0:0:0:0:
220,232,43832,1,0,0:0:0:0:
220,232,43986,1,0,0:0:0:0:
56,180,44602,2,0,L|112:172,10,46.6666666666667
112,148,48755,1,0,0:0:0:0:
296,140,49986,1,0,0:0:0:0:
296,260,50447,1,0,0:0:0:0:
108,292,50909,1,0,0:0:0:0:
96,184,51370,1,0,0:0:0:0:
284,144,51832,1,0,0:0:0:0:
252,320,52041,1,0,0:0:0:0:
336,264,52447,1,0,0:0:0:0:
112,264,52909,1,0,0:0:0:0:
124,172,53216,1,0,0:0:0:0:
236,168,53678,1,0,0:0:0:0:
220,280,54139,1,0,0:0:0:0:
100,296,54601,1,0,0:0:0:0:
84,152,55062,1,0,0:0:0:0:
84,152,55678,1,0,0:0:0:0:
152,104,56139,1,0,0:0:0:0:
152,104,56293,1,0,0:0:0:0:
156,100,56447,1,0,0:0:0:0:
168,96,56601,1,0,0:0:0:0:
328,104,57062,1,0,0:0:0:0:
348,248,57370,1,0,0:0:0:0:
264,260,57831,1,0,0:0:0:0:
204,252,58447,1,0,0:0:0:0:
204,252,58600,1,0,0:0:0:0:
204,252,58754,1,0,0:0:0:0:
192,248,58908,1,0,0:0:0:0:
88,112,59677,1,0,0:0:0:0:
264,108,60446,1,0,0:0:0:0:
264,108,60600,1,0,0:0:0:0:
96,208,61831,1,0,0:0:0:0:
228,280,61985,1,0,0:0:0:0:
284,280,62139,1,0,0:0:0:0:
108,128,63062,2,0,P|172:168|184:176,7,46.6666666666667
100,120,64754,1,0,0:0:0:0:
188,108,65062,1,0,0:0:0:0:
288,120,65523,1,0,0:0:0:0:
320,224,66138,1,0,0:0:0:0:
196,264,66600,1,0,0:0:0:0:
72,160,67061,1,0,0:0:0:0:
180,96,67523,1,0,0:0:0:0:
332,116,67984,1,0,0:0:0:0:
324,228,68446,1,0,0:0:0:0:
264,228,69061,1,0,0:0:0:0:
192,228,69369,1,0,0:0:0:0:
192,228,69523,1,0,0:0:0:0:
192,228,69830,1,0,0:0:0:0:
120,124,70446,2,0,L|272:104,1,140
268,128,71369,6,0,L|408:112,1,140
192,128,72599,1,0,0:0:0:0:
192,128,72753,1,0,0:0:0:0:
192,128,72907,1,0,0:0:0:0:
192,128,73061,1,0,0:0:0:0:
192,128,73215,1,0,0:0:0:0:
192,128,73369,1,0,0:0:0:0:
192,128,73522,1,0,0:0:0:0:
192,128,73676,1,0,0:0:0:0:
288,164,74138,1,0,0:0:0:0:
348,268,74445,1,0,0:0:0:0:
192,280,74907,1,0,0:0:0:0:
40,212,75368,1,0,0:0:0:0:
168,144,75830,1,0,0:0:0:0:
284,96,76291,1,0,0:0:0:0:
492,236,76599,1,0,0:0:0:0:
320,288,76753,1,0,0:0:0:0:
52,232,77061,1,0,0:0:0:0:
60,128,77676,2,0,L|128:120,12,46.6666666666667
104,132,81060,2,0,L|176:136,23,46.6666666666667
116,152,85829,2,0,L|188:152,17,46.6666666666667
116,216,88598,2,0,L|168:216,11,46.6666666666667
148,108,90906,2,0,P|216:288|352:132,1,466.666666666667
