osu file format v5

[General]
AudioFilename: Haggard - Eppur Si Muove - 03. Per Aspera Ad Astra.mp3
AudioLeadIn: 0
PreviewTime: 400375
Countdown: 1
SampleSet: None
StackLeniency: 0
Mode: 0
LetterboxInBreaks: 1
SkinPreference:Default
EditorBookmarks: 110365

[Metadata]
Title:Per Aspera Ad Astra
Artist:Haggard
Creator:SmileMan
Version:Hard
Source:
Tags:

[Difficulty]
HPDrainRate:7
CircleSize:5
OverallDifficulty:10
SliderMultiplier:2.6
SliderTickRate:2

[Events]
//Background and Video events
//Break Periods
2,114646,120020
2,126694,128052
2,189946,216529
2,353511,357221
//Storyboard Layer 0 (Background)
//Storyboard Layer 1 (Failing)
//Storyboard Layer 2 (Passing)
//Storyboard Layer 3 (Foreground)
//Storyboard Sound Samples
//Background Colour Transformations
3,100,255,0,0

[TimingPoints]
0,1000,4,0,0,100,1

[Colours]
Combo1 : 64,0,64
Combo2 : 5,240,5
Combo3 : 128,128,255
Combo4 : 240,5,5
Combo5 : 255,150,0

[HitObjects]
256,64,17000,1,8
256,64,17125,1,0
256,64,17250,1,0
256,64,17375,1,0
256,64,17500,1,0
256,64,17625,1,0
256,64,17750,1,0
256,64,17875,1,0
256,64,18000,1,0
256,64,18125,1,0
256,64,18250,1,0
256,64,18375,1,0
256,64,18500,1,0
256,64,18625,1,0
256,64,18750,1,0
256,64,18875,1,0
256,64,19000,1,0
256,64,19125,1,0
256,64,19250,1,0
256,64,19375,1,0
256,64,19500,1,0
256,64,19625,1,0
256,64,19750,1,0
256,64,19875,1,0
256,64,20000,1,0
256,64,20125,1,0
256,64,20250,1,0
256,64,20375,1,0
256,64,20500,1,0
256,64,20625,1,0
256,64,20750,1,0
480,160,21199,1,0
128,192,21827,1,0
160,256,22329,1,0
192,224,22705,1,0
352,288,23207,1,0
320,128,23709,1,0
160,96,24337,1,0
256,64,24839,1,0
448,32,25341,1,0
160,32,26094,5,0
224,128,27098,5,0
254,166,27250,1,0
240,288,28250,5,0
377,297,29000,5,0
320,320,29106,1,0
320,192,30110,1,0
244,145,30375,1,0
224,96,31114,1,0
96,224,32118,1,0
160,64,33375,5,0
192,64,33500,1,0
320,64,34125,1,0
352,64,34250,1,0
160,288,34875,1,0
192,288,35000,1,0
320,288,35625,1,0
352,288,35750,1,0
160,64,36375,5,0
192,64,36500,1,0
320,64,37125,1,0
352,64,37250,1,0
160,288,37875,1,0
192,288,38000,1,0
320,288,38625,1,0
352,288,38750,1,0
256,192,39375,6,0,B|256:32,1,130
256,192,40500,6,0,B|256:352,1,130
96,128,42158,1,0
128,128,42250,1,0
96,128,43162,1,0
96,160,43375,1,0
96,128,44166,1,0
64,128,44375,1,0
96,128,45170,1,0
96,96,45375,1,0
96,128,46174,1,0
128,128,46375,1,0
96,128,47178,1,0
96,160,47250,1,0
96,128,48182,1,0
128,128,48375,1,0
96,128,49186,1,0
96,160,49500,1,0
128,128,50190,1,0
128,128,50500,1,0
128,128,51194,1,0
147,169,51375,1,0
128,128,52198,1,0
128,128,52500,1,0
124,124,53202,1,0
128,128,53202,1,0
124,124,53625,1,0
128,128,54206,1,0
134,173,54625,1,0
181,32,55210,6,0,B|181:308|188:316|188:316|464:316|464:316|461:24|461:24|462:27|464:39,1,845
58,99,62000,2,0,B|451:93|353:106|352:104,2,292.5
256,192,67258,12,0,75258
64,32,77298,6,0,B|480:352|352:32|96:288,1,552.5
121,76,82000,2,0,B|422:276,3,357.5
241,185,89346,5,0
333,121,90350,1,0
382,255,91354,1,0
340,210,92358,1,0
284,180,93362,1,0
320,96,94366,1,0
96,192,95370,1,0
384,288,96374,1,0
352,128,97378,1,0
92,111,99000,1,0
166,120,99250,1,0
166,120,99625,1,0
166,120,99750,1,0
320,64,100390,5,8
96,64,101394,1,8
64,64,104406,5,12
163,92,105410,1,0
163,92,105410,1,0
162,91,106414,1,0
162,91,107418,1,0
177,167,108422,1,0
256,232,109426,1,0
448,128,110430,1,12
112,56,111434,1,0
122,120,112438,1,0
218,166,113442,1,0
328,166,114446,1,0
64,32,120470,5,0
256,224,121474,1,14
256,160,122478,5,14
256,96,123482,1,14
256,32,124486,1,14
224,32,125490,1,14
224,32,126494,1,14
224,64,128502,1,14
224,64,129506,1,14
224,64,130510,1,14
320,96,133522,1,6
288,192,135530,1,6
288,192,136534,5,6
284,188,137538,1,6
288,192,137538,1,6
284,188,138542,1,6
288,192,138542,1,6
38,57,140550,1,6
192,96,141750,5,0
224,96,141875,1,0
256,96,142000,1,0
288,96,142125,1,0
320,96,142250,1,0
352,96,142375,1,0
384,96,142500,1,0
384,128,142625,1,0
384,160,142750,1,0
384,192,142875,1,0
384,192,143000,1,0
384,224,143125,1,0
384,256,143250,1,0
384,288,143375,1,0
384,320,143500,1,0
352,320,143625,1,0
320,320,143750,1,0
288,320,143875,1,0
256,320,144000,1,0
224,320,144125,1,0
192,320,144250,1,0
160,320,144375,1,0
128,320,144500,1,0
96,320,144625,1,0
64,320,144750,1,0
64,288,144875,1,0
64,256,145000,1,0
64,224,145125,1,0
64,192,145250,1,0
64,160,145375,1,0
64,128,145500,1,0
64,96,145625,1,0
64,64,145750,1,4
160,64,146125,6,4,B|416:64|448:64,1,260
416,128,147250,6,4,B|160:128|128:128,1,260
160,192,148250,6,0,B|320:192,1,130
320,192,148875,6,0,B|448:192,1,97.5
158,31,149586,1,6
284,41,150590,1,6
388,42,150590,1,6
404,174,151594,1,6
268,312,152598,1,6
390,284,153602,1,6
160,320,153750,6,0,B|32:320,1,97.5
64,256,154250,6,0,B|192:256,1,97.5
160,192,154750,6,0,B|32:192,1,97.5
64,128,155250,6,0,B|160:128|192:128,1,97.5
160,64,155750,6,0,B|32:64,1,97.5
224,64,156250,6,0,B|224:352,1,260
256,96,157750,5,0
256,96,158000,1,0
256,160,158750,5,0
256,160,159000,1,0
256,224,159750,5,0
256,224,160000,1,0
256,64,160750,5,0
256,64,161000,1,0
256,160,161750,5,0
256,160,162000,1,0
256,288,162750,5,0
256,288,163000,1,0
64,64,163500,6,0,B|448:64|448:64|448:320|448:320|64:320|64:320|64:160|64:160|76:157|76:157|77:160|77:160|64:160,1,1202.5
256,192,170670,12,8,175670
160,64,176694,5,0
65,72,177698,2,0,B|434:307|146:232,1,390
256,64,180500,5,0
256,64,180750,1,0
254,80,181714,1,0
254,80,182000,1,0
260,76,182718,1,0
260,76,183000,1,0
260,76,183722,1,0
260,76,184000,1,0
264,76,184726,1,0
264,76,185000,1,0
224,288,185625,5,0
192,256,185750,1,0
160,224,185875,1,0
128,192,186000,1,0
96,160,186125,1,0
64,128,186250,1,0
32,96,186375,1,0
288,288,186875,5,0
320,256,187000,1,0
352,224,187125,1,0
384,192,187250,1,0
416,160,187375,1,0
448,128,187500,1,0
480,96,187625,1,0
255,132,189746,5,0
202,170,216979,1,0
104,136,217481,1,0
76,71,217983,1,0
148,52,218611,1,0
214,41,219238,1,0
272,41,219740,1,0
307,40,220368,1,0
352,40,220995,1,0
405,48,221497,1,0
440,96,222125,1,0
443,148,222627,1,0
443,175,223254,1,0
443,215,223631,1,0
443,242,224258,1,0
440,272,224886,1,0
440,290,225388,1,0
392,312,225890,1,0
364,308,226392,1,0
310,306,227019,1,0
275,302,227521,1,0
237,301,228023,1,0
196,300,228525,1,0
152,292,229153,1,0
116,288,229655,1,0
66,253,230157,1,0
44,210,230659,1,0
43,165,231161,1,0
47,122,231663,1,0
56,91,232165,1,0
72,68,232667,1,0
108,48,233169,1,0
144,33,233671,1,0
208,32,234173,1,0
271,32,234800,1,0
309,35,235302,1,0
372,65,235804,1,0
388,91,236306,1,0
405,120,236808,1,0
416,160,237000,6,0,B|416:352|416:320,1,162.5
352,320,238000,2,0,B|352:160,1,130
288,160,239000,2,0,B|288:320,1,130
260,194,240448,5,0
262,123,241452,1,0
27,22,243334,2,0,B|475:346|464:16|26:20|55:332|483:197|196:38|248:276|48:197|108:347|468:339|442:38,1,877.5
92,93,250990,5,0
92,93,251250,5,0
179,95,251994,1,0
263,102,252998,1,0
336,103,254002,1,0
366,98,255006,1,0
403,99,255006,1,0
417,117,256010,1,0
423,208,257014,1,0
423,310,258018,1,0
349,313,259022,1,0
294,317,260026,1,0
221,326,261030,1,0
132,319,262034,1,0
77,285,263038,1,0
67,208,264042,1,0
256,44,267054,1,0
52,87,269689,2,0,B|460:340|92:261,1,455
276,149,274082,1,0
313,308,275086,1,0
198,262,276090,1,0
250,178,277094,1,0
308,150,278098,1,0
339,59,278725,1,0
181,126,279101,1,0
366,84,279353,1,0
164,235,279664,1,0
164,235,279823,1,0
264,236,280143,1,0
316,220,280323,1,0
316,220,280520,1,0
348,201,280815,1,0
365,171,281167,1,0
365,171,281426,1,0
365,171,281619,1,0
353,132,281849,1,0
282,112,282505,1,0
282,112,282762,1,0
217,112,282976,1,0
217,112,283231,1,0
135,119,283489,1,0
120,152,283768,1,0
155,180,283970,1,0
89,173,283996,1,0
212,182,284151,1,0
256,183,284364,1,0
252,86,285103,1,0
252,86,285269,1,0
252,86,285456,1,0
252,86,285743,1,0
252,86,285930,1,0
252,86,286116,1,0
252,86,286348,1,0
252,86,286527,1,0
252,86,286740,1,0
252,86,286959,1,0
252,86,287189,1,0
252,86,287428,1,0
214,128,288138,1,0
349,200,289277,5,0
349,200,289463,1,0
349,200,289656,1,0
349,200,289847,1,0
349,200,290050,1,0
349,200,290284,1,0
349,200,290762,1,0
349,200,290991,1,0
349,200,291223,1,0
349,200,291433,1,0
349,200,291669,1,0
349,200,291827,1,0
349,200,292026,1,0
399,54,294162,1,0
390,84,295166,1,0
352,97,296170,1,0
308,95,297174,1,0
262,93,298178,1,0
278,94,298178,1,0
230,92,299182,1,0
211,90,300186,1,0
188,88,301190,1,0
72,49,302700,6,0,B|478:346|475:46|476:118,3,455
110,79,313559,2,0,B|130:246,4,162.5
255,32,323652,5,0
255,32,324015,1,0
259,92,324487,1,0
259,140,324996,1,0
259,188,325418,1,0
259,218,325903,1,0
259,257,326378,1,0
259,288,326858,1,0
261,322,327441,1,0
265,346,327928,1,0
33,192,334023,5,0
53,189,334531,1,0
53,189,334940,1,0
105,189,335455,1,0
140,189,335949,1,0
140,189,336385,1,0
191,192,336834,1,0
241,192,337763,1,0
272,196,338292,1,0
314,204,338767,1,0
358,204,339260,1,0
400,204,339722,1,0
426,179,340167,1,0
402,128,340635,1,0
372,111,341090,1,0
343,108,341620,1,0
305,105,342071,1,0
270,105,342559,1,0
240,105,343050,1,0
185,100,343575,1,0
216,208,344100,1,0
216,208,344491,1,0
216,208,344959,1,0
216,208,345396,1,0
228,210,345895,1,0
228,210,346379,1,0
228,210,346879,1,0
228,210,347405,1,0
228,210,347805,1,0
228,210,348277,1,0
228,208,348780,1,0
228,208,349252,1,0
228,208,349730,1,0
228,208,350188,1,0
228,208,350634,1,0
86,129,352933,5,0
228,109,353311,1,0
250,32,357671,6,0,B|256:360,1,292.5
132,72,362692,1,0
371,60,363765,5,0
367,119,364856,1,0
370,176,365066,1,0
368,228,365376,1,0
368,264,365709,1,0
81,48,369219,2,0,B|461:71|464:69|430:292|103:263|103:253,1,682.5
252,185,379125,1,0
252,185,379305,1,0
252,185,379467,1,0
252,185,379605,1,0
252,185,379771,1,0
252,185,379946,1,0
252,185,380128,1,0
252,185,380322,1,0
252,185,380502,1,0
252,185,380691,1,0
252,185,380929,1,0
252,185,381073,1,0
252,185,381235,1,0
252,185,381614,1,0
252,185,381795,1,0
145,94,383518,1,0
165,109,384522,1,0
189,127,385526,5,0
214,146,386530,1,0
243,168,387534,1,0
274,192,388538,1,0
308,217,389542,1,0
341,242,390546,1,0
136,85,391596,6,0,B,1,0
379,272,392554,1,0
256,192,393250,12,0,396250
