osu file format v9

[General]
AudioFilename: 1. Hadise - Dum tek tek (radio rip).mp3
AudioLeadIn: 0
PreviewTime: 43991
Countdown: 1
SampleSet: Normal
StackLeniency: 0.7
Mode: 0
LetterboxInBreaks: 1

[Editor]
DistanceSpacing: 1.2
BeatDivisor: 4
GridSize: 8

[Metadata]
Title:Dum Tek Tek
Artist:Hadise
Creator:Tonoicutzu
Version:Hard
Source:Eurovision Song Contest 2009
Tags:Turkey Oriental Pop

[Difficulty]
HPDrainRate:7
CircleSize:4
OverallDifficulty:7
ApproachRate:7
SliderMultiplier:2
SliderTickRate:2

[Events]
//Background and Video events
0,0,"Hadise-Sexy-Hot-Nude-Photo-Picture.JPG"
//Break Periods
2,121233,128689
//Storyboard Layer 0 (Background)
//Storyboard Layer 1 (Fail)
//Storyboard Layer 2 (Pass)
//Storyboard Layer 3 (Foreground)
//Storyboard Sound Samples
//Background Colour Transformations
3,100,163,162,255

[TimingPoints]
198,521.739130434783,4,1,0,60,1,0
44020,-100,4,1,0,60,0,1
46889,-100,4,1,0,60,0,0
47150,-100,4,1,0,60,0,1
55237,-100,4,1,0,60,0,0
55498,-100,4,1,0,60,0,1
60715,-100,4,1,0,60,0,0
76367,-100,4,1,0,60,0,1
76889,-100,4,1,0,60,0,0
104541,-100,4,1,0,60,0,1
107411,-100,4,1,0,60,0,0
107672,-100,4,1,0,60,0,1
115759,-100,4,1,0,60,0,0
116020,-100,4,1,0,60,0,1
121237,-100,4,1,0,60,0,0
136889,-100,4,1,0,60,0,1
137411,-100,4,1,0,60,0,0
137672,-100,4,1,0,40,0,0
146020,-100,4,1,0,60,0,0
154628,-100,4,1,0,60,0,1
157498,-100,4,1,0,60,0,0
157759,-100,4,1,0,60,0,1
165846,-100,4,1,0,60,0,0
166107,-100,4,1,0,60,0,1
178367,-100,4,1,0,60,0,0
178628,-100,4,1,0,60,0,1
179150,-100,4,1,0,60,0,0

[Colours]
Combo1 : 255,150,0
Combo2 : 192,192,192
Combo3 : 255,128,64
Combo4 : 185,100,36

[HitObjects]
48,296,8545,1,4
48,176,8806,2,0,B|16:112|104:160|48:48,1,100,0|8
184,88,9328,1,0
256,184,9589,1,0
328,88,9850,2,0,B|392:120|344:32|456:88,1,100,0|8
416,192,10371,5,0
328,272,10632,1,0
256,184,10893,2,0,B|128:184,1,100,0|8
152,64,11415,1,0
32,64,11676,1,0
152,64,11937,1,0
152,192,12198,6,0,B|161:290|333:224|298:176,1,200,8|0
432,192,12980,1,0
432,64,13241,2,0,B|368:32|416:120|304:64,1,100,8|0
224,80,13763,1,0
104,80,14024,1,0
104,200,14284,6,0,B|232:200,1,100,8|0
328,200,14806,1,0
328,80,15067,1,0
328,200,15328,2,0,B|184:200,1,100,8|0
224,72,15850,5,0
104,72,16111,1,0
104,192,16371,2,2,B|8:240|184:312|64:360,1,200
192,360,17154,2,2,B|288:312|112:240|232:192,1,200
344,200,17937,5,0
344,80,18198,1,8
344,200,18458,1,0
344,80,18719,1,8
224,72,18980,2,2,B|192:44|112:56|104:120,2,150,0|8|8
224,192,20024,5,0
104,192,20284,1,8
104,312,20545,1,0
224,312,20806,1,8
224,192,21067,2,2,B|256:164|336:176|344:240,2,150,0|8|8
224,312,22111,6,0,B|344:312,1,100,0|8
392,208,22632,2,0,B|392:352,1,100,0|8
288,248,23154,1,4
96,104,23676,1,4
288,248,24198,1,4
32,32,25241,5,0
32,152,25502,1,0
152,152,25763,2,0,B|216:192|264:144|264:144,2,100,8|8|0
152,272,26545,1,8
272,272,26806,1,0
152,272,27067,1,8
152,152,27328,6,0,B|48:152,1,100,0|0
48,32,27850,1,8
168,32,28111,1,8
288,32,28371,2,0,B|288:144,1,100,0|8
184,200,28893,2,0,B|320:200,1,100,0|8
288,320,29415,5,0
408,320,29676,1,0
408,200,29937,2,8,B|344:160|296:208|296:208,1,100
312,72,30458,1,0
192,72,30719,1,8
192,192,30980,5,0
72,192,31241,1,8
136,296,31502,1,4
256,40,32024,1,4
360,296,32545,1,4
32,40,33589,6,2,B|133:121|-60:145|56:215,1,200
160,208,34371,1,8
280,208,34632,1,0
160,208,34893,1,8
32,40,35415,5,8
152,40,35676,2,2,B|152:128|280:128|280:32,1,200,4|8
380,44,36458,1,8
380,144,36719,1,0
380,44,36980,1,8
168,96,37502,1,4
168,96,37763,1,4
256,192,38024,12,4,39850
168,96,40893,5,4
344,96,41284,1,4
344,280,41676,2,4,B|216:280,1,100
120,280,42198,2,10,B|120:160,3,100
432,80,44024,6,8,B|368:136|464:192,1,100
432,288,44545,1,0
312,288,44806,1,0
192,288,45067,6,8,B|192:144,1,100
192,64,45589,1,0
312,64,45850,1,0
320,184,46111,6,8,B|384:240|288:296,1,100
208,264,46632,1,0
88,264,46893,1,0
88,144,47154,2,12,B|88:32,2,100
296,72,48198,5,0
416,72,48458,1,0
416,192,48719,1,8
416,312,48980,1,8
296,312,49241,6,0,B|176:312,1,100
192,192,49763,1,8
192,72,50024,1,8
312,72,50284,6,0,B|376:128|280:184,2,100,0|0|8
192,72,51067,1,8
192,192,51328,1,12
264,288,51589,1,12
336,192,51850,1,12
448,48,52371,5,0
328,48,52632,2,0,B|208:48,1,100,8|0
104,48,53154,1,8
104,168,53415,1,0
104,288,53676,6,0,B|240:288,1,100,8|0
328,288,54198,1,8
328,168,54458,1,0
328,48,54719,6,0,B|384:-16|440:80,1,100,8|0
424,168,55241,1,8
424,288,55502,1,4
256,288,55763,1,4
88,288,56024,1,0
256,144,56545,6,0,B|256:0,2,100,0|8|0
328,240,57328,1,8
408,144,57589,2,0,B|408:40,1,100,0|8
288,40,58111,1,0
168,40,58371,1,8
48,40,58632,6,0,B|48:160,1,100,0|8
48,264,59154,1,0
168,264,59415,1,8
288,264,59676,1,4
288,144,59937,1,4
288,24,60198,1,4
184,248,60719,6,10,B|184:168|44:168|44:260,1,200
288,248,61763,2,10,B|286:169|426:169|426:249,1,200
224,120,62806,2,10,B|224:200|84:200|84:108,1,200
328,120,63850,2,4,B|368:144|368:200|312:216,2,100
472,352,64893,5,8
392,64,65415,1,8
304,352,65937,1,8
224,64,66458,1,8
136,352,66980,1,8
48,64,67502,1,8
320,192,68024,1,8
200,192,68284,1,8
80,192,68545,1,8
400,304,69067,6,10,B|400:72,1,200
264,304,70111,2,10,B|264:80,1,200
128,304,71154,2,10,B|128:72,1,200
368,96,72197,2,12,B|488:96,2,100
256,312,73241,6,10,B|288:208|392:344|432:216,1,200
256,176,74284,2,10,B|224:72|120:208|80:80,1,200
256,176,75328,2,10,B|288:72|392:208|432:80,1,200
256,176,76371,1,12
256,176,76632,1,12
256,176,76893,1,12
456,304,77415,6,8,B|456:176,1,100
256,72,78197,2,0,B|136:72,1,100,0|8
152,192,78719,2,0,B|40:192,1,100,0|8
48,312,79241,1,0
168,312,79502,1,8
288,312,79763,1,0
408,312,80024,6,8,B|408:256|464:320|456:224,1,100
448,120,80545,1,0
328,120,80806,1,8
208,120,81067,1,0
88,120,81328,1,8
88,240,81589,2,2,B|248:240,1,150
416,232,82371,5,8
416,112,82632,2,8,B|360:112|424:56|328:64,1,100
224,64,83154,2,8,B|224:120|168:56|176:152,1,100
176,256,83676,1,4
416,256,84197,1,4
176,256,84719,1,4
64,56,85763,6,0,B|64:184,1,100,8|0
64,280,86284,1,8
184,280,86545,1,0
304,280,86806,2,0,B|304:160,1,100,8|0
304,56,87328,1,8
424,56,87589,1,0
304,56,87850,5,8
240,160,88111,2,0,B|240:216|184:152|192:248,1,100,0|8
72,232,88632,1,0
72,112,88893,1,8
184,160,89154,1,0
304,152,89415,2,0,B|304:40,1,100,8|0
184,56,89937,5,8
64,56,90197,1,0
64,176,90458,2,0,B|164:176,1,100,8|0
168,296,90980,1,8
264,224,91241,1,0
352,144,91502,1,8
360,264,91763,5,0
272,344,92024,1,4
272,104,92545,1,4
272,344,93067,1,4
216,72,94111,6,2,B|312:-16|312:160|432:32,1,200
408,184,94893,1,8
288,184,95154,1,0
408,184,95415,1,8
224,24,95937,5,8
224,144,96197,2,2,B|180:236|80:60|36:208,1,200
48,296,96980,1,8
168,296,97241,1,0
48,296,97502,1,8
112,64,98024,1,4
112,64,98284,1,4
256,192,98545,12,4,100371
88,136,101415,6,2,B|280:136,1,150
416,136,102197,2,0,B|416:264,1,100
296,232,102719,1,0
176,232,102980,1,0
296,232,103241,1,0
176,232,103502,1,0
80,304,104545,6,0,B|24:264|128:240|56:184,1,100,8|8
80,96,105067,1,0
200,96,105328,1,0
320,96,105589,6,0,B|376:136|272:160|344:216,1,100,8|8
320,304,106111,1,0
440,304,106371,1,0
440,184,106632,6,8,B|440:48,1,100
320,96,107154,1,0
200,96,107415,1,0
256,200,107676,2,12,B|256:312,2,100
32,296,108719,5,0
32,176,108980,1,0
32,56,109241,1,8
152,56,109502,1,8
272,56,109763,6,0,B|312:0|336:104|392:32,1,100,0|0
336,192,110284,1,8
336,312,110545,1,8
216,312,110806,6,0,B|88:312,2,100,0|0|8
336,312,111589,1,8
336,192,111850,1,12
256,104,112111,1,12
176,192,112371,1,12
48,336,112893,5,0
168,336,113154,2,0,B|192:288|192:288|240:288|240:288,1,100,8|0
360,288,113676,1,8
456,216,113937,1,0
448,96,114197,6,0,B|312:96,1,100,8|0
224,96,114719,1,8
224,216,114980,1,0
192,328,115241,2,0,B|144:304|144:304|144:256|144:256,1,100,8|0
72,216,115763,5,8
72,96,116024,1,4
224,96,116284,1,4
376,96,116545,1,0
256,240,117067,6,0,B|256:384,2,100,0|8|0
176,144,117850,1,8
104,240,118111,2,0,B|104:344,1,100,0|8
224,344,118632,1,0
344,344,118893,1,8
464,344,119154,6,0,B|464:224,1,100,0|8
464,120,119676,1,0
344,120,119937,1,8
224,120,120197,1,4
104,120,120458,1,4
224,120,120719,1,4
48,192,129589,6,2,B|88:88|168:216|208:88,1,200
152,336,130632,2,2,B|192:232|272:360|312:232,1,200
160,56,131676,2,2,B|200:160|280:32|320:160,1,200
112,272,132719,1,4
112,272,132980,1,4
112,272,133241,1,4
112,32,133763,5,0
352,32,134284,1,0
352,272,134806,1,0
112,272,135328,1,0
352,272,135850,1,0
112,272,136371,1,0
112,32,136893,1,4
112,32,137154,1,4
112,32,137415,1,4
112,272,137937,6,2,B|232:408|264:168|416:344,2,300
296,120,140024,2,2,B|185:-7|153:233|36:92,2,300
112,272,142111,6,2,B|232:408|264:168|416:344,2,300
216,56,144197,2,2,B|311:218|367:-53|471:122,2,300
56,56,146284,5,8
248,56,146806,1,8
440,56,147328,1,4
440,56,147589,1,4
440,56,147850,1,4
56,192,148371,5,8
248,192,148893,1,8
440,192,149415,1,4
440,192,149676,1,4
440,192,149937,1,4
56,320,150458,5,8
248,320,150980,1,8
440,320,151502,1,4
440,320,151763,1,4
440,320,152024,1,4
56,192,152545,5,8
248,112,153067,1,8
440,192,153589,1,4
440,192,153850,1,4
440,192,154111,1,4
440,320,154632,6,8,B|440:184,1,100,12|8
440,96,155154,1,0
320,96,155415,1,0
200,96,155676,2,8,B|160:144|176:152|176:152|144:200,1,100
152,304,156197,1,0
232,208,156458,5,0
352,200,156719,2,8,B|352:64,1,100
224,104,157241,1,0
96,104,157502,1,0
96,232,157763,2,4,B|56:296|128:344,2,100
280,312,158806,5,0
400,312,159067,1,0
400,192,159328,1,8
400,72,159589,1,8
280,72,159850,2,0,B|160:72,1,100
176,192,160371,1,8
176,312,160632,1,8
296,312,160893,6,0,B|424:312,2,100,0|0|8
176,312,161676,1,8
176,192,161937,1,12
256,96,162197,1,12
328,192,162458,1,12
464,336,162980,5,0
344,336,163241,2,0,B|288:280|368:248,1,100,8|0
232,256,163763,1,8
112,256,164024,1,0
112,136,164284,2,0,B|248:136,1,100,8|0
336,136,164806,1,8
336,256,165067,5,0
240,320,165328,2,0,B|352:320,1,100,8|0
464,320,165850,1,8
464,192,166111,1,4
256,192,166371,1,4
48,192,166632,1,0
256,224,167154,6,0,B|256:368,2,100,0|8|0
328,120,167937,1,8
408,224,168197,2,0,B|408:328,1,100,0|8
288,320,168719,1,0
168,320,168980,1,8
48,312,169241,6,0,B|-8:248|72:192,1,100,0|8
48,96,169763,1,0
168,96,170024,1,8
296,96,170284,1,4
296,96,170545,1,4
296,96,170806,1,4
80,304,171328,6,0,B|80:168,1,100,0|8
80,80,171850,2,0,B|192:80,1,100,0|8
312,80,172371,2,0,B|432:80,1,100,0|8
416,200,172893,2,0,B|416:312,1,100,0|8
288,296,173415,5,0
288,176,173676,1,8
168,176,173937,1,0
48,176,174197,1,8
48,56,174458,1,4
48,56,174719,1,4
48,56,174980,1,4
48,296,175502,6,0,B|168:296,1,100,0|8
272,296,176024,2,0,B|384:296,1,100,0|8
360,176,176545,2,0,B|296:152|296:152|296:96,1,100,0|8
360,176,177067,2,0,B|424:152|424:152|424:96,1,100,0|8
152,72,177589,5,0
152,192,177850,1,8
152,320,178111,1,0
272,320,178371,1,8
272,192,178632,5,4
272,192,178893,1,4
272,192,179154,1,4
